osu file format v14

[General]
AudioFilename: audio.mp3
AudioLeadIn: 0
PreviewTime: 14624
Countdown: 1
SampleSet: None
StackLeniency: 0.7
Mode: 1
LetterboxInBreaks: 0
WidescreenStoryboard: 0

[Editor]
DistanceSpacing: 0.4
BeatDivisor: 4
GridSize: 32
TimelineZoom: 2.4

[Metadata]
Title:FAITH
TitleUnicode:FAITH
Artist:Unlucky Morpheus
ArtistUnicode:Unlucky Morpheus
Creator:Dainesl
Version:Faithless Oni
Source:東方Project
Tags:東方風神録 ~ Mountain of Faith. Native Faith ネイティブフェイス Moriya Suwako 洩矢諏訪子 metal touhou th10 REBIRTH Revisited c89 comiket
BeatmapID:1166486
BeatmapSetID:550612

[Difficulty]
HPDrainRate:6
CircleSize:5
OverallDifficulty:7
ApproachRate:5
SliderMultiplier:1.4
SliderTickRate:1

[Events]
//Background and Video events
//Break Periods
//Storyboard Layer 0 (Background)
//Storyboard Layer 1 (Fail)
//Storyboard Layer 2 (Pass)
//Storyboard Layer 3 (Foreground)
//Storyboard Sound Samples

[TimingPoints]
224,300,4,1,0,100,1,0
9824,-100,4,1,0,100,0,1
14624,-100,4,1,0,100,0,0
38624,-100,4,1,0,100,0,1
43424,-100,4,1,0,100,0,1
48224,-100,4,1,0,100,0,0

[HitObjects]
256,192,224,5,8,0:0:0:0:
256,192,299,1,0,0:0:0:0:
256,192,374,1,0,0:0:0:0:
256,192,449,1,0,0:0:0:0:
256,192,524,1,8,0:0:0:0:
256,192,599,1,8,0:0:0:0:
256,192,674,1,0,0:0:0:0:
256,192,749,1,0,0:0:0:0:
256,192,824,1,8,0:0:0:0:
256,192,899,1,0,0:0:0:0:
256,192,974,1,0,0:0:0:0:
256,192,1049,1,0,0:0:0:0:
256,192,1124,1,8,0:0:0:0:
256,192,1199,1,8,0:0:0:0:
256,192,1274,1,0,0:0:0:0:
256,192,1424,1,8,0:0:0:0:
256,192,1499,1,0,0:0:0:0:
256,192,1574,1,0,0:0:0:0:
256,192,1649,1,0,0:0:0:0:
256,192,1724,1,8,0:0:0:0:
256,192,1799,1,8,0:0:0:0:
256,192,1874,1,0,0:0:0:0:
256,192,1949,1,0,0:0:0:0:
256,192,2024,1,8,0:0:0:0:
256,192,2099,1,0,0:0:0:0:
256,192,2174,1,0,0:0:0:0:
256,192,2249,1,0,0:0:0:0:
256,192,2324,1,8,0:0:0:0:
256,192,2399,1,8,0:0:0:0:
256,192,2474,1,0,0:0:0:0:
256,192,2624,1,8,0:0:0:0:
256,192,2699,1,8,0:0:0:0:
256,192,2774,1,8,0:0:0:0:
256,192,2849,1,8,0:0:0:0:
256,192,2924,1,0,0:0:0:0:
256,192,2999,1,8,0:0:0:0:
256,192,3074,1,8,0:0:0:0:
256,192,3149,1,8,0:0:0:0:
256,192,3224,1,0,0:0:0:0:
256,192,3299,1,0,0:0:0:0:
256,192,3374,1,0,0:0:0:0:
256,192,3449,1,0,0:0:0:0:
256,192,3524,1,8,0:0:0:0:
256,192,3599,1,0,0:0:0:0:
256,192,3674,1,8,0:0:0:0:
256,192,3824,1,8,0:0:0:0:
256,192,3899,1,8,0:0:0:0:
256,192,3974,1,8,0:0:0:0:
256,192,4049,1,8,0:0:0:0:
256,192,4124,1,0,0:0:0:0:
256,192,4199,1,8,0:0:0:0:
256,192,4274,1,8,0:0:0:0:
256,192,4349,1,8,0:0:0:0:
256,192,4424,1,0,0:0:0:0:
256,192,4499,1,0,0:0:0:0:
256,192,4574,1,0,0:0:0:0:
256,192,4649,1,0,0:0:0:0:
256,192,4724,1,8,0:0:0:0:
256,192,4799,1,0,0:0:0:0:
256,192,4874,1,8,0:0:0:0:
256,192,5024,1,8,0:0:0:0:
256,192,5099,1,8,0:0:0:0:
256,192,5174,1,0,0:0:0:0:
256,192,5249,1,0,0:0:0:0:
256,192,5324,1,8,0:0:0:0:
256,192,5399,1,8,0:0:0:0:
256,192,5474,1,8,0:0:0:0:
256,192,5549,1,8,0:0:0:0:
256,192,5624,1,0,0:0:0:0:
256,192,5699,1,0,0:0:0:0:
256,192,5774,1,8,0:0:0:0:
256,192,5849,1,8,0:0:0:0:
256,192,5924,1,0,0:0:0:0:
256,192,5999,1,0,0:0:0:0:
256,192,6074,1,0,0:0:0:0:
256,192,6224,1,8,0:0:0:0:
256,192,6299,1,8,0:0:0:0:
256,192,6374,1,0,0:0:0:0:
256,192,6449,1,0,0:0:0:0:
256,192,6524,1,8,0:0:0:0:
256,192,6599,1,8,0:0:0:0:
256,192,6674,1,8,0:0:0:0:
256,192,6749,1,8,0:0:0:0:
256,192,6824,1,0,0:0:0:0:
256,192,6899,1,0,0:0:0:0:
256,192,6974,1,8,0:0:0:0:
256,192,7049,1,8,0:0:0:0:
256,192,7124,1,0,0:0:0:0:
256,192,7199,1,0,0:0:0:0:
256,192,7274,1,0,0:0:0:0:
256,192,7424,1,8,0:0:0:0:
256,192,7499,1,8,0:0:0:0:
256,192,7574,1,0,0:0:0:0:
256,192,7649,1,0,0:0:0:0:
256,192,7724,1,8,0:0:0:0:
256,192,7799,1,8,0:0:0:0:
256,192,7874,1,8,0:0:0:0:
256,192,7949,1,8,0:0:0:0:
256,192,8024,1,0,0:0:0:0:
256,192,8099,1,0,0:0:0:0:
256,192,8174,1,8,0:0:0:0:
256,192,8249,1,8,0:0:0:0:
256,192,8324,1,0,0:0:0:0:
256,192,8399,1,0,0:0:0:0:
256,192,8474,1,0,0:0:0:0:
256,192,8624,1,8,0:0:0:0:
256,192,8699,1,8,0:0:0:0:
256,192,8774,1,0,0:0:0:0:
256,192,8849,1,8,0:0:0:0:
256,192,8924,1,8,0:0:0:0:
256,192,8999,1,8,0:0:0:0:
256,192,9074,1,0,0:0:0:0:
256,192,9149,1,8,0:0:0:0:
256,192,9224,1,8,0:0:0:0:
256,192,9299,1,8,0:0:0:0:
256,192,9374,1,0,0:0:0:0:
256,192,9449,1,8,0:0:0:0:
256,192,9524,1,0,0:0:0:0:
256,192,9599,1,8,0:0:0:0:
256,192,9674,1,0,0:0:0:0:
256,192,9824,1,8,0:0:0:0:
256,192,9899,1,0,0:0:0:0:
256,192,9974,1,8,0:0:0:0:
256,192,10049,1,8,0:0:0:0:
256,192,10124,1,0,0:0:0:0:
256,192,10199,1,0,0:0:0:0:
256,192,10274,1,8,0:0:0:0:
256,192,10349,1,8,0:0:0:0:
256,192,10424,1,0,0:0:0:0:
256,192,10499,1,8,0:0:0:0:
256,192,10574,1,8,0:0:0:0:
256,192,10649,1,8,0:0:0:0:
256,192,10724,1,0,0:0:0:0:
256,192,10799,1,8,0:0:0:0:
256,192,10874,1,0,0:0:0:0:
256,192,10949,1,0,0:0:0:0:
256,192,11024,1,8,0:0:0:0:
256,192,11099,1,8,0:0:0:0:
256,192,11174,1,8,0:0:0:0:
256,192,11249,1,8,0:0:0:0:
256,192,11324,1,0,0:0:0:0:
256,192,11399,1,0,0:0:0:0:
256,192,11474,1,0,0:0:0:0:
256,192,11549,1,0,0:0:0:0:
256,192,11624,1,8,0:0:0:0:
256,192,11699,1,0,0:0:0:0:
256,192,11774,1,0,0:0:0:0:
256,192,11849,1,8,0:0:0:0:
256,192,11924,1,0,0:0:0:0:
256,192,11999,1,0,0:0:0:0:
256,192,12074,1,8,0:0:0:0:
256,192,12149,1,0,0:0:0:0:
256,192,12224,1,8,0:0:0:0:
256,192,12299,1,0,0:0:0:0:
256,192,12374,1,8,0:0:0:0:
256,192,12449,1,8,0:0:0:0:
256,192,12524,1,0,0:0:0:0:
256,192,12599,1,0,0:0:0:0:
256,192,12674,1,8,0:0:0:0:
256,192,12749,1,8,0:0:0:0:
256,192,12824,1,0,0:0:0:0:
256,192,12899,1,8,0:0:0:0:
256,192,12974,1,8,0:0:0:0:
256,192,13049,1,8,0:0:0:0:
256,192,13124,1,0,0:0:0:0:
256,192,13199,1,8,0:0:0:0:
256,192,13274,1,0,0:0:0:0:
256,192,13349,1,0,0:0:0:0:
256,192,13424,1,8,0:0:0:0:
256,192,13499,1,8,0:0:0:0:
256,192,13574,1,8,0:0:0:0:
256,192,13649,1,8,0:0:0:0:
256,192,13724,1,0,0:0:0:0:
256,192,13799,1,0,0:0:0:0:
256,192,13874,1,0,0:0:0:0:
256,192,13949,1,0,0:0:0:0:
256,192,14024,1,8,0:0:0:0:
256,192,14099,1,8,0:0:0:0:
256,192,14174,1,0,0:0:0:0:
256,192,14249,1,8,0:0:0:0:
256,192,14324,1,0,0:0:0:0:
256,192,14399,1,0,0:0:0:0:
256,192,14474,1,0,0:0:0:0:
256,192,14549,1,0,0:0:0:0:
256,192,14624,1,8,0:0:0:0:
256,192,14774,1,0,0:0:0:0:
256,192,14924,1,0,0:0:0:0:
256,192,15074,1,0,0:0:0:0:
256,192,15149,1,0,0:0:0:0:
256,192,15224,1,8,0:0:0:0:
256,192,15374,1,0,0:0:0:0:
256,192,15524,1,0,0:0:0:0:
256,192,15674,1,8,0:0:0:0:
256,192,15749,1,8,0:0:0:0:
256,192,15824,1,8,0:0:0:0:
256,192,15974,1,0,0:0:0:0:
256,192,16049,1,8,0:0:0:0:
256,192,16124,1,0,0:0:0:0:
256,192,16199,1,0,0:0:0:0:
256,192,16274,1,8,0:0:0:0:
256,192,16424,1,0,0:0:0:0:
256,192,16574,1,0,0:0:0:0:
256,192,16649,1,0,0:0:0:0:
256,192,16724,1,8,0:0:0:0:
256,192,16874,1,8,0:0:0:0:
256,192,16949,1,8,0:0:0:0:
256,192,17024,1,0,0:0:0:0:
256,192,17174,1,0,0:0:0:0:
256,192,17324,1,8,0:0:0:0:
256,192,17474,1,0,0:0:0:0:
256,192,17549,1,0,0:0:0:0:
256,192,17624,1,8,0:0:0:0:
256,192,17699,1,0,0:0:0:0:
256,192,17774,1,0,0:0:0:0:
256,192,17849,1,8,0:0:0:0:
256,192,17924,1,0,0:0:0:0:
256,192,17999,1,0,0:0:0:0:
256,192,18074,1,8,0:0:0:0:
256,192,18224,1,0,0:0:0:0:
256,192,18374,1,0,0:0:0:0:
256,192,18449,1,0,0:0:0:0:
256,192,18524,1,8,0:0:0:0:
256,192,18674,1,8,0:0:0:0:
256,192,18749,1,0,0:0:0:0:
256,192,18824,1,8,0:0:0:0:
256,192,18899,1,8,0:0:0:0:
256,192,18974,1,8,0:0:0:0:
256,192,19049,1,8,0:0:0:0:
256,192,19124,1,0,0:0:0:0:
256,192,19199,1,0,0:0:0:0:
256,192,19274,1,0,0:0:0:0:
256,192,19424,1,8,0:0:0:0:
256,192,19574,1,0,0:0:0:0:
256,192,19724,1,0,0:0:0:0:
256,192,19874,1,0,0:0:0:0:
256,192,19949,1,0,0:0:0:0:
256,192,20024,1,8,0:0:0:0:
256,192,20174,1,0,0:0:0:0:
256,192,20249,1,8,0:0:0:0:
256,192,20324,1,0,0:0:0:0:
256,192,20399,1,0,0:0:0:0:
256,192,20474,1,8,0:0:0:0:
256,192,20624,1,8,0:0:0:0:
256,192,20774,1,0,0:0:0:0:
256,192,20849,1,8,0:0:0:0:
256,192,20924,1,8,0:0:0:0:
256,192,20999,1,8,0:0:0:0:
256,192,21074,1,0,0:0:0:0:
256,192,21224,1,8,0:0:0:0:
256,192,21374,1,8,0:0:0:0:
256,192,21449,1,8,0:0:0:0:
256,192,21524,1,0,0:0:0:0:
256,192,21599,1,0,0:0:0:0:
256,192,21674,1,0,0:0:0:0:
256,192,21824,1,8,0:0:0:0:
256,192,21974,1,0,0:0:0:0:
256,192,22049,1,0,0:0:0:0:
256,192,22124,1,8,0:0:0:0:
256,192,22274,1,0,0:0:0:0:
256,192,22424,1,8,0:0:0:0:
256,192,22574,1,0,0:0:0:0:
256,192,22649,1,8,0:0:0:0:
256,192,22724,1,0,0:0:0:0:
256,192,22799,1,0,0:0:0:0:
256,192,22874,1,0,0:0:0:0:
256,192,22949,1,0,0:0:0:0:
256,192,23024,1,8,0:0:0:0:
256,192,23099,1,0,0:0:0:0:
256,192,23174,1,0,0:0:0:0:
256,192,23249,1,8,0:0:0:0:
256,192,23324,1,8,0:0:0:0:
256,192,23399,1,0,0:0:0:0:
256,192,23474,1,0,0:0:0:0:
256,192,23549,1,0,0:0:0:0:
256,192,23624,1,8,0:0:0:0:
256,192,23924,1,0,0:0:0:0:
256,192,23999,1,0,0:0:0:0:
256,192,24074,1,0,0:0:0:0:
256,192,24149,1,0,0:0:0:0:
256,192,24224,1,8,0:0:0:0:
256,192,24374,1,0,0:0:0:0:
256,192,24524,1,0,0:0:0:0:
256,192,24674,1,0,0:0:0:0:
256,192,24749,1,0,0:0:0:0:
256,192,24824,1,8,0:0:0:0:
256,192,24974,1,0,0:0:0:0:
256,192,25124,1,0,0:0:0:0:
256,192,25274,1,8,0:0:0:0:
256,192,25349,1,8,0:0:0:0:
256,192,25424,1,8,0:0:0:0:
256,192,25574,1,0,0:0:0:0:
256,192,25649,1,8,0:0:0:0:
256,192,25724,1,0,0:0:0:0:
256,192,25799,1,0,0:0:0:0:
256,192,25874,1,8,0:0:0:0:
256,192,26024,1,0,0:0:0:0:
256,192,26174,1,0,0:0:0:0:
256,192,26249,1,0,0:0:0:0:
256,192,26324,1,8,0:0:0:0:
256,192,26474,1,8,0:0:0:0:
256,192,26549,1,8,0:0:0:0:
256,192,26624,1,0,0:0:0:0:
256,192,26774,1,0,0:0:0:0:
256,192,26924,1,8,0:0:0:0:
256,192,27074,1,0,0:0:0:0:
256,192,27149,1,0,0:0:0:0:
256,192,27224,1,8,0:0:0:0:
256,192,27299,1,0,0:0:0:0:
256,192,27374,1,0,0:0:0:0:
256,192,27449,1,8,0:0:0:0:
256,192,27524,1,0,0:0:0:0:
256,192,27599,1,0,0:0:0:0:
256,192,27674,1,8,0:0:0:0:
256,192,27824,1,8,0:0:0:0:
256,192,27974,1,0,0:0:0:0:
256,192,28049,1,0,0:0:0:0:
256,192,28124,1,8,0:0:0:0:
256,192,28274,1,8,0:0:0:0:
256,192,28349,1,0,0:0:0:0:
256,192,28424,1,8,0:0:0:0:
256,192,28499,1,8,0:0:0:0:
256,192,28574,1,8,0:0:0:0:
256,192,28649,1,0,0:0:0:0:
256,192,28724,1,8,0:0:0:0:
256,192,28799,1,8,0:0:0:0:
256,192,28874,1,0,0:0:0:0:
256,192,29024,1,8,0:0:0:0:
256,192,29174,1,0,0:0:0:0:
256,192,29324,1,0,0:0:0:0:
256,192,29474,1,0,0:0:0:0:
256,192,29549,1,0,0:0:0:0:
256,192,29624,1,8,0:0:0:0:
256,192,29774,1,0,0:0:0:0:
256,192,29849,1,8,0:0:0:0:
256,192,29924,1,0,0:0:0:0:
256,192,29999,1,0,0:0:0:0:
256,192,30074,1,8,0:0:0:0:
256,192,30224,1,8,0:0:0:0:
256,192,30374,1,0,0:0:0:0:
256,192,30449,1,8,0:0:0:0:
256,192,30524,1,8,0:0:0:0:
256,192,30599,1,8,0:0:0:0:
256,192,30674,1,0,0:0:0:0:
256,192,30824,1,8,0:0:0:0:
256,192,30974,1,8,0:0:0:0:
256,192,31049,1,8,0:0:0:0:
256,192,31124,1,0,0:0:0:0:
256,192,31199,1,0,0:0:0:0:
256,192,31274,1,0,0:0:0:0:
256,192,31424,1,8,0:0:0:0:
256,192,31499,1,0,0:0:0:0:
256,192,31574,1,0,0:0:0:0:
256,192,31649,1,0,0:0:0:0:
256,192,31724,1,8,0:0:0:0:
256,192,31874,1,0,0:0:0:0:
256,192,32024,1,8,0:0:0:0:
256,192,32174,1,0,0:0:0:0:
256,192,32249,1,8,0:0:0:0:
256,192,32399,1,0,0:0:0:0:
256,192,32474,1,8,0:0:0:0:
256,192,32624,1,8,0:0:0:0:
256,192,32774,1,0,0:0:0:0:
256,192,32849,1,8,0:0:0:0:
256,192,32924,1,0,0:0:0:0:
256,192,33074,1,0,0:0:0:0:
256,192,33224,1,8,0:0:0:0:
256,192,33374,1,8,0:0:0:0:
256,192,33449,1,8,0:0:0:0:
256,192,33524,1,0,0:0:0:0:
256,192,33599,1,0,0:0:0:0:
256,192,33674,1,0,0:0:0:0:
256,192,33824,1,8,0:0:0:0:
256,192,33899,1,8,0:0:0:0:
256,192,33974,1,0,0:0:0:0:
256,192,34049,1,0,0:0:0:0:
256,192,34124,1,8,0:0:0:0:
256,192,34199,1,8,0:0:0:0:
256,192,34274,1,8,0:0:0:0:
256,192,34349,1,8,0:0:0:0:
256,192,34424,1,0,0:0:0:0:
256,192,34499,1,0,0:0:0:0:
256,192,34574,1,8,0:0:0:0:
256,192,34649,1,8,0:0:0:0:
256,192,34724,1,0,0:0:0:0:
256,192,34799,1,0,0:0:0:0:
256,192,34874,1,0,0:0:0:0:
256,192,35024,1,8,0:0:0:0:
256,192,35099,1,8,0:0:0:0:
256,192,35174,1,0,0:0:0:0:
256,192,35249,1,0,0:0:0:0:
256,192,35324,1,8,0:0:0:0:
256,192,35399,1,8,0:0:0:0:
256,192,35474,1,8,0:0:0:0:
256,192,35549,1,8,0:0:0:0:
256,192,35624,1,0,0:0:0:0:
256,192,35699,1,0,0:0:0:0:
256,192,35774,1,8,0:0:0:0:
256,192,35849,1,8,0:0:0:0:
256,192,35924,1,0,0:0:0:0:
256,192,35999,1,0,0:0:0:0:
256,192,36074,1,0,0:0:0:0:
256,192,36224,1,8,0:0:0:0:
256,192,36299,1,8,0:0:0:0:
256,192,36374,1,0,0:0:0:0:
256,192,36449,1,0,0:0:0:0:
256,192,36524,1,8,0:0:0:0:
256,192,36599,1,8,0:0:0:0:
256,192,36674,1,8,0:0:0:0:
256,192,36749,1,8,0:0:0:0:
256,192,36824,1,0,0:0:0:0:
256,192,36899,1,0,0:0:0:0:
256,192,36974,1,8,0:0:0:0:
256,192,37049,1,8,0:0:0:0:
256,192,37124,1,0,0:0:0:0:
256,192,37199,1,0,0:0:0:0:
256,192,37274,1,0,0:0:0:0:
256,192,37424,1,8,0:0:0:0:
256,192,37499,1,8,0:0:0:0:
256,192,37574,1,0,0:0:0:0:
256,192,37649,1,8,0:0:0:0:
256,192,37724,1,8,0:0:0:0:
256,192,37799,1,8,0:0:0:0:
256,192,37874,1,0,0:0:0:0:
256,192,37949,1,0,0:0:0:0:
256,192,38024,1,8,0:0:0:0:
256,192,38099,1,8,0:0:0:0:
256,192,38174,1,8,0:0:0:0:
256,192,38249,1,8,0:0:0:0:
256,192,38324,1,0,0:0:0:0:
256,192,38399,1,0,0:0:0:0:
256,192,38474,1,0,0:0:0:0:
256,192,38624,1,8,0:0:0:0:
256,192,38699,1,0,0:0:0:0:
256,192,38774,1,8,0:0:0:0:
256,192,38849,1,8,0:0:0:0:
256,192,38924,1,0,0:0:0:0:
256,192,38999,1,0,0:0:0:0:
256,192,39074,1,8,0:0:0:0:
256,192,39149,1,8,0:0:0:0:
256,192,39224,1,0,0:0:0:0:
256,192,39299,1,8,0:0:0:0:
256,192,39374,1,8,0:0:0:0:
256,192,39449,1,8,0:0:0:0:
256,192,39524,1,0,0:0:0:0:
256,192,39599,1,8,0:0:0:0:
256,192,39674,1,0,0:0:0:0:
256,192,39749,1,0,0:0:0:0:
256,192,39824,1,8,0:0:0:0:
256,192,39899,1,8,0:0:0:0:
256,192,39974,1,8,0:0:0:0:
256,192,40049,1,8,0:0:0:0:
256,192,40124,1,0,0:0:0:0:
256,192,40199,1,0,0:0:0:0:
256,192,40274,1,0,0:0:0:0:
256,192,40349,1,0,0:0:0:0:
256,192,40424,1,8,0:0:0:0:
256,192,40499,1,0,0:0:0:0:
256,192,40574,1,0,0:0:0:0:
256,192,40649,1,8,0:0:0:0:
256,192,40724,1,0,0:0:0:0:
256,192,40799,1,0,0:0:0:0:
256,192,40874,1,8,0:0:0:0:
256,192,40949,1,0,0:0:0:0:
256,192,41024,1,8,0:0:0:0:
256,192,41099,1,0,0:0:0:0:
256,192,41174,1,8,0:0:0:0:
256,192,41249,1,8,0:0:0:0:
256,192,41324,1,0,0:0:0:0:
256,192,41399,1,0,0:0:0:0:
256,192,41474,1,8,0:0:0:0:
256,192,41549,1,8,0:0:0:0:
256,192,41624,1,0,0:0:0:0:
256,192,41699,1,8,0:0:0:0:
256,192,41774,1,8,0:0:0:0:
256,192,41849,1,8,0:0:0:0:
256,192,41924,1,0,0:0:0:0:
256,192,41999,1,8,0:0:0:0:
256,192,42074,1,0,0:0:0:0:
256,192,42149,1,0,0:0:0:0:
256,192,42224,1,8,0:0:0:0:
256,192,42299,1,8,0:0:0:0:
256,192,42374,1,8,0:0:0:0:
256,192,42449,1,8,0:0:0:0:
256,192,42524,1,0,0:0:0:0:
256,192,42599,1,0,0:0:0:0:
256,192,42674,1,0,0:0:0:0:
256,192,42749,1,0,0:0:0:0:
256,192,42824,1,8,0:0:0:0:
256,192,42899,1,8,0:0:0:0:
256,192,42974,1,0,0:0:0:0:
256,192,43049,1,8,0:0:0:0:
256,192,43124,1,8,0:0:0:0:
256,192,43199,1,0,0:0:0:0:
256,192,43274,1,8,0:0:0:0:
256,192,43349,1,8,0:0:0:0:
256,192,43424,1,8,0:0:0:0:
256,192,43499,1,8,0:0:0:0:
256,192,43574,1,0,0:0:0:0:
256,192,43649,1,8,0:0:0:0:
256,192,43724,1,0,0:0:0:0:
256,192,43799,1,8,0:0:0:0:
256,192,43874,1,0,0:0:0:0:
256,192,43949,1,0,0:0:0:0:
256,192,44024,1,8,0:0:0:0:
256,192,44099,1,8,0:0:0:0:
256,192,44174,1,8,0:0:0:0:
256,192,44249,1,8,0:0:0:0:
256,192,44324,1,0,0:0:0:0:
256,192,44399,1,8,0:0:0:0:
256,192,44474,1,0,0:0:0:0:
256,192,44549,1,0,0:0:0:0:
256,192,44624,1,8,0:0:0:0:
256,192,44699,1,8,0:0:0:0:
256,192,44774,1,8,0:0:0:0:
256,192,44849,1,8,0:0:0:0:
256,192,44924,1,0,0:0:0:0:
256,192,44999,1,0,0:0:0:0:
256,192,45074,1,8,0:0:0:0:
256,192,45149,1,0,0:0:0:0:
256,192,45224,1,8,0:0:0:0:
256,192,45299,1,0,0:0:0:0:
256,192,45374,1,0,0:0:0:0:
256,192,45449,1,0,0:0:0:0:
256,192,45524,1,8,0:0:0:0:
256,192,45599,1,8,0:0:0:0:
256,192,45674,1,0,0:0:0:0:
256,192,45749,1,8,0:0:0:0:
256,192,45824,1,0,0:0:0:0:
256,192,45899,1,8,0:0:0:0:
256,192,45974,1,8,0:0:0:0:
256,192,46049,1,8,0:0:0:0:
256,192,46124,1,0,0:0:0:0:
256,192,46199,1,8,0:0:0:0:
256,192,46274,1,0,0:0:0:0:
256,192,46349,1,0,0:0:0:0:
256,192,46424,1,8,0:0:0:0:
256,192,46499,1,8,0:0:0:0:
256,192,46574,1,8,0:0:0:0:
256,192,46649,1,8,0:0:0:0:
256,192,46724,1,0,0:0:0:0:
256,192,46799,1,8,0:0:0:0:
256,192,46874,1,0,0:0:0:0:
256,192,46949,1,0,0:0:0:0:
256,192,47024,1,8,0:0:0:0:
256,192,47099,1,8,0:0:0:0:
256,192,47174,1,8,0:0:0:0:
256,192,47249,1,8,0:0:0:0:
256,192,47324,1,0,0:0:0:0:
256,192,47399,1,0,0:0:0:0:
256,192,47474,1,8,0:0:0:0:
256,192,47549,1,0,0:0:0:0:
256,192,47624,1,8,0:0:0:0:
256,192,47699,1,8,0:0:0:0:
256,192,47774,1,0,0:0:0:0:
256,192,47849,1,8,0:0:0:0:
256,192,47924,1,0,0:0:0:0:
256,192,47999,1,0,0:0:0:0:
256,192,48074,1,0,0:0:0:0:
256,192,48149,1,0,0:0:0:0:
256,192,48224,1,8,0:0:0:0:
256,192,48299,1,8,0:0:0:0:
256,192,48374,1,0,0:0:0:0:
256,192,48449,1,8,0:0:0:0:
256,192,48524,1,0,0:0:0:0:
256,192,48674,1,8,0:0:0:0:
256,192,48749,1,8,0:0:0:0:
256,192,48824,1,0,0:0:0:0:
256,192,48899,1,8,0:0:0:0:
256,192,48974,1,0,0:0:0:0:
256,192,49124,1,8,0:0:0:0:
256,192,49199,1,8,0:0:0:0:
256,192,49274,1,0,0:0:0:0:
256,192,49349,1,8,0:0:0:0:
256,192,49424,1,0,0:0:0:0:
256,192,49499,1,8,0:0:0:0:
256,192,49574,1,8,0:0:0:0:
256,192,49649,1,0,0:0:0:0:
256,192,49724,1,0,0:0:0:0:
256,192,49874,1,0,0:0:0:0:
256,192,49949,1,8,0:0:0:0:
256,192,50024,1,8,0:0:0:0:
256,192,50099,1,0,0:0:0:0:
256,192,50174,1,0,0:0:0:0:
256,192,50324,1,0,0:0:0:0:
256,192,50399,1,8,0:0:0:0:
256,192,50474,1,8,0:0:0:0:
256,192,50549,1,0,0:0:0:0:
256,192,50624,1,0,0:0:0:0:
256,192,50849,1,0,0:0:0:0:
256,192,51074,1,0,0:0:0:0:
256,192,51299,1,8,0:0:0:0:
256,192,51524,1,8,0:0:0:0:
256,192,51674,1,8,0:0:0:0:
256,192,51824,1,8,0:0:0:0:
256,192,51899,1,8,0:0:0:0:
256,192,51974,1,0,0:0:0:0:
256,192,52049,1,0,0:0:0:0:
256,192,52124,1,0,0:0:0:0:
256,192,52199,1,0,0:0:0:0:
256,192,52274,1,8,0:0:0:0:
256,192,52349,1,8,0:0:0:0:
256,192,52424,1,0,0:0:0:0:
256,192,52499,1,0,0:0:0:0:
256,192,52574,1,0,0:0:0:0:
256,192,52649,1,0,0:0:0:0:
256,192,52724,1,8,0:0:0:0:
256,192,52799,1,8,0:0:0:0:
256,192,52874,1,0,0:0:0:0:
256,192,53024,1,4,0:0:0:0:
