osu file format v14

[General]
AudioFilename: audio.mp3
AudioLeadIn: 0
PreviewTime: 14549
Countdown: 1
SampleSet: Normal
StackLeniency: 0.7
Mode: 1
LetterboxInBreaks: 0
WidescreenStoryboard: 1

[Editor]
DistanceSpacing: 1
BeatDivisor: 2
GridSize: 16
TimelineZoom: 1.5

[Metadata]
Title:FAITH
TitleUnicode:FAITH
Artist:Unlucky Morpheus
ArtistUnicode:Unlucky Morpheus
Creator:AmateurMonkeyYT
Version:FUTSUU
Source:東方風神録 ~ Mountain of Faith.
Tags:touhou 東方project ネイティブフェイス metal rebirth revisited native faith th10 comiket c89 moriya suwako 洩矢 諏訪子 紫煉 shiren
BeatmapID:1944214
BeatmapSetID:931059

[Difficulty]
HPDrainRate:7
CircleSize:5
OverallDifficulty:4
ApproachRate:5
SliderMultiplier:1.4
SliderTickRate:1

[Events]
//Background and Video events
0,0,"MoF.jpg",0,60
//Break Periods
//Storyboard Layer 0 (Background)
//Storyboard Layer 1 (Fail)
//Storyboard Layer 2 (Pass)
//Storyboard Layer 3 (Foreground)
//Storyboard Layer 4 (Overlay)
//Storyboard Sound Samples

[TimingPoints]
224,300,4,1,0,70,1,0
9824,-100,4,1,0,75,0,1
14624,-100,4,1,0,70,0,0
38624,-100,4,1,0,75,0,1
48224,-100,4,1,0,70,0,0

[HitObjects]
256,192,224,5,12,0:0:0:0:
256,192,824,1,12,0:0:0:0:
256,192,1424,1,4,0:0:0:0:
256,192,2024,1,4,0:0:0:0:
256,192,2624,1,12,0:0:0:0:
256,192,3224,1,12,0:0:0:0:
256,192,3824,1,4,0:0:0:0:
256,192,4424,1,4,0:0:0:0:
256,192,5024,1,8,0:0:0:0:
256,192,5324,1,0,0:0:0:0:
256,192,5624,1,8,0:0:0:0:
256,192,6224,1,8,0:0:0:0:
256,192,6524,1,0,0:0:0:0:
256,192,6824,1,8,0:0:0:0:
256,192,7424,1,8,0:0:0:0:
256,192,7724,1,0,0:0:0:0:
256,192,8024,1,8,0:0:0:0:
256,192,8624,1,8,0:0:0:0:
256,192,8924,1,8,0:0:0:0:
256,192,9224,1,0,0:0:0:0:
256,192,9824,1,8,0:0:0:0:
256,192,10124,1,8,0:0:0:0:
256,192,10274,1,8,0:0:0:0:
256,192,10424,1,0,0:0:0:0:
256,192,10724,1,8,0:0:0:0:
256,192,11024,1,0,0:0:0:0:
256,192,11624,1,8,0:0:0:0:
256,192,12224,1,8,0:0:0:0:
256,192,12524,1,0,0:0:0:0:
256,192,12674,1,0,0:0:0:0:
256,192,12824,1,8,0:0:0:0:
256,192,13124,1,8,0:0:0:0:
256,192,13424,1,0,0:0:0:0:
256,192,14024,1,0,0:0:0:0:
256,192,14324,1,0,0:0:0:0:
256,192,14624,1,8,0:0:0:0:
256,192,15074,1,0,0:0:0:0:
256,192,15224,1,8,0:0:0:0:
256,192,15674,1,8,0:0:0:0:
256,192,15824,1,0,0:0:0:0:
256,192,16124,1,0,0:0:0:0:
256,192,16424,1,8,0:0:0:0:
256,192,16724,1,0,0:0:0:0:
256,192,16874,1,8,0:0:0:0:
256,192,17024,1,8,0:0:0:0:
256,192,17474,1,8,0:0:0:0:
256,192,17624,1,0,0:0:0:0:
256,192,17924,1,0,0:0:0:0:
256,192,18224,1,8,0:0:0:0:
256,192,18824,1,8,0:0:0:0:
256,192,19124,1,8,0:0:0:0:
256,192,19424,1,0,0:0:0:0:
256,192,19874,1,0,0:0:0:0:
256,192,20024,1,8,0:0:0:0:
256,192,20324,1,8,0:0:0:0:
256,192,20624,1,8,0:0:0:0:
256,192,20924,1,0,0:0:0:0:
256,192,21224,1,0,0:0:0:0:
256,192,21524,1,0,0:0:0:0:
256,192,21674,1,0,0:0:0:0:
256,192,21824,1,0,0:0:0:0:
256,192,22124,1,8,0:0:0:0:
256,192,22424,1,0,0:0:0:0:
256,192,22724,1,8,0:0:0:0:
256,192,23024,1,8,0:0:0:0:
256,192,23324,1,8,0:0:0:0:
256,192,23474,1,0,0:0:0:0:
256,192,23624,1,8,0:0:0:0:
256,192,24224,1,8,0:0:0:0:
256,192,24674,1,0,0:0:0:0:
256,192,24824,1,8,0:0:0:0:
256,192,25274,1,8,0:0:0:0:
256,192,25424,1,0,0:0:0:0:
256,192,25724,1,0,0:0:0:0:
256,192,26024,1,0,0:0:0:0:
256,192,26324,1,0,0:0:0:0:
256,192,26474,1,8,0:0:0:0:
256,192,26624,1,8,0:0:0:0:
256,192,27074,1,8,0:0:0:0:
256,192,27224,1,0,0:0:0:0:
256,192,27524,1,0,0:0:0:0:
256,192,27824,1,8,0:0:0:0:
256,192,28424,1,8,0:0:0:0:
256,192,29024,1,8,0:0:0:0:
256,192,29474,1,0,0:0:0:0:
256,192,29624,1,8,0:0:0:0:
256,192,30074,1,0,0:0:0:0:
256,192,30224,1,8,0:0:0:0:
256,192,30674,1,0,0:0:0:0:
256,192,30824,1,0,0:0:0:0:
256,192,31274,1,8,0:0:0:0:
256,192,31424,1,0,0:0:0:0:
256,192,31724,1,8,0:0:0:0:
256,192,32024,1,0,0:0:0:0:
256,192,32474,1,8,0:0:0:0:
256,192,32624,1,8,0:0:0:0:
256,192,33824,1,12,0:0:0:0:
256,192,34424,1,12,0:0:0:0:
256,192,35024,1,4,0:0:0:0:
256,192,35624,1,4,0:0:0:0:
256,192,36224,1,12,0:0:0:0:
256,192,36824,1,12,0:0:0:0:
256,192,37424,1,4,0:0:0:0:
256,192,37724,1,0,0:0:0:0:
256,192,38024,1,4,0:0:0:0:
256,192,38324,1,0,0:0:0:0:
256,192,38624,1,8,0:0:0:0:
256,192,38924,1,0,0:0:0:0:
256,192,39074,1,0,0:0:0:0:
256,192,39224,1,8,0:0:0:0:
256,192,39524,1,8,0:0:0:0:
256,192,39824,1,0,0:0:0:0:
256,192,40124,1,0,0:0:0:0:
256,192,40424,1,8,0:0:0:0:
256,192,41024,1,8,0:0:0:0:
256,192,41324,1,8,0:0:0:0:
256,192,41474,1,0,0:0:0:0:
256,192,41624,1,8,0:0:0:0:
256,192,41924,1,0,0:0:0:0:
256,192,42224,1,8,0:0:0:0:
256,192,42524,1,0,0:0:0:0:
256,192,42824,1,8,0:0:0:0:
256,192,43424,1,0,0:0:0:0:
256,192,43724,1,8,0:0:0:0:
256,192,43874,1,0,0:0:0:0:
256,192,44024,1,0,0:0:0:0:
256,192,44324,1,8,0:0:0:0:
256,192,44624,1,0,0:0:0:0:
256,192,44924,1,8,0:0:0:0:
256,192,45074,1,8,0:0:0:0:
256,192,45224,1,0,0:0:0:0:
256,192,45824,1,8,0:0:0:0:
256,192,46124,1,8,0:0:0:0:
256,192,46274,1,8,0:0:0:0:
256,192,46424,1,0,0:0:0:0:
256,192,46724,1,8,0:0:0:0:
256,192,47024,1,0,0:0:0:0:
256,192,47324,1,8,0:0:0:0:
256,192,47474,1,0,0:0:0:0:
256,192,47624,1,0,0:0:0:0:
256,192,48224,1,8,0:0:0:0:
256,192,48674,1,8,0:0:0:0:
256,192,49124,1,8,0:0:0:0:
256,192,49274,1,0,0:0:0:0:
256,192,49424,1,8,0:0:0:0:
256,192,49874,1,0,0:0:0:0:
256,192,50324,1,0,0:0:0:0:
256,192,50474,1,8,0:0:0:0:
256,192,50624,1,8,0:0:0:0:
256,192,51074,1,8,0:0:0:0:
256,192,51524,1,8,0:0:0:0:
256,192,51674,1,8,0:0:0:0:
256,192,51824,1,8,0:0:0:0:
256,192,52274,1,0,0:0:0:0:
256,192,52724,1,0,0:0:0:0:
256,192,52874,1,8,0:0:0:0:
256,192,53024,1,0,0:0:0:0:
