osu file format v14

[General]
AudioFilename: audio.ogg
AudioLeadIn: 0
PreviewTime: 58458
Countdown: 0
SampleSet: Normal
StackLeniency: 0.7
Mode: 1
LetterboxInBreaks: 0
WidescreenStoryboard: 0

[Editor]
Bookmarks: 11914,23208,45796,58502,69796,86737
DistanceSpacing: 0.8
BeatDivisor: 8
GridSize: 32
TimelineZoom: 1.9

[Metadata]
Title:Danzai wa Amaneku Ningen no Moto ni
TitleUnicode:断罪は遍く人間の元に
Artist:Unlucky Morpheus
ArtistUnicode:Unlucky Morpheus
Creator:Faputa
Version:Lunatic Oni
Source:東方風神録 ~ Mountain of Faith.
Tags:BlackBq BlackBN Irone OSU Irone_OSU Heavenly Moon Heavenly_Moon ginjani ダンカグ Dankagu 東方ダンマクカグラ 東方弾幕神楽 Danmaku Kagura SDVX III Sound Voltex 3 Gravity Wars Fuki Touhou Fuujinroku ZUN is for the Transient People 信仰は儚き人間の為に Shinyou wa Hakanaki Ningen no Tame ni 東方project 東方 project Kochiya Sanae 東風谷早苗 TH10 power MoF Stage 5 Boss Theme C72 Comiket 72 Team Shanghai Alice REBIRTH Revisited 博麗神社例大祭 Hakureijinjya Reitaisai Metal Video Rhythm Game Ver. Version Short Japanese SDVX3 SDVXIII III Shiren 紫煉 Fuyuki Tenge 天外冬黄 上海アリス幻樂団 Comic Market
BeatmapID:3150630
BeatmapSetID:1541278

[Difficulty]
HPDrainRate:6.5
CircleSize:2
OverallDifficulty:6.5
ApproachRate:10
SliderMultiplier:1.4
SliderTickRate:1

[Events]
//Background and Video events
0,0,"Sayu.jpg",0,73
//Break Periods
//Storyboard Layer 0 (Background)
//Storyboard Layer 1 (Fail)
//Storyboard Layer 2 (Pass)
//Storyboard Layer 3 (Foreground)
//Storyboard Layer 4 (Overlay)
//Storyboard Sound Samples

[TimingPoints]
620,352.941176470588,4,1,0,90,1,0
9090,-100,4,1,0,90,0,0
9267,-99.0735631113458,4,1,0,90,0,0
9355,-98.6168007526434,4,1,0,90,0,0
9443,-98.1642307212813,4,1,0,90,0,0
9531,-97.7157000792474,4,1,0,90,0,0
9619,-97.271344251069,4,1,0,90,0,0
9708,-96.8310114870629,4,1,0,90,0,0
9796,-96.3945544788284,4,1,0,90,0,0
9884,-95.9621064833918,4,1,0,90,0,0
9972,-95.5335212796142,4,1,0,90,0,0
10061,-95.1086568850583,4,1,0,90,0,0
10149,-94.6876443986577,4,1,0,90,0,0
10237,-94.2703428329558,4,1,0,90,0,0
10325,-93.8566152488843,4,1,0,90,0,0
10414,-93.4465906011419,4,1,0,90,0,0
10502,-93.0401328613097,4,1,0,90,0,0
11208,-89.9112396242429,4,1,0,90,0,0
11296,-89.5348930908609,4,1,0,90,0,0
11384,-89.1616840145583,4,1,0,90,0,0
11472,-88.7914944851603,4,1,0,90,0,0
11561,-88.4244444071097,4,1,0,90,0,0
11649,-88.0604164905458,4,1,0,90,0,0
11737,-87.6992966516409,4,1,0,90,0,0
11825,-87.3412027757034,4,1,0,90,0,0
11914,-86.9565217391304,4,1,0,90,0,1
21796,-86.9565217391304,4,1,0,90,0,1
21884,-87.6674667784135,4,1,0,90,0,1
21972,-88.3902109609165,4,1,0,90,0,1
22061,-89.1248916018506,4,1,0,90,0,1
22149,-89.8719683938262,4,1,0,90,0,1
22237,-90.6315934484234,4,1,0,90,0,1
22325,-91.4042526742599,4,1,0,90,0,1
22414,-92.1901144540271,4,1,0,90,0,1
22502,-92.9896065516757,4,1,0,90,0,1
22590,-93.8031746746437,4,1,0,90,0,1
22678,-94.6310147472973,4,1,0,90,0,1
22767,-95.4736879289752,4,1,0,90,0,1
22855,-96.3314108794769,4,1,0,90,0,1
22943,-97.2047793645918,4,1,0,90,0,1
23031,-98.0940329399763,4,1,0,90,0,1
23119,-98.9997069608674,4,1,0,90,0,1
23208,-100,4,1,0,90,0,0
33090,-100,4,1,0,90,0,0
33178,-99.6900635922916,4,1,0,90,0,0
33267,-99.3820424599838,4,1,0,90,0,0
33355,-99.0760170648532,4,1,0,90,0,0
33443,-98.7717730027113,4,1,0,90,0,0
33531,-98.4693917742609,4,1,0,90,0,0
33619,-98.1688563230069,4,1,0,90,0,0
33708,-97.8701498000513,4,1,0,90,0,0
33796,-97.5733507664387,4,1,0,90,0,0
33884,-97.2782517930814,4,1,0,90,0,0
33972,-96.9849324208991,4,1,0,90,0,0
34061,-96.6933766003962,4,1,0,90,0,0
34149,-96.4035684744906,4,1,0,90,0,0
34237,-96.1154923756386,4,1,0,90,0,0
34325,-95.8292246553262,4,1,0,90,0,0
34414,-95.6937799043062,4,1,0,90,0,0
34502,-95.261593097726,4,1,0,90,0,0
44384,-95.2380952380952,4,1,0,90,0,0
44472,-94.9569322833629,4,1,0,90,0,0
44561,-94.6774245468265,4,1,0,90,0,0
44649,-94.3996465677233,4,1,0,90,0,0
44737,-94.1234051965532,4,1,0,90,0,0
44825,-93.848775836568,4,1,0,90,0,0
44914,-93.5757444184408,4,1,0,90,0,0
45002,-93.3042970360957,4,1,0,90,0,0
45090,-93.0345064984603,4,1,0,90,0,0
45178,-92.7661856121501,4,1,0,90,0,0
45267,-92.4994080037888,4,1,0,90,0,0
45355,-92.2341603970496,4,1,0,90,0,0
45443,-91.9704296674533,4,1,0,90,0,0
45531,-91.708202840203,4,1,0,90,0,0
45619,-91.4475507145254,4,1,0,90,0,0
45708,-91.324200913242,4,1,0,90,0,0
45796,-90.9305009088503,4,1,0,90,0,0
54267,-90.9090909090909,4,1,0,90,0,0
54443,-90.7372675197785,4,1,0,90,0,0
54531,-90.6515580736544,4,1,0,90,0,0
54619,-90.5660103951667,4,1,0,90,0,0
54708,-90.4807058942751,4,1,0,90,0,0
54796,-90.3954802259887,4,1,0,90,0,0
54884,-90.3104149582947,4,1,0,90,0,0
54972,-90.2255910452905,4,1,0,90,0,0
55061,-90.1408450704225,4,1,0,90,0,0
55149,-90.0562581444628,4,1,0,90,0,0
55237,-89.9719107694578,4,1,0,90,0,0
55325,-89.8876404494382,4,1,0,90,0,0
55414,-89.8035278417877,4,1,0,90,0,0
55502,-89.71965300027,4,1,0,90,0,0
55678,-89.5522120739665,4,1,0,90,0,0
55943,-89.3022989983854,4,1,0,90,0,0
56208,-89.0537769042592,4,1,0,90,0,0
56384,-88.8888888888889,4,1,0,90,0,0
56472,-88.8066342108021,4,1,0,90,0,0
56561,-88.7246103436925,4,1,0,90,0,0
56649,-88.6426592797784,4,1,0,90,0,0
56737,-88.5608594654289,4,1,0,90,0,0
56825,-88.4792887680852,4,1,0,90,0,0
56914,-88.3977900552486,4,1,0,90,0,0
57002,-88.316441341986,4,1,0,90,0,0
57090,-88.2353200692118,4,1,0,90,0,0
57796,-87.591215301835,4,1,0,90,0,0
57884,-87.5114202403414,4,1,0,90,0,0
57972,-87.431693989071,4,1,0,90,0,0
58061,-87.3521128729062,4,1,0,90,0,0
58149,-87.2727526611644,4,1,0,90,0,0
58237,-87.1934604904632,4,1,0,90,0,0
58325,-87.1143122717061,4,1,0,90,0,0
58414,-87.0353833647531,4,1,0,90,0,0
58502,-86.9565217391304,4,1,0,90,0,1
68384,-86.9565217391304,4,1,0,90,0,0
69796,-86.9565217391304,4,1,0,90,0,1
81090,-86.9565217391304,4,1,0,90,0,0
81443,-87.9096148503954,4,1,0,90,0,0
81619,-88.3939612781413,4,1,0,90,0,0
81796,-88.8837533831379,4,1,0,90,0,0
82061,-89.6287041302699,4,1,0,90,0,0
82325,-90.3861658549989,4,1,0,90,0,0
82502,-90.89834837701,4,1,0,90,0,0
82678,-91.4163686493049,4,1,0,90,0,0
83031,-92.4702407647659,4,1,0,90,0,0
83090,-92.6482673384284,4,1,0,90,0,0
83149,-92.8269807189078,4,1,0,90,0,0
83208,-93.0063848883226,4,1,0,90,0,0
83384,-93.5487824158225,4,1,0,90,0,0
83561,-94.0975433954346,4,1,0,90,0,0
83737,-94.6526908813491,4,1,0,90,0,0
83914,-95.2380952380952,4,1,0,90,0,0
84267,-93.7499707031342,4,1,0,90,0,0
84443,-93.0232558139535,4,1,0,90,0,0
84619,-92.3077207100679,4,1,0,90,0,0
84708,-91.9540229885058,4,1,0,90,0,0
84796,-91.6030254647251,4,1,0,90,0,0
84884,-91.2547806098192,4,1,0,90,0,0
84972,-90.9090909090909,4,1,0,90,0,0
85061,-90.5660103951667,4,1,0,90,0,0
85149,-90.2255910452905,4,1,0,90,0,0
85237,-89.8876404494382,4,1,0,90,0,0
85325,-89.5522120739665,4,1,0,90,0,0
85590,-88.5608594654289,4,1,0,90,0,0
85855,-87.591215301835,4,1,0,90,0,0
85943,-86.9565217391304,4,1,0,70,0,0
86649,-86.9565217391304,4,1,0,90,0,0
86737,-83.3333333333333,4,1,0,90,0,1
98119,-83.3333333333333,4,1,0,70,0,1
99443,-100,4,1,0,70,0,0

[HitObjects]
256,192,620,5,12,0:0:0:0:
256,192,1325,1,8,0:0:0:0:
256,192,1855,1,0,0:0:0:0:
256,192,1943,1,0,0:0:0:0:
256,192,2031,1,12,0:0:0:0:
256,192,2384,1,8,0:0:0:0:
256,192,2737,1,0,0:0:0:0:
256,192,3090,1,8,0:0:0:0:
256,192,3443,1,4,0:0:0:0:
256,192,4149,1,8,0:0:0:0:
256,192,4678,1,0,0:0:0:0:
256,192,4767,1,8,0:0:0:0:
256,192,4855,1,4,0:0:0:0:
256,192,5208,1,4,0:0:0:0:
256,192,5561,1,12,0:0:0:0:
256,192,5737,1,0,0:0:0:0:
256,192,5914,1,0,0:0:0:0:
256,192,6002,1,8,0:0:0:0:
256,192,6090,1,0,0:0:0:0:
256,192,6178,1,0,0:0:0:0:
256,192,6267,1,12,0:0:0:0:
256,192,6972,1,12,0:0:0:0:
256,192,7678,1,4,0:0:0:0:
256,192,8031,1,8,0:0:0:0:
256,192,8384,1,4,0:0:0:0:
256,192,8737,1,0,0:0:0:0:
256,192,8914,1,0,0:0:0:0:
256,192,9090,1,12,0:0:0:0:
256,192,9267,1,0,0:0:0:0:
256,192,9355,1,8,0:0:0:0:
256,192,9443,1,8,0:0:0:0:
256,192,9531,1,8,0:0:0:0:
256,192,9619,1,0,0:0:0:0:
256,192,9708,1,0,0:0:0:0:
256,192,9796,1,8,0:0:0:0:
256,192,9884,1,8,0:0:0:0:
256,192,9972,1,0,0:0:0:0:
256,192,10061,1,0,0:0:0:0:
256,192,10149,1,8,0:0:0:0:
256,192,10237,1,0,0:0:0:0:
256,192,10325,1,0,0:0:0:0:
256,192,10414,1,0,0:0:0:0:
256,192,10502,1,8,0:0:0:0:
256,192,11208,1,8,0:0:0:0:
256,192,11296,1,8,0:0:0:0:
256,192,11384,1,0,0:0:0:0:
256,192,11472,1,8,0:0:0:0:
256,192,11561,1,8,0:0:0:0:
256,192,11649,1,8,0:0:0:0:
256,192,11737,1,0,0:0:0:0:
256,192,11825,1,0,0:0:0:0:
256,192,11914,1,12,0:0:0:0:
256,192,12090,1,0,0:0:0:0:
256,192,12178,1,0,0:0:0:0:
256,192,12267,1,8,0:0:0:0:
256,192,12355,1,8,0:0:0:0:
256,192,12443,1,0,0:0:0:0:
256,192,12531,1,0,0:0:0:0:
256,192,12619,1,8,0:0:0:0:
256,192,12708,1,0,0:0:0:0:
256,192,12796,1,8,0:0:0:0:
256,192,12884,1,8,0:0:0:0:
256,192,12972,1,0,0:0:0:0:
256,192,13061,1,0,0:0:0:0:
256,192,13149,1,8,0:0:0:0:
256,192,13237,1,8,0:0:0:0:
256,192,13325,1,8,0:0:0:0:
256,192,13414,1,0,0:0:0:0:
256,192,13502,1,0,0:0:0:0:
256,192,13590,1,0,0:0:0:0:
256,192,13678,1,8,0:0:0:0:
256,192,13767,1,0,0:0:0:0:
256,192,13855,1,8,0:0:0:0:
256,192,13943,1,0,0:0:0:0:
256,192,14031,1,8,0:0:0:0:
256,192,14119,1,0,0:0:0:0:
256,192,14208,1,8,0:0:0:0:
256,192,14296,1,8,0:0:0:0:
256,192,14384,1,0,0:0:0:0:
256,192,14472,1,0,0:0:0:0:
256,192,14561,1,8,0:0:0:0:
256,192,14649,1,8,0:0:0:0:
256,192,14737,1,0,0:0:0:0:
256,192,14825,1,0,0:0:0:0:
256,192,14914,1,8,0:0:0:0:
256,192,15002,1,8,0:0:0:0:
256,192,15090,1,8,0:0:0:0:
256,192,15178,1,0,0:0:0:0:
256,192,15267,1,8,0:0:0:0:
256,192,15355,1,0,0:0:0:0:
256,192,15443,1,8,0:0:0:0:
256,192,15531,1,8,0:0:0:0:
256,192,15619,1,0,0:0:0:0:
256,192,15708,1,0,0:0:0:0:
256,192,15796,1,8,0:0:0:0:
256,192,15884,1,0,0:0:0:0:
256,192,15972,1,8,0:0:0:0:
256,192,16061,1,8,0:0:0:0:
256,192,16149,1,0,0:0:0:0:
256,192,16237,1,8,0:0:0:0:
256,192,16325,1,0,0:0:0:0:
256,192,16414,1,0,0:0:0:0:
256,192,16502,1,8,0:0:0:0:
256,192,16590,1,0,0:0:0:0:
256,192,16678,1,8,0:0:0:0:
256,192,16767,1,8,0:0:0:0:
256,192,16855,1,0,0:0:0:0:
256,192,16943,1,8,0:0:0:0:
256,192,17031,1,8,0:0:0:0:
256,192,17119,1,0,0:0:0:0:
256,192,17208,1,0,0:0:0:0:
256,192,17296,1,0,0:0:0:0:
256,192,17384,1,8,0:0:0:0:
256,192,17472,1,0,0:0:0:0:
256,192,17561,1,12,0:0:0:0:
256,192,17737,1,0,0:0:0:0:
256,192,17825,1,0,0:0:0:0:
256,192,17914,1,8,0:0:0:0:
256,192,18002,1,8,0:0:0:0:
256,192,18090,1,0,0:0:0:0:
256,192,18178,1,0,0:0:0:0:
256,192,18267,1,8,0:0:0:0:
256,192,18355,1,0,0:0:0:0:
256,192,18443,1,8,0:0:0:0:
256,192,18531,1,0,0:0:0:0:
256,192,18619,1,8,0:0:0:0:
256,192,18708,1,8,0:0:0:0:
256,192,18796,1,0,0:0:0:0:
256,192,18884,1,8,0:0:0:0:
256,192,18972,1,8,0:0:0:0:
256,192,19061,1,8,0:0:0:0:
256,192,19149,1,0,0:0:0:0:
256,192,19237,1,0,0:0:0:0:
256,192,19325,1,8,0:0:0:0:
256,192,19414,1,0,0:0:0:0:
256,192,19502,1,8,0:0:0:0:
256,192,19590,1,0,0:0:0:0:
256,192,19678,1,8,0:0:0:0:
256,192,19767,1,8,0:0:0:0:
256,192,19855,1,0,0:0:0:0:
256,192,19943,1,0,0:0:0:0:
256,192,20031,1,8,0:0:0:0:
256,192,20119,1,0,0:0:0:0:
256,192,20208,1,8,0:0:0:0:
256,192,20296,1,8,0:0:0:0:
256,192,20384,1,0,0:0:0:0:
256,192,20472,1,0,0:0:0:0:
256,192,20561,1,8,0:0:0:0:
256,192,20649,1,0,0:0:0:0:
256,192,20737,1,8,0:0:0:0:
256,192,20825,1,0,0:0:0:0:
256,192,20914,1,0,0:0:0:0:
256,192,21002,1,0,0:0:0:0:
256,192,21090,1,8,0:0:0:0:
256,192,21178,1,0,0:0:0:0:
256,192,21267,1,8,0:0:0:0:
256,192,21355,1,0,0:0:0:0:
256,192,21443,1,8,0:0:0:0:
256,192,21531,1,8,0:0:0:0:
256,192,21619,1,0,0:0:0:0:
256,192,21708,1,0,0:0:0:0:
256,192,21796,1,8,0:0:0:0:
256,192,21884,1,8,0:0:0:0:
256,192,21972,1,0,0:0:0:0:
256,192,22061,1,0,0:0:0:0:
256,192,22149,1,8,0:0:0:0:
256,192,22237,1,0,0:0:0:0:
256,192,22325,1,8,0:0:0:0:
256,192,22414,1,0,0:0:0:0:
256,192,22502,1,8,0:0:0:0:
256,192,22590,1,8,0:0:0:0:
256,192,22678,1,8,0:0:0:0:
256,192,22767,1,8,0:0:0:0:
256,192,22855,1,0,0:0:0:0:
256,192,22943,1,0,0:0:0:0:
256,192,23031,1,0,0:0:0:0:
256,192,23119,1,0,0:0:0:0:
256,192,23208,1,12,0:0:0:0:
256,192,23384,1,8,0:0:0:0:
256,192,23561,1,0,0:0:0:0:
256,192,23649,1,0,0:0:0:0:
256,192,23737,1,8,0:0:0:0:
256,192,23914,1,0,0:0:0:0:
256,192,24090,1,8,0:0:0:0:
256,192,24178,1,0,0:0:0:0:
256,192,24355,1,0,0:0:0:0:
256,192,24443,1,8,0:0:0:0:
256,192,24619,1,0,0:0:0:0:
256,192,24796,1,8,0:0:0:0:
256,192,24884,1,0,0:0:0:0:
256,192,24972,1,0,0:0:0:0:
256,192,25061,1,0,0:0:0:0:
256,192,25149,1,8,0:0:0:0:
256,192,25325,1,0,0:0:0:0:
256,192,25502,1,8,0:0:0:0:
256,192,25590,1,0,0:0:0:0:
256,192,25767,1,0,0:0:0:0:
256,192,25855,1,8,0:0:0:0:
256,192,26031,1,0,0:0:0:0:
256,192,26208,1,8,0:0:0:0:
256,192,26384,1,0,0:0:0:0:
256,192,26472,1,0,0:0:0:0:
256,192,26561,1,8,0:0:0:0:
256,192,26737,1,0,0:0:0:0:
256,192,26914,1,8,0:0:0:0:
256,192,27002,1,0,0:0:0:0:
256,192,27178,1,0,0:0:0:0:
256,192,27267,1,8,0:0:0:0:
256,192,27443,1,0,0:0:0:0:
256,192,27619,1,8,0:0:0:0:
256,192,27708,1,0,0:0:0:0:
256,192,27796,1,0,0:0:0:0:
256,192,27884,1,0,0:0:0:0:
256,192,27972,1,8,0:0:0:0:
256,192,28149,1,0,0:0:0:0:
256,192,28237,1,0,0:0:0:0:
256,192,28325,1,8,0:0:0:0:
256,192,28414,1,8,0:0:0:0:
256,192,28502,1,0,0:0:0:0:
256,192,28590,1,0,0:0:0:0:
256,192,28678,1,8,0:0:0:0:
256,192,28855,1,4,0:0:0:0:
256,192,29031,1,8,0:0:0:0:
256,192,29208,1,0,0:0:0:0:
256,192,29296,1,0,0:0:0:0:
256,192,29384,1,8,0:0:0:0:
256,192,29561,1,0,0:0:0:0:
256,192,29737,1,8,0:0:0:0:
256,192,29825,1,0,0:0:0:0:
256,192,30002,1,0,0:0:0:0:
256,192,30090,1,8,0:0:0:0:
256,192,30267,1,0,0:0:0:0:
256,192,30443,1,8,0:0:0:0:
256,192,30531,1,8,0:0:0:0:
256,192,30619,1,0,0:0:0:0:
256,192,30708,1,0,0:0:0:0:
256,192,30796,1,8,0:0:0:0:
256,192,30972,1,0,0:0:0:0:
256,192,31149,1,8,0:0:0:0:
256,192,31237,1,0,0:0:0:0:
256,192,31414,1,0,0:0:0:0:
256,192,31502,1,8,0:0:0:0:
256,192,31678,1,0,0:0:0:0:
256,192,31855,1,8,0:0:0:0:
256,192,32031,1,0,0:0:0:0:
256,192,32119,1,0,0:0:0:0:
256,192,32208,1,8,0:0:0:0:
256,192,32384,1,0,0:0:0:0:
256,192,32561,1,8,0:0:0:0:
256,192,32649,1,0,0:0:0:0:
256,192,32825,1,0,0:0:0:0:
256,192,32914,1,8,0:0:0:0:
256,192,33090,1,8,0:0:0:0:
256,192,33178,1,8,0:0:0:0:
256,192,33267,1,8,0:0:0:0:
256,192,33355,1,8,0:0:0:0:
256,192,33443,1,0,0:0:0:0:
256,192,33531,1,0,0:0:0:0:
256,192,33619,1,8,0:0:0:0:
256,192,33708,1,8,0:0:0:0:
256,192,33796,1,8,0:0:0:0:
256,192,33884,1,0,0:0:0:0:
256,192,33972,1,0,0:0:0:0:
256,192,34061,1,0,0:0:0:0:
256,192,34149,1,8,0:0:0:0:
256,192,34237,1,8,0:0:0:0:
256,192,34325,1,0,0:0:0:0:
256,192,34414,1,0,0:0:0:0:
256,192,34502,1,12,0:0:0:0:
256,192,34678,1,8,0:0:0:0:
256,192,34855,1,0,0:0:0:0:
256,192,34943,1,0,0:0:0:0:
256,192,35031,1,8,0:0:0:0:
256,192,35208,1,0,0:0:0:0:
256,192,35296,1,0,0:0:0:0:
256,192,35384,1,8,0:0:0:0:
256,192,35472,1,0,0:0:0:0:
256,192,35649,1,0,0:0:0:0:
256,192,35737,1,8,0:0:0:0:
256,192,35914,1,0,0:0:0:0:
256,192,36090,1,8,0:0:0:0:
256,192,36178,1,0,0:0:0:0:
256,192,36267,1,0,0:0:0:0:
256,192,36355,1,0,0:0:0:0:
256,192,36443,1,8,0:0:0:0:
256,192,36619,1,0,0:0:0:0:
256,192,36796,1,8,0:0:0:0:
256,192,36884,1,0,0:0:0:0:
256,192,37061,1,0,0:0:0:0:
256,192,37149,1,8,0:0:0:0:
256,192,37237,1,8,0:0:0:0:
256,192,37325,1,0,0:0:0:0:
256,192,37502,1,8,0:0:0:0:
256,192,37678,1,0,0:0:0:0:
256,192,37767,1,0,0:0:0:0:
256,192,37855,1,8,0:0:0:0:
256,192,38031,1,0,0:0:0:0:
256,192,38119,1,0,0:0:0:0:
256,192,38208,1,8,0:0:0:0:
256,192,38296,1,0,0:0:0:0:
256,192,38472,1,0,0:0:0:0:
256,192,38561,1,8,0:0:0:0:
256,192,38737,1,0,0:0:0:0:
256,192,38914,1,8,0:0:0:0:
256,192,39002,1,0,0:0:0:0:
256,192,39090,1,0,0:0:0:0:
256,192,39178,1,0,0:0:0:0:
256,192,39267,1,8,0:0:0:0:
256,192,39443,1,0,0:0:0:0:
256,192,39531,1,0,0:0:0:0:
256,192,39619,1,8,0:0:0:0:
256,192,39708,1,8,0:0:0:0:
256,192,39796,1,0,0:0:0:0:
256,192,39884,1,0,0:0:0:0:
256,192,39972,1,8,0:0:0:0:
256,192,40149,1,4,0:0:0:0:
256,192,40325,1,8,0:0:0:0:
256,192,40502,1,0,0:0:0:0:
256,192,40590,1,0,0:0:0:0:
256,192,40678,1,8,0:0:0:0:
256,192,40855,1,0,0:0:0:0:
256,192,40943,1,0,0:0:0:0:
256,192,41031,1,8,0:0:0:0:
256,192,41119,1,0,0:0:0:0:
256,192,41296,1,0,0:0:0:0:
256,192,41384,1,8,0:0:0:0:
256,192,41561,1,0,0:0:0:0:
256,192,41737,1,8,0:0:0:0:
256,192,41825,1,8,0:0:0:0:
256,192,41914,1,0,0:0:0:0:
256,192,42002,1,0,0:0:0:0:
256,192,42090,1,8,0:0:0:0:
256,192,42267,1,0,0:0:0:0:
256,192,42443,1,8,0:0:0:0:
256,192,42531,1,0,0:0:0:0:
256,192,42708,1,0,0:0:0:0:
256,192,42796,1,8,0:0:0:0:
256,192,42884,1,8,0:0:0:0:
256,192,42972,1,0,0:0:0:0:
256,192,43149,1,8,0:0:0:0:
256,192,43325,1,0,0:0:0:0:
256,192,43414,1,0,0:0:0:0:
256,192,43502,1,8,0:0:0:0:
256,192,43678,1,0,0:0:0:0:
256,192,43767,1,0,0:0:0:0:
256,192,43855,1,8,0:0:0:0:
256,192,43943,1,0,0:0:0:0:
256,192,44119,1,0,0:0:0:0:
256,192,44208,1,8,0:0:0:0:
256,192,44384,1,0,0:0:0:0:
256,192,44472,1,0,0:0:0:0:
256,192,44561,1,8,0:0:0:0:
256,192,44649,1,0,0:0:0:0:
256,192,44737,1,8,0:0:0:0:
256,192,44825,1,8,0:0:0:0:
256,192,44914,1,0,0:0:0:0:
256,192,45002,1,0,0:0:0:0:
256,192,45090,1,8,0:0:0:0:
256,192,45178,1,0,0:0:0:0:
256,192,45267,1,0,0:0:0:0:
256,192,45355,1,0,0:0:0:0:
256,192,45443,1,8,0:0:0:0:
256,192,45531,1,8,0:0:0:0:
256,192,45619,1,0,0:0:0:0:
256,192,45708,1,0,0:0:0:0:
256,192,45796,1,12,0:0:0:0:
256,192,45972,1,0,0:0:0:0:
256,192,46061,1,0,0:0:0:0:
256,192,46149,1,8,0:0:0:0:
256,192,46237,1,8,0:0:0:0:
256,192,46325,1,0,0:0:0:0:
256,192,46414,1,0,0:0:0:0:
256,192,46502,1,8,0:0:0:0:
256,192,46590,1,0,0:0:0:0:
256,192,46678,1,0,0:0:0:0:
256,192,46767,1,8,0:0:0:0:
256,192,46855,1,8,0:0:0:0:
256,192,46943,1,0,0:0:0:0:
256,192,47031,1,8,0:0:0:0:
256,192,47119,1,0,0:0:0:0:
256,192,47208,1,8,0:0:0:0:
256,192,47296,1,0,0:0:0:0:
256,192,47384,1,0,0:0:0:0:
256,192,47472,1,0,0:0:0:0:
256,192,47561,1,8,0:0:0:0:
256,192,47649,1,0,0:0:0:0:
256,192,47737,1,8,0:0:0:0:
256,192,47825,1,8,0:0:0:0:
256,192,47914,1,0,0:0:0:0:
256,192,48002,1,0,0:0:0:0:
256,192,48090,1,8,0:0:0:0:
256,192,48178,1,0,0:0:0:0:
256,192,48267,1,8,0:0:0:0:
256,192,48355,1,8,0:0:0:0:
256,192,48443,1,0,0:0:0:0:
256,192,48619,1,8,0:0:0:0:
256,192,48708,1,8,0:0:0:0:
256,192,48796,1,0,0:0:0:0:
256,192,48884,1,0,0:0:0:0:
256,192,48972,1,8,0:0:0:0:
256,192,49061,1,0,0:0:0:0:
256,192,49149,1,8,0:0:0:0:
256,192,49237,1,0,0:0:0:0:
256,192,49325,1,8,0:0:0:0:
256,192,49414,1,0,0:0:0:0:
256,192,49502,1,0,0:0:0:0:
256,192,49590,1,8,0:0:0:0:
256,192,49678,1,8,0:0:0:0:
256,192,49767,1,0,0:0:0:0:
256,192,49855,1,8,0:0:0:0:
256,192,49943,1,0,0:0:0:0:
256,192,50031,1,8,0:0:0:0:
256,192,50119,1,0,0:0:0:0:
256,192,50208,1,0,0:0:0:0:
256,192,50296,1,0,0:0:0:0:
256,192,50384,1,8,0:0:0:0:
256,192,50472,1,8,0:0:0:0:
256,192,50561,1,0,0:0:0:0:
256,192,50649,1,0,0:0:0:0:
256,192,50737,1,8,0:0:0:0:
256,192,50825,1,8,0:0:0:0:
256,192,50914,1,8,0:0:0:0:
256,192,51002,1,0,0:0:0:0:
256,192,51090,1,8,0:0:0:0:
256,192,51178,1,8,0:0:0:0:
256,192,51267,1,0,0:0:0:0:
256,192,51355,1,0,0:0:0:0:
256,192,51443,1,12,0:0:0:0:
256,192,51619,1,0,0:0:0:0:
256,192,51708,1,0,0:0:0:0:
256,192,51796,1,8,0:0:0:0:
256,192,51884,1,8,0:0:0:0:
256,192,51972,1,0,0:0:0:0:
256,192,52061,1,0,0:0:0:0:
256,192,52149,1,8,0:0:0:0:
256,192,52237,1,0,0:0:0:0:
256,192,52325,1,0,0:0:0:0:
256,192,52414,1,8,0:0:0:0:
256,192,52502,1,8,0:0:0:0:
256,192,52590,1,0,0:0:0:0:
256,192,52678,1,8,0:0:0:0:
256,192,52767,1,0,0:0:0:0:
256,192,52855,1,8,0:0:0:0:
256,192,52943,1,8,0:0:0:0:
256,192,53031,1,8,0:0:0:0:
256,192,53119,1,0,0:0:0:0:
256,192,53208,1,8,0:0:0:0:
256,192,53296,1,0,0:0:0:0:
256,192,53384,1,8,0:0:0:0:
256,192,53472,1,0,0:0:0:0:
256,192,53561,1,8,0:0:0:0:
256,192,53649,1,0,0:0:0:0:
256,192,53737,1,0,0:0:0:0:
256,192,53825,1,8,0:0:0:0:
256,192,53914,1,8,0:0:0:0:
256,192,54002,1,0,0:0:0:0:
256,192,54090,1,0,0:0:0:0:
256,192,54178,1,0,0:0:0:0:
256,192,54267,1,12,0:0:0:0:
256,192,54443,1,0,0:0:0:0:
256,192,54531,1,0,0:0:0:0:
256,192,54619,1,8,0:0:0:0:
256,192,54708,1,0,0:0:0:0:
256,192,54796,1,0,0:0:0:0:
256,192,54884,1,0,0:0:0:0:
256,192,54972,1,8,0:0:0:0:
256,192,55061,1,8,0:0:0:0:
256,192,55149,1,0,0:0:0:0:
256,192,55237,1,0,0:0:0:0:
256,192,55325,1,8,0:0:0:0:
256,192,55414,1,8,0:0:0:0:
256,192,55502,1,8,0:0:0:0:
256,192,55678,1,4,0:0:0:0:
256,192,55943,1,4,0:0:0:0:
256,192,56208,1,4,0:0:0:0:
256,192,56384,1,8,0:0:0:0:
256,192,56472,1,0,0:0:0:0:
256,192,56561,1,8,0:0:0:0:
256,192,56649,1,8,0:0:0:0:
256,192,56737,1,0,0:0:0:0:
256,192,56825,1,0,0:0:0:0:
256,192,56914,1,0,0:0:0:0:
256,192,57002,1,0,0:0:0:0:
256,192,57090,1,8,0:0:0:0:
256,192,57796,1,8,0:0:0:0:
256,192,57884,1,8,0:0:0:0:
256,192,57972,1,0,0:0:0:0:
256,192,58061,1,0,0:0:0:0:
256,192,58149,1,0,0:0:0:0:
256,192,58237,1,0,0:0:0:0:
256,192,58325,1,8,0:0:0:0:
256,192,58414,1,8,0:0:0:0:
256,192,58502,1,4,0:0:0:0:
256,192,58678,1,8,0:0:0:0:
256,192,58767,1,8,0:0:0:0:
256,192,58855,1,0,0:0:0:0:
256,192,58943,1,0,0:0:0:0:
256,192,59031,1,8,0:0:0:0:
256,192,59119,1,0,0:0:0:0:
256,192,59208,1,8,0:0:0:0:
256,192,59296,1,8,0:0:0:0:
256,192,59384,1,8,0:0:0:0:
256,192,59472,1,8,0:0:0:0:
256,192,59561,1,0,0:0:0:0:
256,192,59649,1,0,0:0:0:0:
256,192,59737,1,8,0:0:0:0:
256,192,59825,1,8,0:0:0:0:
256,192,59914,1,8,0:0:0:0:
256,192,60002,1,0,0:0:0:0:
256,192,60090,1,8,0:0:0:0:
256,192,60178,1,0,0:0:0:0:
256,192,60267,1,8,0:0:0:0:
256,192,60355,1,8,0:0:0:0:
256,192,60443,1,0,0:0:0:0:
256,192,60531,1,0,0:0:0:0:
256,192,60619,1,8,0:0:0:0:
256,192,60708,1,0,0:0:0:0:
256,192,60796,1,8,0:0:0:0:
256,192,60884,1,0,0:0:0:0:
256,192,60972,1,8,0:0:0:0:
256,192,61061,1,8,0:0:0:0:
256,192,61149,1,0,0:0:0:0:
256,192,61237,1,0,0:0:0:0:
256,192,61325,1,8,0:0:0:0:
256,192,61414,1,8,0:0:0:0:
256,192,61502,1,0,0:0:0:0:
256,192,61590,1,8,0:0:0:0:
256,192,61678,1,0,0:0:0:0:
256,192,61767,1,0,0:0:0:0:
256,192,61855,1,8,0:0:0:0:
256,192,61943,1,0,0:0:0:0:
256,192,62031,1,8,0:0:0:0:
256,192,62119,1,8,0:0:0:0:
256,192,62208,1,8,0:0:0:0:
256,192,62296,1,8,0:0:0:0:
256,192,62384,1,0,0:0:0:0:
256,192,62472,1,0,0:0:0:0:
256,192,62561,1,8,0:0:0:0:
256,192,62649,1,8,0:0:0:0:
256,192,62737,1,4,0:0:0:0:
256,192,62914,1,8,0:0:0:0:
256,192,63090,1,4,0:0:0:0:
256,192,63267,1,0,0:0:0:0:
256,192,63443,1,12,0:0:0:0:
256,192,63796,1,8,0:0:0:0:
256,192,63884,1,0,0:0:0:0:
256,192,63972,1,0,0:0:0:0:
256,192,64149,1,12,0:0:0:0:
256,192,64325,1,0,0:0:0:0:
256,192,64414,1,0,0:0:0:0:
256,192,64502,1,8,0:0:0:0:
256,192,64590,1,8,0:0:0:0:
256,192,64678,1,0,0:0:0:0:
256,192,64767,1,0,0:0:0:0:
256,192,64855,1,8,0:0:0:0:
256,192,64943,1,8,0:0:0:0:
256,192,65031,1,8,0:0:0:0:
256,192,65119,1,8,0:0:0:0:
256,192,65208,1,0,0:0:0:0:
256,192,65296,1,0,0:0:0:0:
256,192,65384,1,8,0:0:0:0:
256,192,65472,1,0,0:0:0:0:
256,192,65561,1,8,0:0:0:0:
256,192,65649,1,8,0:0:0:0:
256,192,65737,1,0,0:0:0:0:
256,192,65825,1,0,0:0:0:0:
256,192,65914,1,8,0:0:0:0:
256,192,66002,1,8,0:0:0:0:
256,192,66090,1,8,0:0:0:0:
256,192,66178,1,0,0:0:0:0:
256,192,66267,1,8,0:0:0:0:
256,192,66355,1,8,0:0:0:0:
256,192,66443,1,8,0:0:0:0:
256,192,66531,1,8,0:0:0:0:
256,192,66619,1,0,0:0:0:0:
256,192,66708,1,0,0:0:0:0:
256,192,66796,1,8,0:0:0:0:
256,192,66884,1,0,0:0:0:0:
256,192,66972,1,8,0:0:0:0:
256,192,67061,1,0,0:0:0:0:
256,192,67149,1,0,0:0:0:0:
256,192,67237,1,0,0:0:0:0:
256,192,67325,1,8,0:0:0:0:
256,192,67414,1,0,0:0:0:0:
256,192,67502,1,8,0:0:0:0:
256,192,67590,1,0,0:0:0:0:
256,192,67678,1,8,0:0:0:0:
256,192,67767,1,8,0:0:0:0:
256,192,67855,1,0,0:0:0:0:
256,192,67943,1,0,0:0:0:0:
256,192,68031,1,8,0:0:0:0:
256,192,68119,1,0,0:0:0:0:
256,192,68208,1,8,0:0:0:0:
256,192,68296,1,0,0:0:0:0:
256,192,68384,1,8,0:0:0:0:
256,192,68472,1,0,0:0:0:0:
256,192,68561,1,0,0:0:0:0:
256,192,68649,1,0,0:0:0:0:
256,192,68737,1,8,0:0:0:0:
256,192,68825,1,8,0:0:0:0:
256,192,68914,1,0,0:0:0:0:
256,192,69002,1,0,0:0:0:0:
256,192,69090,1,0,0:0:0:0:
256,192,69178,1,0,0:0:0:0:
256,192,69267,1,8,0:0:0:0:
256,192,69355,1,8,0:0:0:0:
256,192,69443,1,0,0:0:0:0:
256,192,69531,1,0,0:0:0:0:
256,192,69619,1,8,0:0:0:0:
256,192,69708,1,8,0:0:0:0:
256,192,69796,1,4,0:0:0:0:
256,192,69972,1,8,0:0:0:0:
256,192,70061,1,8,0:0:0:0:
256,192,70149,1,0,0:0:0:0:
256,192,70237,1,0,0:0:0:0:
256,192,70325,1,8,0:0:0:0:
256,192,70414,1,0,0:0:0:0:
256,192,70502,1,8,0:0:0:0:
256,192,70590,1,8,0:0:0:0:
256,192,70678,1,8,0:0:0:0:
256,192,70767,1,8,0:0:0:0:
256,192,70855,1,0,0:0:0:0:
256,192,70943,1,0,0:0:0:0:
256,192,71031,1,8,0:0:0:0:
256,192,71119,1,8,0:0:0:0:
256,192,71208,1,8,0:0:0:0:
256,192,71296,1,0,0:0:0:0:
256,192,71384,1,8,0:0:0:0:
256,192,71472,1,0,0:0:0:0:
256,192,71561,1,8,0:0:0:0:
256,192,71649,1,8,0:0:0:0:
256,192,71737,1,0,0:0:0:0:
256,192,71825,1,0,0:0:0:0:
256,192,71914,1,8,0:0:0:0:
256,192,72002,1,0,0:0:0:0:
256,192,72090,1,8,0:0:0:0:
256,192,72178,1,0,0:0:0:0:
256,192,72267,1,8,0:0:0:0:
256,192,72355,1,8,0:0:0:0:
256,192,72443,1,0,0:0:0:0:
256,192,72531,1,0,0:0:0:0:
256,192,72619,1,8,0:0:0:0:
256,192,72708,1,0,0:0:0:0:
256,192,72796,1,8,0:0:0:0:
256,192,72884,1,8,0:0:0:0:
256,192,72972,1,0,0:0:0:0:
256,192,73061,1,0,0:0:0:0:
256,192,73149,1,8,0:0:0:0:
256,192,73237,1,0,0:0:0:0:
256,192,73325,1,8,0:0:0:0:
256,192,73414,1,8,0:0:0:0:
256,192,73502,1,8,0:0:0:0:
256,192,73590,1,8,0:0:0:0:
256,192,73678,1,0,0:0:0:0:
256,192,73767,1,0,0:0:0:0:
256,192,73855,1,8,0:0:0:0:
256,192,73943,1,8,0:0:0:0:
256,192,74031,1,4,0:0:0:0:
256,192,74208,1,8,0:0:0:0:
256,192,74384,1,4,0:0:0:0:
256,192,74561,1,0,0:0:0:0:
256,192,74737,1,12,0:0:0:0:
256,192,74914,1,0,0:0:0:0:
256,192,75002,1,0,0:0:0:0:
256,192,75090,1,8,0:0:0:0:
256,192,75178,1,8,0:0:0:0:
256,192,75267,1,0,0:0:0:0:
256,192,75355,1,0,0:0:0:0:
256,192,75443,1,12,0:0:0:0:
256,192,75619,1,0,0:0:0:0:
256,192,75708,1,0,0:0:0:0:
256,192,75796,1,8,0:0:0:0:
256,192,75884,1,8,0:0:0:0:
256,192,75972,1,0,0:0:0:0:
256,192,76061,1,0,0:0:0:0:
256,192,76149,1,8,0:0:0:0:
256,192,76237,1,0,0:0:0:0:
256,192,76325,1,8,0:0:0:0:
256,192,76414,1,8,0:0:0:0:
256,192,76502,1,0,0:0:0:0:
256,192,76590,1,0,0:0:0:0:
256,192,76678,1,8,0:0:0:0:
256,192,76767,1,0,0:0:0:0:
256,192,76855,1,8,0:0:0:0:
256,192,76943,1,8,0:0:0:0:
256,192,77031,1,0,0:0:0:0:
256,192,77119,1,8,0:0:0:0:
256,192,77208,1,0,0:0:0:0:
256,192,77296,1,0,0:0:0:0:
256,192,77384,1,8,0:0:0:0:
256,192,77472,1,0,0:0:0:0:
256,192,77561,1,8,0:0:0:0:
256,192,77649,1,8,0:0:0:0:
256,192,77737,1,8,0:0:0:0:
256,192,77825,1,8,0:0:0:0:
256,192,77914,1,0,0:0:0:0:
256,192,78002,1,0,0:0:0:0:
256,192,78090,1,8,0:0:0:0:
256,192,78178,1,8,0:0:0:0:
256,192,78267,1,4,0:0:0:0:
256,192,78443,1,8,0:0:0:0:
256,192,78531,1,8,0:0:0:0:
256,192,78619,1,0,0:0:0:0:
256,192,78708,1,0,0:0:0:0:
256,192,78796,1,0,0:0:0:0:
256,192,78884,1,0,0:0:0:0:
256,192,78972,1,8,0:0:0:0:
256,192,79061,1,8,0:0:0:0:
256,192,79149,1,0,0:0:0:0:
256,192,79237,1,0,0:0:0:0:
256,192,79325,1,8,0:0:0:0:
256,192,79414,1,0,0:0:0:0:
256,192,79502,1,8,0:0:0:0:
256,192,79590,1,8,0:0:0:0:
256,192,79678,1,0,0:0:0:0:
256,192,79767,1,0,0:0:0:0:
256,192,79855,1,8,0:0:0:0:
256,192,79943,1,0,0:0:0:0:
256,192,80031,1,8,0:0:0:0:
256,192,80119,1,8,0:0:0:0:
256,192,80208,1,8,0:0:0:0:
256,192,80296,1,0,0:0:0:0:
256,192,80384,1,8,0:0:0:0:
256,192,80472,1,8,0:0:0:0:
256,192,80561,1,0,0:0:0:0:
256,192,80649,1,0,0:0:0:0:
256,192,80737,1,8,0:0:0:0:
256,192,80825,1,0,0:0:0:0:
256,192,80914,1,0,0:0:0:0:
256,192,81002,1,0,0:0:0:0:
256,192,81090,1,12,0:0:0:0:
256,192,81443,1,8,0:0:0:0:
256,192,81619,1,0,0:0:0:0:
256,192,81796,1,12,0:0:0:0:
256,192,82061,1,0,0:0:0:0:
256,192,82325,1,8,0:0:0:0:
256,192,82502,1,4,0:0:0:0:
256,192,82678,1,0,0:0:0:0:
256,192,83031,1,0,0:0:0:0:
256,192,83090,1,0,0:0:0:0:
256,192,83149,1,0,0:0:0:0:
256,192,83208,1,8,0:0:0:0:
256,192,83384,1,8,0:0:0:0:
256,192,83561,1,0,0:0:0:0:
256,192,83737,1,8,0:0:0:0:
256,192,83914,1,4,0:0:0:0:
256,192,84267,1,8,0:0:0:0:
256,192,84443,1,0,0:0:0:0:
256,192,84619,1,8,0:0:0:0:
256,192,84708,1,8,0:0:0:0:
256,192,84796,1,8,0:0:0:0:
256,192,84884,1,8,0:0:0:0:
256,192,84972,1,0,0:0:0:0:
256,192,85061,1,0,0:0:0:0:
256,192,85149,1,0,0:0:0:0:
256,192,85237,1,0,0:0:0:0:
256,192,85325,1,8,0:0:0:0:
256,192,85590,1,8,0:0:0:0:
256,192,85855,1,8,0:0:0:0:
256,192,86031,12,0,86561,0:0:0:0:
256,192,86737,5,12,0:0:0:0:
256,192,86913,1,0,0:0:0:0:
256,192,87001,1,0,0:0:0:0:
256,192,87090,1,8,0:0:0:0:
256,192,87178,1,8,0:0:0:0:
256,192,87266,1,0,0:0:0:0:
256,192,87354,1,0,0:0:0:0:
256,192,87442,1,8,0:0:0:0:
256,192,87531,1,0,0:0:0:0:
256,192,87619,1,8,0:0:0:0:
256,192,87707,1,8,0:0:0:0:
256,192,87795,1,8,0:0:0:0:
256,192,87884,1,0,0:0:0:0:
256,192,87972,1,8,0:0:0:0:
256,192,88060,1,8,0:0:0:0:
256,192,88148,1,8,0:0:0:0:
256,192,88237,1,0,0:0:0:0:
256,192,88325,1,0,0:0:0:0:
256,192,88413,1,0,0:0:0:0:
256,192,88501,1,8,0:0:0:0:
256,192,88590,1,0,0:0:0:0:
256,192,88678,1,8,0:0:0:0:
256,192,88766,1,0,0:0:0:0:
256,192,88854,1,8,0:0:0:0:
256,192,88942,1,0,0:0:0:0:
256,192,89031,1,8,0:0:0:0:
256,192,89119,1,8,0:0:0:0:
256,192,89207,1,8,0:0:0:0:
256,192,89295,1,0,0:0:0:0:
256,192,89384,1,8,0:0:0:0:
256,192,89472,1,8,0:0:0:0:
256,192,89560,1,0,0:0:0:0:
256,192,89648,1,0,0:0:0:0:
256,192,89737,1,8,0:0:0:0:
256,192,89825,1,8,0:0:0:0:
256,192,89913,1,8,0:0:0:0:
256,192,90001,1,0,0:0:0:0:
256,192,90090,1,8,0:0:0:0:
256,192,90178,1,0,0:0:0:0:
256,192,90266,1,8,0:0:0:0:
256,192,90354,1,8,0:0:0:0:
256,192,90442,1,8,0:0:0:0:
256,192,90531,1,8,0:0:0:0:
256,192,90619,1,0,0:0:0:0:
256,192,90707,1,0,0:0:0:0:
256,192,90795,1,8,0:0:0:0:
256,192,90884,1,8,0:0:0:0:
256,192,90972,1,8,0:0:0:0:
256,192,91060,1,8,0:0:0:0:
256,192,91148,1,0,0:0:0:0:
256,192,91237,1,0,0:0:0:0:
256,192,91325,1,8,0:0:0:0:
256,192,91413,1,0,0:0:0:0:
256,192,91501,1,8,0:0:0:0:
256,192,91590,1,8,0:0:0:0:
256,192,91678,1,0,0:0:0:0:
256,192,91766,1,8,0:0:0:0:
256,192,91854,1,8,0:0:0:0:
256,192,91942,1,0,0:0:0:0:
256,192,92031,1,0,0:0:0:0:
256,192,92119,1,0,0:0:0:0:
256,192,92207,1,8,0:0:0:0:
256,192,92295,1,0,0:0:0:0:
256,192,92384,1,12,0:0:0:0:
256,192,92560,1,0,0:0:0:0:
256,192,92648,1,0,0:0:0:0:
256,192,92737,1,8,0:0:0:0:
256,192,92825,1,8,0:0:0:0:
256,192,92913,1,0,0:0:0:0:
256,192,93001,1,0,0:0:0:0:
256,192,93090,1,8,0:0:0:0:
256,192,93178,1,0,0:0:0:0:
256,192,93266,1,8,0:0:0:0:
256,192,93354,1,0,0:0:0:0:
256,192,93442,1,8,0:0:0:0:
256,192,93531,1,8,0:0:0:0:
256,192,93619,1,0,0:0:0:0:
256,192,93707,1,8,0:0:0:0:
256,192,93795,1,8,0:0:0:0:
256,192,93884,1,8,0:0:0:0:
256,192,93972,1,0,0:0:0:0:
256,192,94060,1,0,0:0:0:0:
256,192,94148,1,8,0:0:0:0:
256,192,94237,1,0,0:0:0:0:
256,192,94325,1,8,0:0:0:0:
256,192,94413,1,0,0:0:0:0:
256,192,94501,1,8,0:0:0:0:
256,192,94590,1,8,0:0:0:0:
256,192,94678,1,8,0:0:0:0:
256,192,94766,1,8,0:0:0:0:
256,192,94854,1,0,0:0:0:0:
256,192,94942,1,0,0:0:0:0:
256,192,95031,1,8,0:0:0:0:
256,192,95119,1,8,0:0:0:0:
256,192,95207,1,0,0:0:0:0:
256,192,95295,1,0,0:0:0:0:
256,192,95384,1,8,0:0:0:0:
256,192,95472,1,8,0:0:0:0:
256,192,95560,1,8,0:0:0:0:
256,192,95648,1,0,0:0:0:0:
256,192,95737,1,0,0:0:0:0:
256,192,95825,1,0,0:0:0:0:
256,192,95913,1,8,0:0:0:0:
256,192,96001,1,0,0:0:0:0:
256,192,96090,1,8,0:0:0:0:
256,192,96178,1,0,0:0:0:0:
256,192,96266,1,8,0:0:0:0:
256,192,96354,1,8,0:0:0:0:
256,192,96442,1,8,0:0:0:0:
256,192,96531,1,0,0:0:0:0:
256,192,96619,1,8,0:0:0:0:
256,192,96707,1,8,0:0:0:0:
256,192,96795,1,0,0:0:0:0:
256,192,96884,1,0,0:0:0:0:
256,192,96972,1,8,0:0:0:0:
256,192,97060,1,8,0:0:0:0:
256,192,97148,1,0,0:0:0:0:
256,192,97237,1,0,0:0:0:0:
256,192,97325,1,8,0:0:0:0:
256,192,97413,1,8,0:0:0:0:
256,192,97501,1,8,0:0:0:0:
256,192,97590,1,8,0:0:0:0:
256,192,97678,1,0,0:0:0:0:
256,192,97766,1,0,0:0:0:0:
256,192,97854,1,0,0:0:0:0:
256,192,97942,1,0,0:0:0:0:
256,192,98031,1,12,0:0:0:0:
256,192,98208,12,0,99443,0:0:0:0:
