osu file format v14

[General]
AudioFilename: audio.ogg
AudioLeadIn: 0
PreviewTime: 58458
Countdown: 0
SampleSet: Normal
StackLeniency: 0.7
Mode: 1
LetterboxInBreaks: 0
WidescreenStoryboard: 1

[Editor]
Bookmarks: 11914,23208,45796,58502,69796,86737
DistanceSpacing: 0.8
BeatDivisor: 4
GridSize: 32
TimelineZoom: 0.3999997

[Metadata]
Title:Danzai wa Amaneku Ningen no Moto ni
TitleUnicode:断罪は遍く人間の元に
Artist:Unlucky Morpheus
ArtistUnicode:Unlucky Morpheus
Creator:Faputa
Version:Kantan
Source:東方風神録 ~ Mountain of Faith.
Tags:BlackBq BlackBN Irone OSU Irone_OSU Heavenly Moon Heavenly_Moon ginjani ダンカグ Dankagu 東方ダンマクカグラ 東方弾幕神楽 Danmaku Kagura SDVX III Sound Voltex 3 Gravity Wars Fuki Touhou Fuujinroku ZUN is for the Transient People 信仰は儚き人間の為に Shinyou wa Hakanaki Ningen no Tame ni 東方project 東方 project Kochiya Sanae 東風谷早苗 TH10 power MoF Stage 5 Boss Theme C72 Comiket 72 Team Shanghai Alice REBIRTH Revisited 博麗神社例大祭 Hakureijinjya Reitaisai Metal Video Rhythm Game Ver. Version Short Japanese SDVX3 SDVXIII III Shiren 紫煉 Fuyuki Tenge 天外冬黄 上海アリス幻樂団 Comic Market
BeatmapID:3157700
BeatmapSetID:1541278

[Difficulty]
HPDrainRate:8
CircleSize:2
OverallDifficulty:3
ApproachRate:10
SliderMultiplier:1.4
SliderTickRate:1

[Events]
//Background and Video events
0,0,"Sayu.jpg",0,73
//Break Periods
//Storyboard Layer 0 (Background)
//Storyboard Layer 1 (Fail)
//Storyboard Layer 2 (Pass)
//Storyboard Layer 3 (Foreground)
//Storyboard Layer 4 (Overlay)
//Storyboard Sound Samples

[TimingPoints]
620,352.941176470588,4,1,0,90,1,0
11914,-100,4,1,0,90,0,1
23208,-100,4,1,0,90,0,0
58502,-100,4,1,0,90,0,1
68384,-100,4,1,0,90,0,0
69796,-100,4,1,0,90,0,1
81090,-100,4,1,0,90,0,0
85943,-100,4,1,0,70,0,0
86649,-100,4,1,0,90,0,0
86737,-100,4,1,0,90,0,1
98119,-100,4,1,0,70,0,1
99443,-100,4,1,0,70,0,0

[HitObjects]
256,192,620,5,12,0:0:0:0:
256,192,2031,1,12,0:0:0:0:
256,192,3443,1,4,0:0:0:0:
256,192,4855,1,4,0:0:0:0:
256,192,5561,1,12,0:0:0:0:
256,192,6267,1,12,0:0:0:0:
256,192,6972,1,12,0:0:0:0:
256,192,7678,1,4,0:0:0:0:
256,192,8384,1,4,0:0:0:0:
256,192,9090,1,12,0:0:0:0:
256,192,9796,1,0,0:0:0:0:
256,192,10149,1,8,0:0:0:0:
256,192,10502,1,8,0:0:0:0:
256,192,11914,1,12,0:0:0:0:
256,192,12619,1,0,0:0:0:0:
256,192,12972,1,8,0:0:0:0:
256,192,13325,1,8,0:0:0:0:
256,192,14031,1,0,0:0:0:0:
256,192,14384,1,8,0:0:0:0:
256,192,14737,1,8,0:0:0:0:
256,192,15443,1,0,0:0:0:0:
256,192,16149,1,8,0:0:0:0:
256,192,16502,1,8,0:0:0:0:
256,192,16855,1,0,0:0:0:0:
256,192,17208,1,0,0:0:0:0:
256,192,17561,1,12,0:0:0:0:
256,192,18619,1,0,0:0:0:0:
256,192,18972,1,8,0:0:0:0:
256,192,19678,1,8,0:0:0:0:
256,192,20031,1,0,0:0:0:0:
256,192,20384,1,8,0:0:0:0:
256,192,21090,1,0,0:0:0:0:
256,192,21796,1,8,0:0:0:0:
256,192,22149,1,0,0:0:0:0:
256,192,22502,1,8,0:0:0:0:
256,192,22855,1,0,0:0:0:0:
256,192,23208,1,12,0:0:0:0:
256,192,24267,1,0,0:0:0:0:
256,192,24619,1,0,0:0:0:0:
256,192,25325,1,8,0:0:0:0:
256,192,26031,1,0,0:0:0:0:
256,192,26737,1,8,0:0:0:0:
256,192,27090,1,8,0:0:0:0:
256,192,27443,1,0,0:0:0:0:
256,192,28149,1,8,0:0:0:0:
256,192,28855,1,4,0:0:0:0:
256,192,29914,1,0,0:0:0:0:
256,192,30267,1,0,0:0:0:0:
256,192,30972,1,8,0:0:0:0:
256,192,31325,1,8,0:0:0:0:
256,192,31678,1,0,0:0:0:0:
256,192,32384,1,0,0:0:0:0:
256,192,32737,1,8,0:0:0:0:
256,192,33090,1,0,0:0:0:0:
256,192,34502,1,12,0:0:0:0:
256,192,35208,1,0,0:0:0:0:
256,192,35561,1,0,0:0:0:0:
256,192,35914,1,8,0:0:0:0:
256,192,36619,1,0,0:0:0:0:
256,192,37325,1,8,0:0:0:0:
256,192,38031,1,0,0:0:0:0:
256,192,38384,1,8,0:0:0:0:
256,192,38737,1,0,0:0:0:0:
256,192,39443,1,8,0:0:0:0:
256,192,40149,1,4,0:0:0:0:
256,192,41208,1,0,0:0:0:0:
256,192,41561,1,8,0:0:0:0:
256,192,42267,1,0,0:0:0:0:
256,192,42619,1,0,0:0:0:0:
256,192,42972,1,8,0:0:0:0:
256,192,43678,1,0,0:0:0:0:
256,192,44031,1,8,0:0:0:0:
256,192,44384,1,8,0:0:0:0:
256,192,45796,1,12,0:0:0:0:
256,192,46502,1,8,0:0:0:0:
256,192,46855,1,8,0:0:0:0:
256,192,47208,1,0,0:0:0:0:
256,192,47914,1,8,0:0:0:0:
256,192,48619,1,0,0:0:0:0:
256,192,49325,1,0,0:0:0:0:
256,192,49678,1,0,0:0:0:0:
256,192,50031,1,8,0:0:0:0:
256,192,50384,1,8,0:0:0:0:
256,192,50737,1,0,0:0:0:0:
256,192,51443,1,12,0:0:0:0:
256,192,52502,1,8,0:0:0:0:
256,192,52855,1,0,0:0:0:0:
256,192,53561,1,0,0:0:0:0:
256,192,54267,1,8,0:0:0:0:
256,192,54972,1,8,0:0:0:0:
256,192,55678,1,4,0:0:0:0:
256,192,56384,1,12,0:0:0:0:
256,192,57796,1,8,0:0:0:0:
256,192,58502,1,4,0:0:0:0:
256,192,59208,1,8,0:0:0:0:
256,192,59914,1,8,0:0:0:0:
256,192,60267,1,8,0:0:0:0:
256,192,60619,1,0,0:0:0:0:
256,192,60972,1,0,0:0:0:0:
256,192,61325,1,8,0:0:0:0:
256,192,62031,1,8,0:0:0:0:
256,192,62737,1,4,0:0:0:0:
256,192,64149,1,4,0:0:0:0:
256,192,64855,1,8,0:0:0:0:
256,192,65561,1,0,0:0:0:0:
256,192,65914,1,8,0:0:0:0:
256,192,66267,1,8,0:0:0:0:
256,192,66619,1,0,0:0:0:0:
256,192,66972,1,8,0:0:0:0:
256,192,67678,1,0,0:0:0:0:
256,192,68031,1,8,0:0:0:0:
256,192,68384,1,8,0:0:0:0:
256,192,69796,1,4,0:0:0:0:
256,192,70502,1,8,0:0:0:0:
256,192,71208,1,8,0:0:0:0:
256,192,71561,1,0,0:0:0:0:
256,192,71913,1,8,0:0:0:0:
256,192,72267,1,0,0:0:0:0:
256,192,72619,1,8,0:0:0:0:
256,192,73325,1,8,0:0:0:0:
256,192,74031,1,4,0:0:0:0:
256,192,75443,1,4,0:0:0:0:
256,192,76149,1,8,0:0:0:0:
256,192,76855,1,8,0:0:0:0:
256,192,77208,1,8,0:0:0:0:
256,192,77561,1,8,0:0:0:0:
256,192,77913,1,0,0:0:0:0:
256,192,78267,1,12,0:0:0:0:
256,192,78972,1,0,0:0:0:0:
256,192,79325,1,0,0:0:0:0:
256,192,79678,1,8,0:0:0:0:
256,192,80384,1,8,0:0:0:0:
256,192,80737,1,0,0:0:0:0:
256,192,81090,1,12,0:0:0:0:
256,192,82502,1,4,0:0:0:0:
256,192,83208,1,8,0:0:0:0:
256,192,83914,1,4,0:0:0:0:
256,192,84619,1,8,0:0:0:0:
256,192,84972,1,8,0:0:0:0:
256,192,85325,1,0,0:0:0:0:
256,192,86737,1,12,0:0:0:0:
256,192,87442,1,0,0:0:0:0:
256,192,87795,1,8,0:0:0:0:
256,192,88148,1,8,0:0:0:0:
256,192,88854,1,0,0:0:0:0:
256,192,89207,1,8,0:0:0:0:
256,192,89560,1,8,0:0:0:0:
256,192,90266,1,0,0:0:0:0:
256,192,90972,1,8,0:0:0:0:
256,192,91325,1,8,0:0:0:0:
256,192,91678,1,0,0:0:0:0:
256,192,92031,1,0,0:0:0:0:
256,192,92384,1,12,0:0:0:0:
256,192,93442,1,0,0:0:0:0:
256,192,93795,1,8,0:0:0:0:
256,192,94501,1,8,0:0:0:0:
256,192,94854,1,0,0:0:0:0:
256,192,95207,1,8,0:0:0:0:
256,192,95913,1,0,0:0:0:0:
256,192,96619,1,8,0:0:0:0:
256,192,96972,1,0,0:0:0:0:
256,192,97325,1,8,0:0:0:0:
256,192,97678,1,0,0:0:0:0:
256,192,98031,1,12,0:0:0:0:
256,192,98384,8,0,99443,0:0:0:0:
