osu file format v14

[General]
AudioFilename: audio.mp3
AudioLeadIn: 0
PreviewTime: -1
Countdown: 0
SampleSet: Normal
StackLeniency: 0.7
Mode: 0
LetterboxInBreaks: 0
WidescreenStoryboard: 0

[Editor]
Bookmarks: 22211,35744,71613,71939,74222,74385,74548,74711,78135,79765
DistanceSpacing: 1
BeatDivisor: 4
GridSize: 8
TimelineZoom: 1.7

[Metadata]
Title:CADAVER / REVADAC (Sped Up Ver.)
TitleUnicode:CADAVER / REVADAC (Sped Up Ver.)
Artist:Unlucky Morpheus
ArtistUnicode:Unlucky Morpheus
Creator:kookabarea
Version:Collab
Source:
Tags:
BeatmapID:1931191
BeatmapSetID:924580

[Difficulty]
HPDrainRate:5.5
CircleSize:4.2
OverallDifficulty:9
ApproachRate:9.6
SliderMultiplier:1.4
SliderTickRate:1

[Events]
//Background and Video events
//Break Periods
//Storyboard Layer 0 (Background)
//Storyboard Layer 1 (Fail)
//Storyboard Layer 2 (Pass)
//Storyboard Layer 3 (Foreground)
//Storyboard Sound Samples

[TimingPoints]
12266,326.086956521739,4,1,0,100,1,0
16179,-86.9565217391304,4,1,0,100,0,0
22700,-64.5161290322581,4,1,0,100,0,0
22863,-100,4,1,0,100,0,0
25064,-83.3333333333333,4,1,0,100,0,0
25227,-71.4285714285714,4,1,0,100,0,0
25390,-62.5,4,1,0,100,0,0
25554,-86.9565217391304,4,1,0,100,0,0
27021,-105.263157894737,4,1,0,100,0,0
27347,-153.846153846153,4,1,0,100,0,0
27918,-66.6666666666667,4,1,0,100,0,0
33796,-86.9565217391304,4,1,0,100,0,0
34439,-66.6666666666667,4,1,0,100,0,0
34847,-86.9565217391304,4,1,0,100,0,0
38352,-100,4,1,0,100,0,0
61831,-166.666666666667,4,1,0,100,0,0
62483,-117.647058823529,4,1,0,100,0,0
63135,-100,4,1,0,100,0,0
63787,-86.9565217391304,4,1,0,100,0,0
67048,-166.666666666667,4,1,0,100,0,0
68352,-90.9090909090909,4,1,0,100,0,0
69005,-62.5,4,1,0,100,0,0
69657,-76.9230769230769,4,1,0,100,0,0
75526,-100,4,1,0,100,0,0
76179,-400,4,1,0,100,0,0
76505,-133.333333333333,4,1,0,100,0,0
76831,-100,4,1,0,100,0,0
77483,-66.6666666666667,4,1,0,100,0,0
78135,-51.2820512820513,4,1,0,100,0,0
78706,-48.780487804878,4,1,0,100,0,0
79195,-44.4444444444445,4,1,0,100,0,0

[HitObjects]
91,75,12265,5,0,0:0:0:0:
61,108,12346,1,0,0:0:0:0:
49,150,12428,1,0,0:0:0:0:
53,194,12509,1,0,0:0:0:0:
76,232,12591,1,0,0:0:0:0:
111,258,12672,1,0,0:0:0:0:
152,269,12754,1,0,0:0:0:0:
196,263,12835,1,0,0:0:0:0:
234,237,12918,2,0,L|271:194,3,35
415,182,13244,6,0,L|421:238,1,35
300,263,13407,2,0,L|294:318,1,35
147,305,13570,1,0,0:0:0:0:
141,269,13651,1,0,0:0:0:0:
144,235,13733,2,0,L|147:182,1,35
288,115,13896,5,0,0:0:0:0:
291,142,13978,1,0,0:0:0:0:
293,173,14059,2,0,L|296:217,1,35
206,294,14222,5,0,0:0:0:0:
196,294,14303,1,0,0:0:0:0:
188,294,14385,2,0,L|137:292,1,35
137,157,14548,5,0,0:0:0:0:
137,157,14629,1,0,0:0:0:0:
137,157,14711,2,0,L|200:153,1,35
327,85,14874,5,0,0:0:0:0:
317,109,14956,1,0,0:0:0:0:
317,135,15037,1,0,0:0:0:0:
326,159,15119,1,0,0:0:0:0:
357,166,15200,5,0,0:0:0:0:
369,188,15282,1,0,0:0:0:0:
372,214,15363,1,0,0:0:0:0:
365,239,15445,1,0,0:0:0:0:
336,235,15526,5,0,0:0:0:0:
304,252,15608,1,0,0:0:0:0:
269,254,15688,1,0,0:0:0:0:
236,240,15770,1,0,0:0:0:0:
248,207,15852,5,0,0:0:0:0:
207,189,15934,1,0,0:0:0:0:
164,188,16015,1,0,0:0:0:0:
125,203,16097,1,0,0:0:0:0:
131,254,16179,5,0,0:0:0:0:
71,242,16260,1,0,0:0:0:0:
27,202,16342,1,0,0:0:0:0:
11,144,16423,1,0,0:0:0:0:
27,86,16505,1,0,0:0:0:0:
70,45,16586,1,0,0:0:0:0:
128,33,16668,1,0,0:0:0:0:
186,53,16749,1,0,0:0:0:0:
224,106,16831,5,0,0:0:0:0:
233,188,16912,1,0,0:0:0:0:
297,243,16994,1,0,0:0:0:0:
380,240,17075,1,0,0:0:0:0:
440,182,17157,1,0,0:0:0:0:
375,33,17483,5,0,0:0:0:0:
400,72,17564,1,0,0:0:0:0:
411,113,17646,1,0,0:0:0:0:
395,158,17727,1,0,0:0:0:0:
386,204,17809,1,0,0:0:0:0:
394,251,17890,1,0,0:0:0:0:
423,286,17972,1,0,0:0:0:0:
426,331,18053,1,0,0:0:0:0:
397,365,18135,1,0,0:0:0:0:
353,375,18216,1,0,0:0:0:0:
313,356,18298,1,0,0:0:0:0:
293,314,18379,1,0,0:0:0:0:
285,268,18461,5,0,0:0:0:0:
287,223,18542,1,0,0:0:0:0:
262,185,18624,1,0,0:0:0:0:
219,171,18705,1,0,0:0:0:0:
177,185,18787,1,0,0:0:0:0:
152,224,18868,1,0,0:0:0:0:
137,267,18950,1,0,0:0:0:0:
99,292,19031,1,0,0:0:0:0:
55,288,19113,1,0,0:0:0:0:
23,256,19194,1,0,0:0:0:0:
17,212,19276,1,0,0:0:0:0:
43,175,19357,1,0,0:0:0:0:
84,160,19439,1,0,0:0:0:0:
125,175,19521,1,0,0:0:0:0:
157,203,19602,6,0,P|166:227|184:261,1,40.2500007677078
327,245,19765,2,0,L|314:181,1,40.2500007677078
212,109,19929,2,0,L|236:180,1,40.2500007677078
390,88,20092,2,0,P|386:57|348:46,1,40.2500007677078
260,24,20255,5,0,0:0:0:0:
215,13,20336,1,0,0:0:0:0:
172,29,20418,1,0,0:0:0:0:
144,63,20499,1,0,0:0:0:0:
140,108,20581,1,0,0:0:0:0:
161,149,20662,1,0,0:0:0:0:
194,182,20744,1,0,0:0:0:0:
224,214,20825,1,0,0:0:0:0:
237,257,20907,1,0,0:0:0:0:
226,302,20988,1,0,0:0:0:0:
198,337,21070,1,0,0:0:0:0:
157,354,21151,1,0,0:0:0:0:
112,351,21233,1,0,0:0:0:0:
73,327,21314,1,0,0:0:0:0:
46,291,21396,5,0,0:0:0:0:
50,246,21477,1,0,0:0:0:0:
56,200,21559,1,0,0:0:0:0:
61,154,21640,1,0,0:0:0:0:
68,109,21722,1,0,0:0:0:0:
74,63,21804,1,0,0:0:0:0:
108,33,21885,1,0,0:0:0:0:
152,28,21967,1,0,0:0:0:0:
189,50,22048,1,0,0:0:0:0:
208,91,22130,1,0,0:0:0:0:
216,137,22211,6,0,L|224:196,1,40.2500007677078
310,328,22374,2,0,L|298:255,1,40.2500007677078
351,145,22537,2,0,L|351:188,1,40.2500007677078
461,257,22700,2,0,P|413:263|373:257,1,54.2500004138947
219,265,22863,5,0,0:0:0:0:
182,266,22944,1,0,0:0:0:0:
149,251,23026,1,0,0:0:0:0:
127,222,23107,1,0,0:0:0:0:
121,186,23189,1,0,0:0:0:0:
131,152,23270,1,0,0:0:0:0:
156,126,23352,1,0,0:0:0:0:
190,116,23433,1,0,0:0:0:0:
228,114,23515,1,0,0:0:0:0:
262,125,23596,1,0,0:0:0:0:
290,146,23678,1,0,0:0:0:0:
312,176,23759,1,0,0:0:0:0:
323,210,23841,1,0,0:0:0:0:
322,247,23922,1,0,0:0:0:0:
324,284,24005,5,0,0:0:0:0:
348,310,24086,1,0,0:0:0:0:
381,325,24168,1,0,0:0:0:0:
416,326,24249,1,0,0:0:0:0:
451,313,24331,1,0,0:0:0:0:
477,288,24412,1,0,0:0:0:0:
490,255,24494,1,0,0:0:0:0:
490,219,24575,1,0,0:0:0:0:
477,185,24657,1,0,0:0:0:0:
451,160,24738,1,0,0:0:0:0:
417,147,24820,1,0,0:0:0:0:
381,152,24901,6,0,L|327:165,1,35
265,251,25064,2,0,L|321:240,1,41.9999987182618
215,164,25227,2,0,L|156:169,1,48.9999985046387
62,237,25390,2,0,P|94:261|131:254,1,56
204,269,25554,5,0,0:0:0:0:
236,291,25635,1,0,0:0:0:0:
276,291,25717,1,0,0:0:0:0:
310,270,25798,1,0,0:0:0:0:
326,234,25880,1,0,0:0:0:0:
319,195,25961,1,0,0:0:0:0:
293,165,26043,1,0,0:0:0:0:
255,151,26124,1,0,0:0:0:0:
225,124,26205,1,0,0:0:0:0:
215,86,26287,1,0,0:0:0:0:
226,48,26368,1,0,0:0:0:0:
257,23,26450,1,0,0:0:0:0:
296,18,26531,1,0,0:0:0:0:
332,35,26613,1,0,0:0:0:0:
345,73,26695,5,0,0:0:0:0:
340,112,26776,1,0,0:0:0:0:
317,145,26858,1,0,0:0:0:0:
282,164,26939,1,0,0:0:0:0:
249,167,27021,1,0,0:0:0:0:
216,172,27102,1,0,0:0:0:0:
194,196,27184,1,0,0:0:0:0:
193,228,27265,1,0,0:0:0:0:
201,255,27347,1,0,0:0:0:0:
218,269,27428,1,0,0:0:0:0:
238,278,27510,1,0,0:0:0:0:
260,275,27591,1,0,0:0:0:0:
270,271,27673,1,0,0:0:0:0:
274,266,27755,1,0,0:0:0:0:
275,260,27836,1,0,0:0:0:0:
276,252,27918,6,0,B|262:144|366:169|337:59,1,210.000008010865
187,67,28407,1,0,0:0:0:0:
187,67,28488,1,0,0:0:0:0:
187,67,28570,2,0,P|213:62|254:71,3,52.5000020027161
264,176,28896,2,0,P|220:178|194:171,3,52.5000020027161
142,292,29222,2,0,B|204:325|299:295|299:295|253:261,1,210.000008010865
123,169,29711,5,0,0:0:0:0:
153,131,29792,1,0,0:0:0:0:
196,108,29874,1,0,0:0:0:0:
245,105,29955,1,0,0:0:0:0:
290,122,30037,1,0,0:0:0:0:
326,157,30118,1,0,0:0:0:0:
334,202,30200,2,0,B|300:275|377:277|298:346,1,157.500006008148
232,310,30526,2,0,L|119:301,1,105.000004005432
101,222,30852,6,0,L|47:217,3,52.5000020027161
192,159,31179,2,0,L|253:155,3,52.5000020027161
343,140,31505,1,0,0:0:0:0:
257,292,31668,1,0,0:0:0:0:
424,354,31831,1,0,0:0:0:0:
450,313,31912,1,0,0:0:0:0:
467,267,31994,1,0,0:0:0:0:
472,218,32075,1,0,0:0:0:0:
464,170,32157,1,0,0:0:0:0:
441,126,32238,1,0,0:0:0:0:
410,87,32320,6,0,P|374:56|342:37,1,52.5000020027161
286,34,32483,2,0,B|186:32|240:86|124:86,1,157.500006008148
73,150,32809,2,0,P|61:205|58:257,1,105
152,331,33135,2,0,B|285:304|198:112|398:73,1,367.500014019013
395,74,33787,1,0,0:0:0:0:
344,48,33868,1,0,0:0:0:0:
291,61,33950,1,0,0:0:0:0:
250,103,34031,1,0,0:0:0:0:
214,141,34113,1,0,0:0:0:0:
180,182,34194,1,0,0:0:0:0:
124,197,34276,1,0,0:0:0:0:
66,210,34357,1,0,0:0:0:0:
37,251,34439,2,0,B|172:214|164:361|274:274,1,210.000008010865
255,282,34847,5,0,0:0:0:0:
211,245,34928,1,0,0:0:0:0:
195,192,35010,1,0,0:0:0:0:
209,138,35091,1,0,0:0:0:0:
249,101,35173,1,0,0:0:0:0:
303,90,35254,1,0,0:0:0:0:
355,109,35336,1,0,0:0:0:0:
394,151,35418,2,0,L|424:209,3,40.2500007677078
292,319,35744,5,0,0:0:0:0:
253,328,35825,1,0,0:0:0:0:
214,319,35907,1,0,0:0:0:0:
183,294,35988,1,0,0:0:0:0:
166,258,36070,1,0,0:0:0:0:
282,113,36233,5,0,0:0:0:0:
246,94,36314,1,0,0:0:0:0:
206,89,36396,1,0,0:0:0:0:
168,99,36477,1,0,0:0:0:0:
135,122,36559,1,0,0:0:0:0:
81,223,36722,5,0,0:0:0:0:
121,219,36803,1,0,0:0:0:0:
161,216,36885,1,0,0:0:0:0:
201,213,36966,1,0,0:0:0:0:
241,209,37048,1,0,0:0:0:0:
407,257,37211,5,0,0:0:0:0:
402,216,37292,1,0,0:0:0:0:
398,176,37374,1,0,0:0:0:0:
393,136,37455,1,0,0:0:0:0:
389,96,37537,1,0,0:0:0:0:
208,48,37700,5,0,0:0:0:0:
202,50,37782,1,0,0:0:0:0:
197,52,37863,1,0,0:0:0:0:
81,135,38026,1,0,0:0:0:0:
214,268,38189,1,0,0:0:0:0:
292,110,38352,6,0,P|299:160|296:205,1,70
349,327,38679,1,0,0:0:0:0:
349,327,38760,1,0,0:0:0:0:
349,327,38842,2,0,P|351:276|357:244,1,70
373,109,39168,2,0,P|326:115|292:114,1,70
272,114,39412,1,0,0:0:0:0:
272,114,39494,1,0,0:0:0:0:
76,268,39657,6,0,P|123:277|148:270,1,70
256,212,39983,2,0,P|214:206|177:213,1,70
283,296,40309,2,0,P|330:303|357:300,1,70
447,229,40635,2,0,P|418:226|394:233,3,35
341,97,40961,2,0,L|334:183,1,70
320,325,41287,5,0,0:0:0:0:
320,325,41369,1,0,0:0:0:0:
320,325,41450,2,0,P|256:324|236:319,1,70
131,231,41776,2,0,P|168:228|195:236,3,35
80,139,42102,1,0,0:0:0:0:
221,63,42265,6,0,P|219:104|226:137,1,70
312,215,42592,2,0,P|321:171|313:141,1,70
217,224,42918,2,0,P|217:269|226:307,1,70
306,349,43244,2,0,P|313:309|310:302,3,35
363,257,43570,6,0,P|356:207|359:162,1,70
306,40,43897,1,0,0:0:0:0:
306,40,43978,1,0,0:0:0:0:
306,40,44060,2,0,P|304:91|298:123,1,70
282,258,44386,2,0,P|329:252|363:253,1,70
383,253,44630,1,0,0:0:0:0:
383,253,44712,1,0,0:0:0:0:
318,151,44874,6,0,P|319:111|296:69,1,70
180,80,45200,2,0,P|188:127|202:160,1,70
323,91,45526,6,0,P|303:57|281:32,1,70
196,167,45852,2,0,P|216:201|240:227,1,70
338,218,46179,6,0,L|343:256,1,35
176,311,46342,2,0,L|171:270,1,35
307,337,46505,2,0,P|265:340|256:337,3,35
339,208,46831,6,0,P|363:170|354:143,1,70
275,81,47157,2,0,P|254:127|261:147,1,70
385,141,47483,6,0,P|379:100|364:73,1,70
247,151,47809,2,0,P|259:189|283:215,1,70
396,257,48135,2,0,L|402:295,1,35
273,319,48298,2,0,L|266:281,1,35
144,286,48461,5,0,0:0:0:0:
123,258,48542,1,0,0:0:0:0:
116,224,48624,1,0,0:0:0:0:
123,190,48705,1,0,0:0:0:0:
133,155,48787,6,0,P|183:148|228:151,1,70
350,98,49114,1,0,0:0:0:0:
350,98,49195,1,0,0:0:0:0:
350,98,49277,2,0,P|299:96|267:90,1,70
132,74,49603,2,0,P|138:121|137:155,1,70
137,175,49847,1,0,0:0:0:0:
137,175,49929,1,0,0:0:0:0:
298,338,50092,6,0,P|307:291|300:266,1,70
233,204,50418,2,0,P|227:246|234:283,1,70
305,186,50744,2,0,P|312:139|309:112,1,70
244,51,51070,2,0,P|241:80|248:104,3,35
102,142,51396,2,0,L|188:149,1,70
325,156,51722,5,0,0:0:0:0:
325,156,51804,1,0,0:0:0:0:
325,156,51885,2,0,P|324:220|319:240,1,70
249,278,52211,2,0,P|246:241|254:214,3,35
160,334,52537,1,0,0:0:0:0:
68,221,52700,6,0,P|109:223|142:216,1,70
220,130,53027,2,0,P|176:121|146:129,1,70
229,225,53353,2,0,P|274:225|312:216,1,70
354,136,53679,2,0,P|318:134|305:135,3,35
149,127,54005,6,0,P|156:177|153:222,1,70
206,344,54332,1,0,0:0:0:0:
206,344,54413,1,0,0:0:0:0:
206,344,54495,2,0,P|208:293|214:261,1,70
230,126,54821,2,0,P|183:132|149:131,1,70
129,131,55065,1,0,0:0:0:0:
129,131,55147,1,0,0:0:0:0:
194,233,55309,6,0,P|193:273|216:315,1,70
332,304,55635,2,0,P|324:257|310:224,1,70
189,293,55961,6,0,P|209:327|231:352,1,70
316,217,56287,2,0,P|296:183|272:157,1,70
157,154,56613,6,0,P|151:116|151:109,1,35
332,46,56776,2,0,P|338:85|330:106,1,35
200,38,56939,2,0,P|239:37|251:40,3,35
414,165,57265,6,0,L|420:238,1,70
335,313,57592,2,0,L|328:234,1,70
223,176,57918,2,0,L|228:261,1,70
137,326,58244,2,0,L|134:246,1,70
111,125,58570,2,0,P|152:129|171:123,1,35
222,63,58733,2,0,P|195:62|170:66,1,35
330,98,58896,5,0,0:0:0:0:
363,104,58977,1,0,0:0:0:0:
390,126,59059,1,0,0:0:0:0:
403,159,59140,1,0,0:0:0:0:
398,193,59222,1,0,0:0:0:0:
358,340,59385,5,0,0:0:0:0:
231,113,59548,1,0,0:0:0:0:
154,340,59711,5,0,0:0:0:0:
351,186,59874,1,0,0:0:0:0:
102,147,60037,5,0,0:0:0:0:
282,352,60200,1,0,0:0:0:0:
312,102,60363,5,0,0:0:0:0:
82,284,60526,1,0,0:0:0:0:
367,232,60689,5,0,0:0:0:0:
171,65,60852,1,0,0:0:0:0:
179,339,61015,5,0,0:0:0:0:
338,125,61179,1,0,0:0:0:0:
65,141,61342,5,0,0:0:0:0:
316,330,61505,1,0,0:0:0:0:
216,60,61668,1,0,0:0:0:0:
131,246,61831,5,0,0:0:0:0:
150,241,61912,1,0,0:0:0:0:
170,236,61994,1,0,0:0:0:0:
191,231,62075,1,0,0:0:0:0:
211,226,62157,1,0,0:0:0:0:
193,318,62483,5,0,0:0:0:0:
223,319,62564,1,0,0:0:0:0:
253,319,62646,1,0,0:0:0:0:
283,319,62727,1,0,0:0:0:0:
312,319,62809,1,0,0:0:0:0:
380,209,63135,5,0,0:0:0:0:
345,203,63216,1,0,0:0:0:0:
311,197,63298,1,0,0:0:0:0:
276,191,63379,1,0,0:0:0:0:
242,185,63461,1,0,0:0:0:0:
292,72,63787,5,0,0:0:0:0:
252,76,63868,1,0,0:0:0:0:
212,80,63950,1,0,0:0:0:0:
172,85,64031,1,0,0:0:0:0:
132,89,64113,1,0,0:0:0:0:
139,352,64439,5,0,0:0:0:0:
323,144,64602,1,0,0:0:0:0:
299,367,64765,5,0,0:0:0:0:
138,148,64929,1,0,0:0:0:0:
368,229,65092,5,0,0:0:0:0:
80,265,65255,1,0,0:0:0:0:
242,92,65418,5,0,0:0:0:0:
318,296,65581,1,0,0:0:0:0:
69,186,65744,5,0,0:0:0:0:
326,152,65907,1,0,0:0:0:0:
208,347,66070,5,0,0:0:0:0:
153,113,66233,1,0,0:0:0:0:
402,206,66396,5,0,0:0:0:0:
154,266,66559,1,0,0:0:0:0:
256,56,66722,5,0,0:0:0:0:
329,324,66885,1,0,0:0:0:0:
274,154,67048,5,0,0:0:0:0:
294,150,67129,1,0,0:0:0:0:
315,146,67211,1,0,0:0:0:0:
335,142,67292,1,0,0:0:0:0:
356,138,67374,1,0,0:0:0:0:
296,240,67700,5,0,0:0:0:0:
319,242,67781,1,0,0:0:0:0:
343,243,67863,1,0,0:0:0:0:
367,245,67944,1,0,0:0:0:0:
391,247,68026,1,0,0:0:0:0:
307,330,68352,6,0,L|168:322,2,115.50000352478
422,308,69005,1,0,0:0:0:0:
472,269,69086,1,0,0:0:0:0:
496,210,69168,1,0,0:0:0:0:
485,147,69249,1,0,0:0:0:0:
443,100,69331,1,0,0:0:0:0:
382,81,69412,1,0,0:0:0:0:
320,96,69494,1,0,0:0:0:0:
276,141,69575,1,0,0:0:0:0:
251,173,69657,5,0,0:0:0:0:
216,201,69738,1,0,0:0:0:0:
171,206,69820,1,0,0:0:0:0:
131,185,69901,1,0,0:0:0:0:
109,146,69983,1,0,0:0:0:0:
112,101,70064,1,0,0:0:0:0:
139,66,70146,1,0,0:0:0:0:
181,51,70227,1,0,0:0:0:0:
226,63,70309,5,0,0:0:0:0:
234,106,70390,1,0,0:0:0:0:
266,138,70472,1,0,0:0:0:0:
302,165,70553,1,0,0:0:0:0:
337,194,70635,1,0,0:0:0:0:
368,227,70716,1,0,0:0:0:0:
390,267,70798,1,0,0:0:0:0:
389,299,70880,5,0,0:0:0:0:
353,306,70961,1,0,0:0:0:0:
309,298,71043,1,0,0:0:0:0:
280,274,71124,1,0,0:0:0:0:
269,231,71206,1,0,0:0:0:0:
265,186,71287,1,0,0:0:0:0:
233,154,71368,1,0,0:0:0:0:
189,158,71450,1,0,0:0:0:0:
162,193,71531,1,0,0:0:0:0:
157,225,71613,6,0,P|168:264|186:278,3,45.4999979171754
257,321,71939,2,0,P|236:275|219:266,3,45.4999979171754
149,326,72265,5,0,0:0:0:0:
107,308,72346,1,0,0:0:0:0:
79,272,72428,1,0,0:0:0:0:
72,228,72509,1,0,0:0:0:0:
87,185,72591,1,0,0:0:0:0:
120,155,72672,1,0,0:0:0:0:
164,144,72754,1,0,0:0:0:0:
207,156,72835,1,0,0:0:0:0:
240,188,72918,6,0,L|276:222,1,45.4999979171754
364,290,73081,1,0,0:0:0:0:
387,251,73162,1,0,0:0:0:0:
383,207,73244,1,0,0:0:0:0:
354,173,73325,1,0,0:0:0:0:
310,162,73407,1,0,0:0:0:0:
269,179,73488,1,0,0:0:0:0:
240,215,73570,1,0,0:0:0:0:
199,234,73651,1,0,0:0:0:0:
155,224,73733,1,0,0:0:0:0:
126,191,73814,1,0,0:0:0:0:
119,140,73896,1,0,0:0:0:0:
148,101,73977,1,0,0:0:0:0:
185,94,74059,1,0,0:0:0:0:
222,120,74140,1,0,0:0:0:0:
240,160,74222,6,0,P|272:164|296:151,3,45.4999979171754
351,287,74548,2,0,P|323:288|299:304,3,45.4999979171754
193,321,74874,5,0,0:0:0:0:
148,330,74955,1,0,0:0:0:0:
104,320,75037,1,0,0:0:0:0:
69,292,75118,1,0,0:0:0:0:
48,252,75200,1,0,0:0:0:0:
47,207,75281,1,0,0:0:0:0:
64,165,75363,1,0,0:0:0:0:
98,135,75444,1,0,0:0:0:0:
142,124,75526,1,0,0:0:0:0:
164,150,75607,1,0,0:0:0:0:
196,163,75689,1,0,0:0:0:0:
231,162,75770,1,0,0:0:0:0:
266,156,75852,1,0,0:0:0:0:
301,155,75933,1,0,0:0:0:0:
334,164,76015,1,0,0:0:0:0:
363,184,76096,1,0,0:0:0:0:
379,216,76179,5,0,0:0:0:0:
378,224,76260,1,0,0:0:0:0:
377,233,76342,1,0,0:0:0:0:
376,242,76423,1,0,0:0:0:0:
376,251,76505,1,0,0:0:0:0:
365,274,76586,1,0,0:0:0:0:
344,290,76668,1,0,0:0:0:0:
318,294,76749,1,0,0:0:0:0:
294,288,76831,2,0,P|269:280|253:261,3,35
283,195,77157,2,0,P|259:185|233:184,3,35
125,34,77483,5,0,0:0:0:0:
67,53,77564,1,0,0:0:0:0:
36,95,77646,1,0,0:0:0:0:
34,146,77727,1,0,0:0:0:0:
57,193,77809,1,0,0:0:0:0:
101,220,77890,1,0,0:0:0:0:
152,220,77972,1,0,0:0:0:0:
197,193,78053,1,0,0:0:0:0:
229,143,78135,5,0,0:0:0:0:
266,85,78216,1,0,0:0:0:0:
333,61,78298,1,0,0:0:0:0:
399,86,78379,1,0,0:0:0:0:
436,146,78461,1,0,0:0:0:0:
429,215,78543,1,0,0:0:0:0:
380,266,78624,1,0,0:0:0:0:
304,281,78706,5,0,0:0:0:0:
264,214,78787,1,0,0:0:0:0:
200,176,78869,1,0,0:0:0:0:
130,194,78950,1,0,0:0:0:0:
93,258,79032,1,0,0:0:0:0:
112,329,79113,1,0,0:0:0:0:
173,363,79195,5,0,0:0:0:0:
257,366,79276,1,0,0:0:0:0:
326,323,79358,1,0,0:0:0:0:
353,248,79439,1,0,0:0:0:0:
332,168,79521,1,0,0:0:0:0:
265,121,79602,1,0,0:0:0:0:
180,113,79684,1,0,0:0:0:0:
108,173,79765,1,0,0:0:0:0:
