osu file format v14

[General]
AudioFilename: audio2.mp3
AudioLeadIn: 0
PreviewTime: 221146
Countdown: 0
SampleSet: Normal
StackLeniency: 0.2
Mode: 0
LetterboxInBreaks: 0
WidescreenStoryboard: 1

[Editor]
DistanceSpacing: 0.8
BeatDivisor: 4
GridSize: 4
TimelineZoom: 1.2

[Metadata]
Title:Black Pentagram
TitleUnicode:Black Pentagram
Artist:Unlucky Morpheus
ArtistUnicode:Unlucky Morpheus
Creator:Painketsu
Version:Ketsu |AR10|
Source:
Tags:doujin symphonic metal C91
BeatmapID:1358171
BeatmapSetID:640387

[Difficulty]
HPDrainRate:2.5
CircleSize:4
OverallDifficulty:9
ApproachRate:10
SliderMultiplier:1.9
SliderTickRate:1

[Events]
//Background and Video events
0,0,"42489645_p0.jpg",0,0
//Break Periods
//Storyboard Layer 0 (Background)
//Storyboard Layer 1 (Fail)
//Storyboard Layer 2 (Pass)
//Storyboard Layer 3 (Foreground)
//Storyboard Sound Samples

[TimingPoints]
541,322.58064516129,4,1,0,70,1,0
3121,-80,4,1,0,70,0,0
24089,-133.333333333333,4,2,0,45,0,0
26347,-100,4,2,0,45,0,0
26670,-133.333333333333,4,2,0,45,0,0
27960,-100,4,1,0,65,0,0
28928,-80,4,1,0,65,0,0
49573,-66.6666666666667,4,1,0,65,0,0
52153,-80,4,1,0,65,0,0
54734,-66.6666666666667,4,1,0,65,0,0
59895,-80,4,1,0,65,0,1
79250,-66.6666666666667,4,1,0,65,0,1
80540,-66.6666666666667,4,1,0,65,0,0
80863,-80,4,1,0,65,0,0
101670,-100,4,1,0,65,0,0
102476,-66.6666666666667,4,1,0,65,0,0
105702,-100,4,1,0,65,0,0
106347,-80,4,1,0,65,0,0
106992,-133.333333333333,4,1,0,65,0,0
107637,-66.6666666666667,4,1,0,65,0,0
110863,-80,4,1,0,65,0,0
112799,-80,4,1,0,65,0,1
132153,-66.6666666666667,4,1,0,65,0,1
133444,-66.6666666666667,4,1,0,65,0,0
133605,-71.4285714285714,4,1,0,65,0,0
133766,-76.9230769230769,4,1,0,65,0,0
133928,-80,4,1,0,65,0,0
154089,-133.333333333333,4,1,0,65,0,0
161831,-86.9565217391304,4,1,0,65,0,0
181508,-74.0740740740741,4,1,0,65,0,0
188928,-100,4,1,0,65,0,0
209573,-66.6666666666667,4,1,0,65,0,0
212799,-100,4,1,0,65,0,0
214734,-66.6666666666667,4,1,0,65,0,0
217315,-80,4,1,0,65,0,0
220702,-74.0740740740741,4,1,0,65,0,0
221186,-74.0740740740741,4,1,0,65,0,1
236670,-71.4285714285714,4,1,0,65,0,1
241831,-66.6666666666667,4,1,0,65,0,1
252153,-60.6060606060606,4,1,0,65,0,1
275379,-60.6060606060606,4,1,0,65,0,0

[Colours]
Combo1 : 138,138,138
Combo2 : 255,255,255

[HitObjects]
299,123,541,5,0,0:0:0:0:
184,248,702,1,0,0:0:0:0:
184,248,782,1,0,0:0:0:0:
184,248,863,2,0,P|168:200|176:168,1,47.5
290,32,1024,2,0,P|306:80|285:146,1,95
301,276,1347,2,0,P|353:257|383:199,1,95
409,59,1670,1,0,0:0:0:0:
409,59,1750,1,0,0:0:0:0:
409,59,1831,1,0,0:0:0:0:
370,357,1992,5,0,0:0:0:0:
303,182,2153,1,0,0:0:0:0:
434,259,2315,1,0,0:0:0:0:
297,66,2476,1,0,0:0:0:0:
128,191,2637,1,0,0:0:0:0:
452,127,2799,1,0,0:0:0:0:
433,141,2879,1,0,0:0:0:0:
411,151,2960,5,0,0:0:0:0:
388,155,3040,1,0,0:0:0:0:
363,153,3121,2,0,P|323:138|280:147,1,59.375
102,228,3282,1,0,0:0:0:0:
322,221,3444,1,0,0:0:0:0:
124,34,3605,2,0,P|111:94|117:120,1,59.375
183,293,3766,5,0,0:0:0:0:
201,89,3928,1,0,0:0:0:0:
93,359,4089,1,0,0:0:0:0:
264,161,4250,2,0,P|290:94|275:63,1,59.375
128,261,4411,2,0,P|161:290|225:294,1,59.375
491,235,4573,2,0,P|451:219|413:223,1,59.375
186,279,4734,1,0,0:0:0:0:
464,120,4895,1,0,0:0:0:0:
444,325,5057,1,0,0:0:0:0:
168,167,5218,6,0,P|157:117|170:80,1,59.375
325,293,5379,2,0,P|336:343|323:380,1,59.375
37,202,5540,2,0,P|26:152|39:115,1,59.375
368,182,5702,6,0,L|281:209,1,59.375
121,242,5863,1,0,0:0:0:0:
121,242,5944,1,0,0:0:0:0:
121,242,6024,1,0,0:0:0:0:
332,298,6186,2,0,P|380:290|412:257,1,59.375
481,113,6347,1,0,0:0:0:0:
405,297,6508,1,0,0:0:0:0:
267,37,6670,1,0,0:0:0:0:
414,189,6831,2,0,L|483:252,1,59.375
147,160,6992,5,0,0:0:0:0:
309,362,7153,2,0,P|329:323|324:277,1,59.375
237,78,7315,1,0,0:0:0:0:
198,290,7476,2,0,P|213:248|204:202,1,59.375
60,29,7637,1,0,0:0:0:0:
293,177,7799,2,0,P|336:161|358:129,1,59.375
38,215,7960,2,0,P|41:257|65:290,1,59.375
156,19,8121,2,0,P|124:9|69:19,1,59.375
192,364,8282,6,0,L|190:272,1,59.375
193,136,8444,1,0,0:0:0:0:
193,136,8524,1,0,0:0:0:0:
193,136,8605,1,0,0:0:0:0:
341,259,8766,2,0,P|384:268|430:251,1,59.375
508,122,8928,1,0,0:0:0:0:
348,362,9089,1,0,0:0:0:0:
377,169,9250,1,0,0:0:0:0:
482,322,9411,6,0,P|496:280|486:228,1,59.375
372,30,9573,1,0,0:0:0:0:
361,362,9734,2,0,P|375:311|362:265,1,59.375
179,142,9895,1,0,0:0:0:0:
282,324,10057,1,0,0:0:0:0:
282,324,10137,1,0,0:0:0:0:
282,324,10218,1,0,0:0:0:0:
287,121,10379,6,0,L|289:32,1,59.375
159,312,10540,2,0,L|157:371,1,59.375
50,132,10702,2,0,L|52:43,1,59.375
267,248,10863,2,0,B|284:255|284:255|340:238,1,59.375
494,165,11024,1,0,0:0:0:0:
494,165,11105,1,0,0:0:0:0:
494,165,11186,1,0,0:0:0:0:
261,152,11347,6,0,P|216:154|180:183,1,59.375
24,300,11508,1,0,0:0:0:0:
252,241,11670,1,0,0:0:0:0:
157,24,11831,1,0,0:0:0:0:
143,373,11992,2,0,P|162:324|134:234,1,118.75
83,112,12315,2,0,P|112:135|154:143,1,59.375
251,153,12476,1,0,0:0:0:0:
284,165,12557,1,0,0:0:0:0:
304,193,12637,1,0,0:0:0:0:
294,227,12718,5,0,0:0:0:0:
280,260,12799,1,0,0:0:0:0:
293,292,12879,1,0,0:0:0:0:
321,313,12960,5,0,0:0:0:0:
368,315,13040,1,0,0:0:0:0:
405,286,13121,2,0,P|424:244|406:187,1,59.375
330,67,13282,1,0,0:0:0:0:
330,67,13363,1,0,0:0:0:0:
330,67,13444,6,0,L|330:146,1,59.375
208,329,13605,1,0,0:0:0:0:
435,140,13766,1,0,0:0:0:0:
143,155,13928,2,0,B|97:151|69:176|69:176|23:106,1,118.75
289,273,14250,1,0,0:0:0:0:
132,250,14411,1,0,0:0:0:0:
225,80,14573,2,0,P|310:61|365:87,1,118.75
292,384,14895,2,0,P|275:312|298:260,1,118.75
452,114,15218,1,0,0:0:0:0:
452,114,15299,1,0,0:0:0:0:
452,114,15379,1,0,0:0:0:0:
166,194,15540,6,0,L|92:216,1,59.375
371,309,15702,2,0,P|378:278|364:218,1,59.375
142,46,15863,2,0,P|140:75|147:104,1,59.375
221,359,16024,6,0,B|230:292|230:292|231:260,1,59.375
237,174,16186,1,0,0:0:0:0:
237,174,16266,1,0,0:0:0:0:
237,174,16347,1,0,0:0:0:0:
432,203,16508,6,0,B|462:206|486:225|486:225|463:166|476:137,1,118.75
512,14,16831,1,0,0:0:0:0:
321,157,16992,1,0,0:0:0:0:
444,314,17153,2,0,P|457:271|416:189,1,118.75
206,262,17476,2,0,B|264:236|264:236|295:267|362:261,1,118.75
369,56,17799,2,0,P|321:119|329:176,1,118.75
372,384,18121,2,0,P|374:335|350:289,1,59.375
191,108,18282,2,0,P|186:137|191:166,1,59.375
258,384,18444,2,0,L|254:282,1,59.375
269,24,18605,6,0,L|271:163,1,118.75
325,223,18847,1,0,0:0:0:0:
325,223,18928,1,0,0:0:0:0:
444,335,19089,2,0,P|473:268|451:199,1,118.75
326,35,19411,1,0,0:0:0:0:
308,79,19492,1,0,0:0:0:0:
310,126,19573,1,0,0:0:0:0:
329,169,19653,1,0,0:0:0:0:
353,209,19734,6,0,P|367:259|286:277,1,118.75
123,94,20057,2,0,B|169:68|169:68|198:98|271:84,1,118.75
484,107,20379,1,0,0:0:0:0:
227,3,20540,1,0,0:0:0:0:
166,175,20702,2,0,P|166:223|184:253,1,59.375
360,284,20863,2,0,P|323:273|279:287,1,59.375
103,384,21024,2,0,P|171:341|175:322,1,59.375
280,44,21186,6,0,L|272:192,1,118.75
299,295,21428,1,0,0:0:0:0:
299,295,21508,1,0,0:0:0:0:
374,106,21670,6,0,B|397:41|397:41|405:84|446:106,1,118.75
487,283,21992,1,0,0:0:0:0:
480,34,22153,1,0,0:0:0:0:
219,263,22315,6,0,P|134:277|89:249,1,118.75
375,44,22637,2,0,P|398:89|397:144,1,59.375
368,257,22799,1,0,0:0:0:0:
368,257,22879,1,0,0:0:0:0:
368,257,22960,2,0,P|340:222|346:177,1,59.375
421,14,23121,1,0,0:0:0:0:
353,344,23282,5,0,0:0:0:0:
445,142,23444,1,0,0:0:0:0:
164,384,23605,1,0,0:0:0:0:
181,6,23766,1,0,0:0:0:0:
188,33,24089,5,0,0:0:0:0:
251,118,24250,2,0,L|311:194,1,71.2500027179719
171,76,24573,5,0,0:0:0:0:
234,161,24734,2,0,L|294:237,1,71.2500027179719
156,121,25057,5,0,0:0:0:0:
219,206,25218,2,0,L|279:282,1,71.2500027179719
143,165,25540,5,0,0:0:0:0:
206,250,25701,2,0,L|266:326,1,71.2500027179719
82,233,26024,2,0,L|142:309,1,71.2500027179719
323,376,26347,6,0,B|339:349|339:349|337:264,1,95
332,146,26670,1,0,0:0:0:0:
421,234,26831,2,0,L|497:304,1,71.2500027179719
371,60,27153,1,0,0:0:0:0:
290,187,27315,2,0,L|254:241,1,35.625001358986
201,313,27476,1,0,0:0:0:0:
479,181,27637,5,0,0:0:0:0:
467,194,27718,1,0,0:0:0:0:
454,207,27799,1,0,0:0:0:0:
441,219,27879,1,0,0:0:0:0:
424,236,27960,2,0,L|329:318,1,95
59,121,28282,2,0,L|154:203,1,95
476,0,28605,2,0,L|381:82,1,95
320,172,28847,5,0,0:0:0:0:
320,172,28928,2,0,P|307:131|324:82,1,59.375
352,7,29089,1,0,0:0:0:0:
293,275,29250,1,0,0:0:0:0:
391,130,29411,1,0,0:0:0:0:
234,188,29573,2,0,P|194:192|139:167,1,59.375
63,104,29734,1,0,0:0:0:0:
275,101,29895,2,0,P|307:112|342:147,1,59.375
251,334,30057,6,0,P|247:282|267:245,1,59.375
275,101,30218,1,0,0:0:0:0:
367,255,30379,2,0,L|417:319,1,59.375
465,200,30540,1,0,0:0:0:0:
247,278,30702,2,0,P|207:271|163:234,1,59.375
72,114,30863,1,0,0:0:0:0:
262,204,31024,1,0,0:0:0:0:
48,200,31186,1,0,0:0:0:0:
249,129,31347,1,0,0:0:0:0:
125,326,31508,6,0,P|113:252|148:184,1,118.75
230,36,31831,1,0,0:0:0:0:
201,270,31992,2,0,L|193:349,1,59.375
138,102,32153,1,0,0:0:0:0:
321,285,32315,5,0,0:0:0:0:
203,164,32476,1,0,0:0:0:0:
391,136,32637,1,0,0:0:0:0:
412,324,32799,2,0,P|412:256|351:200,1,118.75
123,188,33121,1,0,0:0:0:0:
325,308,33282,1,0,0:0:0:0:
237,60,33444,6,0,P|232:105|250:152,1,59.375
305,283,33605,1,0,0:0:0:0:
118,9,33766,2,0,P|115:54|140:101,1,59.375
195,275,33928,1,0,0:0:0:0:
1,29,34089,6,0,B|-4:70|-4:70|38:171,1,118.75
195,384,34411,2,0,P|209:312|174:245,1,118.75
60,201,34734,1,0,0:0:0:0:
125,327,34895,1,0,0:0:0:0:
170,113,35057,1,0,0:0:0:0:
170,113,35137,1,0,0:0:0:0:
170,113,35218,2,0,P|159:180|173:233,1,118.75
320,121,35540,2,0,L|350:70,1,59.375
466,152,35702,1,0,0:0:0:0:
401,284,35863,6,0,P|331:309|265:290,1,118.75
56,193,36186,2,0,P|149:157|212:178,1,118.75
340,209,36508,1,0,0:0:0:0:
122,281,36670,2,0,L|51:300,1,59.375
184,351,36831,1,0,0:0:0:0:
307,120,36992,1,0,0:0:0:0:
304,312,37153,2,0,L|304:398,1,59.375
216,224,37315,1,0,0:0:0:0:
447,111,37476,5,0,0:0:0:0:
231,197,37637,1,0,0:0:0:0:
345,27,37799,1,0,0:0:0:0:
235,327,37960,2,0,P|215:276|231:203,1,118.75
372,99,38282,1,0,0:0:0:0:
224,214,38444,2,0,P|157:208|96:145,1,118.75
62,39,38766,1,0,0:0:0:0:
283,108,38928,6,0,L|380:132,1,59.375
438,208,39089,1,0,0:0:0:0:
441,249,39170,1,0,0:0:0:0:
445,295,39250,2,0,L|449:376,1,59.375
305,256,39411,1,0,0:0:0:0:
465,106,39573,2,0,P|409:152|347:155,1,118.75
142,100,39895,1,0,0:0:0:0:
374,74,40057,1,0,0:0:0:0:
232,242,40218,5,0,0:0:0:0:
232,242,40299,1,0,0:0:0:0:
232,242,40379,2,0,P|223:192|232:157,1,59.375
261,56,40540,1,0,0:0:0:0:
313,231,40702,2,0,L|354:349,1,118.75
168,92,41024,2,0,P|132:142|131:204,1,118.75
215,349,41347,5,0,0:0:0:0:
227,184,41508,1,0,0:0:0:0:
227,184,41589,1,0,0:0:0:0:
227,184,41670,2,0,P|237:228|258:252,1,59.375
339,341,41831,2,0,P|362:278|339:215,1,118.75
173,81,42153,1,0,0:0:0:0:
369,227,42315,2,0,B|425:267|425:267|408:232|409:197,1,118.75
436,70,42637,5,0,0:0:0:0:
492,219,42799,1,0,0:0:0:0:
492,219,42879,1,0,0:0:0:0:
492,219,42960,1,0,0:0:0:0:
320,98,43121,2,0,P|292:78|196:68,1,118.75
52,162,43444,1,0,0:0:0:0:
245,156,43605,1,0,0:0:0:0:
93,254,43766,6,0,L|18:299,1,59.375
280,302,43928,1,0,0:0:0:0:
106,127,44089,2,0,L|85:47,1,59.375
146,7,44250,1,0,0:0:0:0:
146,7,44331,1,0,0:0:0:0:
146,7,44411,2,0,B|178:36|178:36|223:16|291:54,1,118.75
435,187,44734,5,0,0:0:0:0:
198,120,44895,1,0,0:0:0:0:
449,63,45057,1,0,0:0:0:0:
323,275,45218,2,0,P|310:217|340:149,1,118.75
393,155,45460,1,0,0:0:0:0:
393,155,45540,2,0,P|332:161|265:112,1,118.75
66,89,45863,6,0,B|104:95|138:76|138:76|171:102|229:105,1,118.75
481,66,46186,2,0,P|422:56|361:72,1,118.75
102,312,46508,2,0,P|133:260|128:189,1,118.75
109,178,46750,1,0,0:0:0:0:
109,178,46831,1,0,0:0:0:0:
293,258,46992,2,0,L|381:291,1,59.375
470,311,47153,1,0,0:0:0:0:
253,112,47315,5,0,0:0:0:0:
240,384,47476,2,0,P|277:323|261:253,1,118.75
114,102,47799,1,0,0:0:0:0:
189,309,47960,1,0,0:0:0:0:
183,53,48121,1,0,0:0:0:0:
75,230,48282,5,0,0:0:0:0:
296,27,48444,1,0,0:0:0:0:
290,221,48605,1,0,0:0:0:0:
399,48,48766,1,0,0:0:0:0:
399,48,48847,1,0,0:0:0:0:
399,48,48928,1,0,0:0:0:0:
290,327,49089,5,0,0:0:0:0:
313,285,49170,1,0,0:0:0:0:
321,238,49250,1,0,0:0:0:0:
302,193,49331,1,0,0:0:0:0:
271,156,49411,1,0,0:0:0:0:
265,108,49492,1,0,0:0:0:0:
279,58,49573,6,0,B|308:75|308:75|251:110|244:225,1,142.500005435944
276,366,49895,2,0,P|300:318|298:256,1,71.2500027179719
362,135,50057,2,0,B|287:192|329:218|329:218|373:170|448:183,1,213.750008153916
473,249,50379,2,0,P|521:190|411:107,1,213.750008153916
362,135,50702,2,0,P|291:159|178:60,1,213.750008153916
389,263,51024,5,0,0:0:0:0:
298,65,51186,1,0,0:0:0:0:
11,241,51347,1,0,0:0:0:0:
193,105,51508,1,0,0:0:0:0:
152,373,51670,1,0,0:0:0:0:
156,0,51831,1,0,0:0:0:0:
156,0,52153,6,0,L|158:77,1,59.375
159,289,52315,1,0,0:0:0:0:
159,289,52395,1,0,0:0:0:0:
159,289,52476,2,0,P|174:231|158:172,1,118.75
74,117,52799,2,0,B|130:68|198:91|198:91|236:135|319:120,1,237.5
464,180,53444,5,0,0:0:0:0:
436,225,53524,1,0,0:0:0:0:
398,254,53605,1,0,0:0:0:0:
351,262,53686,1,0,0:0:0:0:
306,245,53766,1,0,0:0:0:0:
296,198,53847,1,0,0:0:0:0:
341,182,53928,1,0,0:0:0:0:
361,224,54008,1,0,0:0:0:0:
329,267,54089,2,0,B|262:281|213:221|239:218|168:278|78:236,1,237.5
370,25,54734,6,0,B|357:61|357:61|295:47|226:89|226:89,1,142.500005435944
182,299,55057,2,0,P|227:235|229:198,1,71.2500027179719
170,178,55218,2,0,P|265:219|321:124,1,213.750008153916
246,139,55540,2,0,B|251:247|251:247|342:236|335:123,1,213.750008153916
365,79,55863,2,0,L|362:317,1,213.750008153916
246,117,56186,5,0,0:0:0:0:
368,328,56347,1,0,0:0:0:0:
340,141,56508,1,0,0:0:0:0:
134,204,56670,1,0,0:0:0:0:
436,84,56831,1,0,0:0:0:0:
49,372,56992,1,0,0:0:0:0:
68,362,57315,6,0,L|121:299,1,71.2500027179719
394,138,57476,2,0,L|348:192,1,71.2500027179719
28,135,57637,2,0,L|73:80,1,71.2500027179719
422,330,57799,2,0,L|376:384,1,71.2500027179719
130,165,57960,2,0,P|201:124|299:155,1,142.500005435944
429,230,58282,6,0,P|353:264|325:258,1,71.2500027179719
91,252,58444,2,0,P|172:256|202:234,1,71.2500027179719
422,84,58605,1,0,0:0:0:0:
140,179,58766,1,0,0:0:0:0:
259,327,58928,5,0,0:0:0:0:
268,302,59008,1,0,0:0:0:0:
275,276,59089,1,0,0:0:0:0:
279,249,59169,1,0,0:0:0:0:
277,223,59250,1,0,0:0:0:0:
269,198,59331,5,0,0:0:0:0:
272,174,59411,1,0,0:0:0:0:
277,148,59492,1,0,0:0:0:0:
273,121,59573,2,0,B|263:84|263:84|265:22,1,71.2500027179719
371,278,59734,1,0,0:0:0:0:
371,278,59815,1,0,0:0:0:0:
371,278,59895,6,0,P|412:197|400:140,1,118.75
367,77,60137,1,0,0:0:0:0:
347,76,60218,1,0,0:0:0:0:
278,249,60379,2,0,B|255:328|255:328|233:201|134:196,1,237.5
17,217,60863,2,0,P|58:222|107:188,1,59.375
291,100,61024,1,0,0:0:0:0:
32,137,61186,1,0,0:0:0:0:
132,384,61347,6,0,P|163:333|156:277,1,118.75
78,200,61589,1,0,0:0:0:0:
78,200,61670,1,0,0:0:0:0:
292,94,61831,2,0,P|344:78|397:89,1,59.375
301,339,61992,2,0,P|254:349|206:330,1,59.375
79,277,62153,1,0,0:0:0:0:
355,209,62315,5,0,0:0:0:0:
355,209,62395,1,0,0:0:0:0:
355,209,62476,2,0,B|319:225|303:255|303:255|256:242|242:194,1,118.75
181,131,62718,1,0,0:0:0:0:
181,131,62799,2,0,L|186:221,1,59.375
184,358,62960,1,0,0:0:0:0:
293,77,63121,1,0,0:0:0:0:
92,249,63282,2,0,L|29:309,1,59.375
214,335,63444,6,0,P|244:252|224:195,1,118.75
79,61,63766,2,0,B|158:92|200:55|200:55|250:80|290:66,1,178.125
326,33,64089,2,0,P|332:68|316:116,1,59.375
207,298,64250,1,0,0:0:0:0:
421,152,64411,2,0,P|361:194|295:195,1,118.75
31,126,64734,1,0,0:0:0:0:
81,107,64815,1,0,0:0:0:0:
133,105,64895,1,0,0:0:0:0:
183,124,64976,1,0,0:0:0:0:
225,157,65057,6,0,B|259:184|259:184|299:145|351:145,1,118.75
462,198,65299,1,0,0:0:0:0:
462,198,65379,1,0,0:0:0:0:
320,374,65540,2,0,P|308:307|338:240,1,118.75
434,60,65863,1,0,0:0:0:0:
237,268,66024,2,0,P|175:293|143:284,1,59.375
22,245,66186,1,0,0:0:0:0:
385,197,66347,1,0,0:0:0:0:
97,321,66508,6,0,P|99:272|161:216,1,118.75
277,200,66750,1,0,0:0:0:0:
277,200,66831,1,0,0:0:0:0:
85,162,66992,2,0,P|81:116|108:71,1,59.375
340,293,67153,2,0,P|347:345|333:372,1,59.375
172,38,67315,2,0,P|243:9|318:39,1,118.75
208,367,67637,2,0,B|196:326|196:326|223:278|223:217,1,118.75
168,150,67879,5,0,0:0:0:0:
168,150,67960,2,0,P|205:132|243:139,1,59.375
367,222,68121,1,0,0:0:0:0:
50,147,68282,1,0,0:0:0:0:
404,106,68444,1,0,0:0:0:0:
112,335,68605,6,0,P|148:309|171:255,1,59.375
268,92,68766,1,0,0:0:0:0:
340,184,68847,1,0,0:0:0:0:
457,186,68928,2,0,P|486:164|505:110,1,59.375
456,32,69089,1,0,0:0:0:0:
402,27,69170,1,0,0:0:0:0:
358,57,69250,2,0,P|317:84|267:83,1,59.375
140,151,69411,5,0,0:0:0:0:
121,106,69492,1,0,0:0:0:0:
96,64,69573,2,0,L|94:133,1,59.375
210,361,69734,2,0,P|226:311|230:269,1,59.375
258,30,69895,1,0,0:0:0:0:
238,92,69976,1,0,0:0:0:0:
253,155,70057,1,0,0:0:0:0:
301,198,70137,1,0,0:0:0:0:
319,260,70218,6,0,B|322:340|322:340|355:250|428:241,1,178.125
478,254,70540,1,0,0:0:0:0:
478,254,70621,1,0,0:0:0:0:
478,254,70702,2,0,P|433:186|366:177,1,118.75
140,176,71024,1,0,0:0:0:0:
339,352,71186,2,0,P|364:303|360:251,1,59.375
291,46,71347,1,0,0:0:0:0:
171,346,71508,1,0,0:0:0:0:
353,141,71670,2,0,P|377:84|361:22,1,118.75
92,282,71992,5,0,0:0:0:0:
411,172,72153,2,0,P|358:140|329:141,1,59.375
73,359,72315,2,0,P|160:332|169:320,1,59.375
346,225,72476,1,0,0:0:0:0:
346,225,72557,1,0,0:0:0:0:
346,225,72637,2,0,P|300:211|271:186,1,59.375
321,44,72799,6,0,B|324:83|307:107|307:107|351:130|359:196,1,118.75
302,317,73040,1,0,0:0:0:0:
302,317,73121,2,0,P|286:258|294:226,1,59.375
454,67,73282,2,0,P|470:126|462:158,1,59.375
213,379,73444,2,0,P|191:310|219:223,1,118.75
349,11,73766,6,0,L|355:137,1,118.75
238,315,74008,1,0,0:0:0:0:
238,315,74089,2,0,P|217:244|229:183,1,118.75
312,195,74331,1,0,0:0:0:0:
348,165,74411,1,0,0:0:0:0:
361,119,74492,1,0,0:0:0:0:
345,73,74573,6,0,L|275:121,1,59.375
125,178,74734,1,0,0:0:0:0:
372,146,74895,1,0,0:0:0:0:
130,9,75057,1,0,0:0:0:0:
130,67,75137,1,0,0:0:0:0:
130,126,75218,1,0,0:0:0:0:
225,380,75379,6,0,B|223:337|247:310|247:310|229:264|241:237,1,118.75
287,143,75621,1,0,0:0:0:0:
287,143,75702,2,0,P|321:176|334:238,1,59.375
400,369,75863,2,0,B|375:317|375:317|411:289|410:207,1,118.75
374,67,76186,1,0,0:0:0:0:
190,266,76347,6,0,P|256:242|267:212,1,59.375
433,89,76508,1,0,0:0:0:0:
208,169,76670,1,0,0:0:0:0:
473,198,76831,2,0,P|398:174|340:195,1,118.75
254,293,77073,1,0,0:0:0:0:
254,293,77153,1,0,0:0:0:0:
289,14,77315,6,0,B|295:59|259:84|259:84|273:149,1,118.75
239,266,77557,1,0,0:0:0:0:
239,266,77637,2,0,P|220:208|234:172,1,59.375
472,130,77799,2,0,P|438:169|390:162,1,59.375
81,155,77960,2,0,P|117:129|182:123,1,59.375
297,128,78121,1,0,0:0:0:0:
348,158,78202,1,0,0:0:0:0:
370,205,78282,1,0,0:0:0:0:
363,258,78363,1,0,0:0:0:0:
322,293,78444,6,0,P|266:304|224:291,1,59.375
51,215,78605,1,0,0:0:0:0:
290,214,78766,2,0,L|384:214,1,59.375
442,313,78928,1,0,0:0:0:0:
442,254,79008,1,0,0:0:0:0:
444,194,79089,2,0,L|446:104,1,59.375
335,0,79250,6,0,B|286:53|340:87|340:87|316:152|344:226,1,213.750008153916
357,294,79573,2,0,P|393:264|408:204,1,71.2500027179719
149,242,79734,2,0,L|146:354,1,71.2500027179719
482,277,79895,2,0,P|488:230|464:175,1,71.2500027179719
61,188,80057,2,0,L|55:291,1,71.2500027179719
488,143,80218,5,0,0:0:0:0:
419,104,80299,1,0,0:0:0:0:
341,94,80379,1,0,0:0:0:0:
264,113,80460,1,0,0:0:0:0:
201,159,80540,2,0,B|180:176|166:195|166:195|125:217|125:217|109:243|86:263,1,142.500005435944
218,332,80863,5,0,0:0:0:0:
223,330,80944,1,0,0:0:0:0:
227,325,81024,1,0,0:0:0:0:
229,319,81105,1,0,0:0:0:0:
228,313,81186,1,0,0:0:0:0:
223,309,81266,1,0,0:0:0:0:
217,307,81347,1,0,0:0:0:0:
211,304,81428,1,0,0:0:0:0:
207,299,81508,5,0,0:0:0:0:
179,267,81589,1,0,0:0:0:0:
179,225,81670,1,0,0:0:0:0:
199,189,81750,1,0,0:0:0:0:
236,171,81831,2,0,B|280:153|280:153|316:177|376:168,1,118.75
499,124,82153,5,0,0:0:0:0:
319,37,82315,2,0,L|338:111,1,59.375
387,262,82476,1,0,0:0:0:0:
420,82,82637,1,0,0:0:0:0:
420,82,82718,1,0,0:0:0:0:
420,82,82799,1,0,0:0:0:0:
308,327,82960,2,0,P|292:253|317:192,1,118.75
450,86,83282,6,0,P|451:129|433:160,1,59.375
373,263,83444,1,0,0:0:0:0:
345,2,83605,2,0,P|346:45|328:76,1,59.375
250,191,83767,1,0,0:0:0:0:
135,43,83928,2,0,P|199:22|259:32,1,118.75
396,99,84250,1,0,0:0:0:0:
162,127,84411,2,0,B|120:133|79:115|79:115|135:144,1,118.75
332,219,84734,5,0,0:0:0:0:
173,250,84895,2,0,P|212:316|273:333,1,118.75
475,170,85218,1,0,0:0:0:0:
359,354,85379,1,0,0:0:0:0:
359,354,85460,1,0,0:0:0:0:
359,354,85540,1,0,0:0:0:0:
289,167,85702,6,0,P|270:244|282:274,1,59.375
425,99,85863,2,0,B|435:29|435:29|389:80,1,118.75
156,196,86186,1,0,0:0:0:0:
393,206,86347,2,0,P|472:182|500:135,1,118.75
395,104,86589,1,0,0:0:0:0:
395,104,86670,2,0,P|322:103|294:102,1,59.375
126,100,86831,1,0,0:0:0:0:
238,230,86992,2,0,B|286:274|286:274|269:215|289:203,1,118.75
322,0,87315,6,0,P|338:53|328:118,1,118.75
228,259,87637,1,0,0:0:0:0:
247,75,87799,1,0,0:0:0:0:
339,277,87960,1,0,0:0:0:0:
339,277,88040,1,0,0:0:0:0:
339,277,88121,2,0,P|328:206|354:154,1,118.75
390,2,88444,6,0,B|375:39|375:39|324:24|249:66,1,118.75
131,253,88766,1,0,0:0:0:0:
464,171,88928,2,0,P|395:146|363:154,1,59.375
237,164,89089,1,0,0:0:0:0:
367,295,89250,1,0,0:0:0:0:
367,295,89331,1,0,0:0:0:0:
367,295,89411,1,0,0:0:0:0:
252,51,89573,6,0,P|235:160|257:199,1,118.75
407,354,89895,1,0,0:0:0:0:
335,173,90057,2,0,L|291:97,1,59.375
117,70,90218,1,0,0:0:0:0:
310,116,90379,1,0,0:0:0:0:
97,223,90540,1,0,0:0:0:0:
97,223,90621,1,0,0:0:0:0:
97,223,90702,1,0,0:0:0:0:
327,212,90863,2,0,P|376:181|394:124,1,118.75
393,8,91186,5,0,0:0:0:0:
502,186,91347,1,0,0:0:0:0:
502,186,91428,1,0,0:0:0:0:
502,186,91508,2,0,L|502:97,1,59.375
357,282,91670,1,0,0:0:0:0:
236,121,91831,2,0,L|204:50,1,59.375
140,197,91992,1,0,0:0:0:0:
139,250,92073,1,0,0:0:0:0:
139,303,92153,2,0,B|138:387|138:387|157:339|185:339,1,118.75
331,107,92476,5,0,0:0:0:0:
229,302,92637,2,0,P|216:223|231:193,1,59.375
227,108,92799,1,0,0:0:0:0:
387,229,92960,1,0,0:0:0:0:
387,229,93040,1,0,0:0:0:0:
387,229,93121,1,0,0:0:0:0:
342,0,93282,6,0,P|327:69|338:109,1,59.375
350,223,93444,1,0,0:0:0:0:
195,118,93605,2,0,P|254:164|268:161,1,59.375
436,168,93766,1,0,0:0:0:0:
218,37,93928,2,0,P|156:34|116:74,1,118.75
97,277,94250,1,0,0:0:0:0:
198,123,94411,1,0,0:0:0:0:
198,123,94492,1,0,0:0:0:0:
198,123,94573,2,0,L|204:208,1,59.375
287,281,94734,6,0,P|320:196|308:144,1,118.75
228,15,95057,1,0,0:0:0:0:
413,228,95218,2,0,B|413:202|414:166|414:166|397:126|376:84,1,118.75
315,3,95540,1,0,0:0:0:0:
494,206,95702,1,0,0:0:0:0:
156,73,95863,1,0,0:0:0:0:
411,216,96024,2,0,P|323:235|258:193,1,118.75
102,125,96347,5,0,0:0:0:0:
352,156,96508,1,0,0:0:0:0:
299,167,96589,1,0,0:0:0:0:
245,174,96670,1,0,0:0:0:0:
29,191,96831,1,0,0:0:0:0:
330,316,96992,1,0,0:0:0:0:
135,12,97153,2,0,L|137:109,1,59.375
144,340,97315,1,0,0:0:0:0:
189,141,97476,5,0,0:0:0:0:
295,272,97637,2,0,B|332:216|312:146,1,118.75
172,16,97960,1,0,0:0:0:0:
419,161,98121,1,0,0:0:0:0:
210,180,98282,1,0,0:0:0:0:
210,180,98363,1,0,0:0:0:0:
210,180,98444,2,0,P|191:103|207:58,1,118.75
336,311,98766,2,0,P|268:343|172:323,1,118.75
300,111,99089,2,0,B|395:100|395:100|363:129,1,118.75
249,251,99411,5,0,0:0:0:0:
457,42,99573,1,0,0:0:0:0:
457,42,99653,1,0,0:0:0:0:
457,42,99734,1,0,0:0:0:0:
394,284,99895,6,0,P|377:206|393:153,1,118.75
484,91,100137,1,0,0:0:0:0:
484,91,100218,2,0,P|455:102|406:93,1,59.375
184,55,100379,6,0,B|261:41|261:41|282:62|348:78,1,118.75
285,174,100621,1,0,0:0:0:0:
285,174,100702,2,0,P|274:223|251:248,1,59.375
133,354,100863,2,0,P|125:305|140:269,1,59.375
356,94,101024,2,0,P|381:159|380:195,1,59.375
32,269,101186,2,0,P|65:212|123:196,1,118.75
213,231,101428,5,0,0:0:0:0:
213,231,101508,1,0,0:0:0:0:
76,63,101670,2,0,L|93:131,1,47.5
143,292,101831,1,0,0:0:0:0:
199,88,101992,1,0,0:0:0:0:
286,340,102153,5,0,0:0:0:0:
310,316,102234,1,0,0:0:0:0:
324,286,102315,1,0,0:0:0:0:
325,253,102395,1,0,0:0:0:0:
310,222,102476,6,0,B|281:161|281:161|305:107|290:66,1,142.500005435944
127,202,102799,2,0,P|137:248|181:268,1,71.2500027179719
422,192,102960,2,0,B|292:159|251:195|251:195|316:205,1,213.750008153916
389,304,103282,2,0,P|305:300|268:153,1,213.750008153916
337,63,103605,2,0,B|364:138|341:220|341:220|335:178|317:150,1,213.750008153916
122,77,103928,5,0,0:0:0:0:
342,220,104089,1,0,0:0:0:0:
226,83,104250,1,0,0:0:0:0:
479,288,104411,1,0,0:0:0:0:
81,322,104573,1,0,0:0:0:0:
512,194,104734,1,0,0:0:0:0:
237,358,105057,5,0,0:0:0:0:
223,346,105137,1,0,0:0:0:0:
213,331,105218,1,0,0:0:0:0:
205,315,105298,1,0,0:0:0:0:
201,298,105379,1,0,0:0:0:0:
200,280,105460,1,0,0:0:0:0:
202,263,105540,1,0,0:0:0:0:
208,246,105621,1,0,0:0:0:0:
217,231,105702,6,0,B|247:160|247:160|290:211|231:297,1,190
92,108,106347,6,0,P|132:96|181:112,1,59.375
411,33,106508,2,2,P|371:21|322:37,1,59.375,0|0,0:0|0:0,0:0:0:0:
63,303,106670,2,2,P|92:303|120:292,1,59.375,0|0,0:0|0:0,0:0:0:0:
487,231,106831,2,2,P|457:231|429:220,1,59.375,0|0,0:0|0:0,0:0:0:0:
230,9,106992,6,0,L|228:228,1,213.750008153916
285,362,107637,6,0,P|332:309|319:194,1,142.500005435944
62,207,107960,2,0,P|121:233|164:219,1,71.2500027179719
297,118,108121,2,0,B|196:107|156:137|156:137|234:150|258:203,1,213.750008153916
114,298,108444,2,0,P|184:259|98:244,1,213.750008153916
31,189,108766,2,0,B|105:119|184:122|184:122|146:129|111:165,1,213.750008153916
49,295,109089,5,0,0:0:0:0:
391,167,109250,1,0,0:0:0:0:
196,206,109411,1,0,0:0:0:0:
273,314,109573,1,0,0:0:0:0:
179,4,109734,1,0,0:0:0:0:
168,384,109895,1,0,0:0:0:0:
268,20,110218,6,0,L|276:113,1,71.2500027179719
306,235,110379,1,0,0:0:0:0:
323,222,110460,1,0,0:0:0:0:
333,203,110540,1,0,0:0:0:0:
337,181,110621,1,0,0:0:0:0:
335,159,110702,1,0,0:0:0:0:
323,141,110782,1,0,0:0:0:0:
403,189,110863,6,0,L|488:278,1,118.75
229,304,111186,2,0,P|200:246|203:214,1,59.375
351,89,111347,2,0,P|341:116|322:140,1,59.375
112,192,111508,1,0,0:0:0:0:
124,144,111589,1,0,0:0:0:0:
154,102,111670,2,0,P|191:82|226:83,1,59.375
372,265,111831,6,0,P|333:282|297:275,1,59.375
87,293,111992,1,0,0:0:0:0:
122,270,112073,1,0,0:0:0:0:
161,258,112153,2,0,B|190:281|190:281|205:246,1,59.375
257,101,112315,5,0,0:0:0:0:
257,101,112395,1,0,0:0:0:0:
257,101,112476,2,0,L|263:206,1,59.375
84,383,112637,2,0,L|80:323,1,59.375
389,30,112799,6,0,B|392:72|362:96|362:96|398:113|330:155|388:235,1,178.125
406,275,113121,1,0,0:0:0:0:
445,262,113202,1,0,0:0:0:0:
471,230,113282,2,0,P|485:195|476:144,1,59.375
257,27,113444,1,0,0:0:0:0:
436,362,113605,1,0,0:0:0:0:
393,46,113766,2,0,P|369:107|381:190,1,118.75
444,250,114008,1,0,0:0:0:0:
444,250,114089,1,0,0:0:0:0:
265,89,114250,6,0,P|206:81|177:97,1,59.375
91,158,114411,1,0,0:0:0:0:
127,177,114492,1,0,0:0:0:0:
168,180,114573,1,0,0:0:0:0:
206,165,114653,1,0,0:0:0:0:
294,106,114734,2,0,P|353:88|392:96,1,59.375
311,323,114895,2,0,P|242:331|210:310,1,59.375
76,226,115057,1,0,0:0:0:0:
446,215,115218,2,0,P|380:234|351:230,1,59.375
168,228,115379,6,0,B|234:191|288:208|288:208|307:178|352:166,1,178.125
457,180,115702,1,0,0:0:0:0:
438,216,115782,1,0,0:0:0:0:
400,235,115863,1,0,0:0:0:0:
346,235,115944,1,0,0:0:0:0:
281,227,116024,2,0,P|219:235|195:269,1,59.375
86,341,116186,1,0,0:0:0:0:
213,211,116347,2,0,P|234:136|200:62,1,118.75
0,92,116670,2,0,P|78:148|148:133,1,118.75
216,100,116911,5,0,0:0:0:0:
216,100,116992,2,0,L|215:185,1,59.375
322,313,117153,1,0,0:0:0:0:
322,313,117234,1,0,0:0:0:0:
322,313,117315,2,0,L|323:245,1,59.375
394,100,117476,1,0,0:0:0:0:
357,146,117557,1,0,0:0:0:0:
300,161,117637,5,0,0:0:0:0:
332,210,117718,1,0,0:0:0:0:
339,269,117799,1,0,0:0:0:0:
308,319,117879,1,0,0:0:0:0:
252,354,117960,6,0,B|249:329|268:310|268:310|222:243|242:196,1,118.75
252,152,118202,1,0,0:0:0:0:
252,152,118282,1,0,0:0:0:0:
142,323,118444,2,0,P|130:245|143:228,1,59.375
195,59,118605,1,0,0:0:0:0:
220,259,118766,5,0,0:0:0:0:
220,259,118847,1,0,0:0:0:0:
220,259,118928,2,0,P|230:191|186:125,1,118.75
72,89,119170,1,0,0:0:0:0:
72,89,119250,1,0,0:0:0:0:
211,154,119411,2,0,P|305:170|346:151,1,118.75
406,128,119653,1,0,0:0:0:0:
472,71,119734,1,0,0:0:0:0:
434,266,119895,6,0,B|393:262|393:262|396:312|332:343,1,118.75
224,339,120137,1,0,0:0:0:0:
224,339,120218,2,0,P|253:279|244:255,1,59.375
128,61,120379,2,0,P|125:139|135:160,1,59.375
344,322,120540,2,0,P|345:263|228:200,1,178.125
101,252,120863,6,0,P|160:262|189:246,1,59.375
460,179,121024,1,0,0:0:0:0:
136,172,121186,1,0,0:0:0:0:
454,311,121347,2,0,L|425:254,1,59.375
253,46,121508,6,0,P|227:110|235:143,1,59.375
284,384,121670,2,0,P|334:346|333:313,1,59.375
48,132,121831,2,0,P|78:210|102:224,1,59.375
484,102,121992,2,0,P|474:44|437:14,1,59.375
174,300,122153,5,0,0:0:0:0:
229,265,122234,1,0,0:0:0:0:
261,207,122315,1,0,0:0:0:0:
264,142,122395,1,0,0:0:0:0:
237,81,122476,2,0,P|208:49|151:35,1,59.375
404,318,122637,5,0,0:0:0:0:
434,259,122718,1,0,0:0:0:0:
428,193,122799,2,0,P|414:148|383:116,1,59.375
11,327,122960,2,0,P|28:392|38:400,1,59.375
459,60,123121,2,0,P|375:39|319:66,1,118.75
179,173,123363,1,0,0:0:0:0:
179,173,123444,1,0,0:0:0:0:
254,0,123605,6,0,P|238:63|263:118,1,118.75
472,319,123928,1,0,0:0:0:0:
424,40,124089,2,0,P|409:100|416:117,1,59.375
478,263,124250,1,0,0:0:0:0:
478,263,124331,1,0,0:0:0:0:
478,263,124411,2,0,L|481:174,1,59.375
39,172,124573,2,0,P|122:208|208:177,1,178.125
340,171,124895,5,0,0:0:0:0:
381,120,124976,1,0,0:0:0:0:
374,54,125057,2,0,P|319:103|290:106,1,59.375
97,99,125218,2,0,P|157:67|189:71,1,59.375
464,183,125379,2,0,P|409:210|364:208,1,59.375
25,183,125540,1,0,0:0:0:0:
512,59,125702,2,0,L|437:122,1,59.375
181,296,125863,5,0,0:0:0:0:
405,26,126024,1,0,0:0:0:0:
405,26,126105,1,0,0:0:0:0:
405,26,126186,1,0,0:0:0:0:
83,74,126347,1,0,0:0:0:0:
346,315,126508,1,0,0:0:0:0:
194,5,126670,2,0,P|192:90|210:115,1,118.75
377,206,126911,1,0,0:0:0:0:
377,206,126992,2,0,P|376:126|338:83,1,118.75
16,148,127315,5,0,0:0:0:0:
58,169,127395,1,0,0:0:0:0:
103,184,127476,1,0,0:0:0:0:
307,254,127637,1,0,0:0:0:0:
87,73,127799,1,0,0:0:0:0:
171,333,127960,1,0,0:0:0:0:
204,291,128040,1,0,0:0:0:0:
217,238,128121,1,0,0:0:0:0:
205,185,128202,1,0,0:0:0:0:
121,150,128282,6,0,P|86:85|89:51,1,59.375
394,215,128444,1,0,0:0:0:0:
174,57,128605,1,0,0:0:0:0:
183,109,128686,1,0,0:0:0:0:
207,199,128766,2,0,L|235:292,1,59.375
412,49,128928,1,0,0:0:0:0:
42,272,129089,1,0,0:0:0:0:
310,348,129250,2,0,P|350:281|350:240,1,118.75
280,137,129492,5,0,0:0:0:0:
280,137,129573,1,0,0:0:0:0:
179,319,129734,2,0,P|212:267|212:242,1,59.375
193,79,129895,1,0,0:0:0:0:
174,129,129976,1,0,0:0:0:0:
173,182,130057,1,0,0:0:0:0:
430,354,130218,6,0,P|448:314|452:277,1,59.375
92,42,130379,2,0,P|78:100|90:134,1,59.375
493,115,130540,2,0,P|426:89|378:100,1,118.75
76,348,130863,1,0,0:0:0:0:
140,334,130944,1,0,0:0:0:0:
189,292,131024,1,0,0:0:0:0:
221,235,131105,1,0,0:0:0:0:
235,170,131186,2,0,P|234:125|205:71,1,59.375
327,303,131347,2,0,P|333:331|331:361,1,59.375
441,92,131508,2,0,P|440:47|411:-7,1,59.375
492,261,131670,5,0,0:0:0:0:
437,295,131750,1,0,0:0:0:0:
372,282,131831,1,0,0:0:0:0:
327,235,131911,1,0,0:0:0:0:
264,213,131992,1,0,0:0:0:0:
201,233,132073,1,0,0:0:0:0:
129,278,132153,6,0,B|89:242|89:242|152:198|132:116,1,142.500005435944
76,60,132395,1,0,0:0:0:0:
56,164,132476,2,0,P|109:225|174:233,1,142.500005435944
325,184,132718,1,0,0:0:0:0:
238,146,132799,2,0,P|238:217|279:274,1,142.500005435944
413,318,133040,1,0,0:0:0:0:
447,190,133121,2,0,L|426:121,1,71.2500027179719
163,68,133282,2,0,L|142:0,1,71.2500027179719
66,294,133444,6,0,L|84:362,1,71.2500027179719
216,384,133605,2,0,L|197:321,1,66.4999979705811
293,228,133766,2,0,L|311:292,1,61.7499971733095
441,344,133928,2,0,L|390:179,1,118.75
352,50,134250,6,0,L|297:94,1,59.375
123,208,134411,1,0,0:0:0:0:
451,140,134573,2,0,P|404:163|373:156,1,59.375
166,100,134734,1,0,0:0:0:0:
265,290,134895,2,0,P|293:230|286:198,1,59.375
207,2,135057,1,0,0:0:0:0:
196,53,135137,1,0,0:0:0:0:
195,106,135218,1,0,0:0:0:0:
215,155,135299,1,0,0:0:0:0:
256,188,135379,6,0,P|302:202|345:192,1,59.375
477,104,135540,2,0,P|431:90|388:100,1,59.375
97,232,135702,2,0,P|143:246|186:236,1,59.375
276,80,135863,2,0,P|248:68|219:66,1,59.375
277,293,136024,6,0,L|353:293,1,59.375
460,283,136186,1,0,0:0:0:0:
460,283,136266,1,0,0:0:0:0:
460,283,136347,1,0,0:0:0:0:
262,204,136508,2,0,P|238:145|253:112,1,59.375
316,20,136670,6,0,L|318:96,1,59.375
347,321,136831,1,0,0:0:0:0:
348,285,136911,1,0,0:0:0:0:
353,249,136992,1,0,0:0:0:0:
357,213,137073,1,0,0:0:0:0:
309,212,137153,2,0,P|302:175|317:115,1,59.375
333,29,137315,1,0,0:0:0:0:
377,13,137395,1,0,0:0:0:0:
427,34,137476,2,0,P|374:72|341:59,1,59.375
152,91,137637,5,0,0:0:0:0:
116,123,137718,1,0,0:0:0:0:
111,176,137799,2,0,P|136:210|178:225,1,59.375
480,227,137960,2,0,L|377:225,1,59.375
139,329,138121,6,0,P|201:320|237:293,1,59.375
295,24,138282,2,0,P|240:56|236:86,1,59.375
319,373,138444,2,0,P|334:313|322:270,1,59.375
136,113,138605,5,0,0:0:0:0:
322,217,138766,1,0,0:0:0:0:
322,217,138847,1,0,0:0:0:0:
322,217,138928,2,0,P|283:186|243:185,1,59.375
120,137,139089,6,0,P|110:203|140:287,1,118.75
229,307,139331,1,0,0:0:0:0:
229,307,139411,1,0,0:0:0:0:
244,68,139573,2,0,P|281:125|304:131,1,59.375
464,220,139734,2,0,P|433:158|392:148,1,59.375
291,109,139895,1,0,0:0:0:0:
315,359,140057,2,0,P|343:298|340:268,1,59.375
321,79,140218,1,0,0:0:0:0:
172,234,140379,5,0,0:0:0:0:
224,220,140460,1,0,0:0:0:0:
256,177,140540,2,0,B|269:148|269:148|260:73,1,59.375
58,42,140702,2,0,P|104:94|113:99,1,59.375
405,192,140863,2,0,P|359:140|350:135,1,59.375
30,205,141024,2,0,P|76:257|85:262,1,59.375
403,320,141186,2,0,P|387:294|308:266,1,118.75
115,348,141428,1,0,0:0:0:0:
115,348,141508,1,0,0:0:0:0:
307,266,141670,6,0,P|329:197|291:118,1,118.75
218,58,141911,1,0,0:0:0:0:
218,58,141992,1,0,0:0:0:0:
180,221,142153,2,0,L|150:329,1,59.375
384,133,142315,5,0,0:0:0:0:
408,73,142395,1,0,0:0:0:0:
427,10,142476,1,0,0:0:0:0:
315,226,142637,5,0,0:0:0:0:
366,239,142718,1,0,0:0:0:0:
417,252,142799,1,0,0:0:0:0:
207,125,142960,5,0,0:0:0:0:
153,101,143040,1,0,0:0:0:0:
96,85,143121,1,0,0:0:0:0:
464,181,143282,6,0,P|417:146|385:151,1,59.375
44,255,143444,2,0,P|119:232|145:238,1,59.375
445,331,143605,2,0,P|378:300|362:264,1,59.375
160,46,143766,6,0,L|200:140,1,79.1666666666667
256,152,143981,1,0,0:0:0:0:
256,200,144089,1,0,0:0:0:0:
221,220,144196,5,0,0:0:0:0:
225,258,144304,1,0,0:0:0:0:
274,258,144411,1,0,0:0:0:0:
322,217,144519,5,0,0:0:0:0:
331,154,144627,1,0,0:0:0:0:
364,207,144734,1,0,0:0:0:0:
380,145,144842,5,0,0:0:0:0:
427,186,144949,1,0,0:0:0:0:
443,124,145057,2,0,B|458:60|458:60|407:88|404:88,1,79.1666666666667
292,128,145272,5,0,0:0:0:0:
349,153,145379,1,0,0:0:0:0:
412,145,145487,1,0,0:0:0:0:
369,98,145594,5,0,0:0:0:0:
316,134,145702,1,0,0:0:0:0:
305,196,145809,1,0,0:0:0:0:
375,233,145917,5,0,0:0:0:0:
314,182,146024,1,0,0:0:0:0:
236,197,146132,1,0,0:0:0:0:
191,271,146239,1,0,0:0:0:0:
306,315,146347,6,0,B|361:328|361:328|329:298,1,79.1666666666667
240,243,146562,1,0,0:0:0:0:
256,252,146670,1,0,0:0:0:0:
237,264,146777,5,0,0:0:0:0:
259,229,146885,1,0,0:0:0:0:
266,263,146992,1,0,0:0:0:0:
233,236,147100,5,0,0:0:0:0:
155,250,147207,1,0,0:0:0:0:
91,283,147315,1,0,0:0:0:0:
126,221,147422,5,0,0:0:0:0:
193,195,147530,1,0,0:0:0:0:
262,209,147637,2,0,B|321:225|321:225|289:196,1,79.1666666666667
256,153,147852,5,0,0:0:0:0:
220,92,147960,1,0,0:0:0:0:
263,55,148067,5,0,0:0:0:0:
275,116,148175,1,0,0:0:0:0:
329,102,148282,1,0,0:0:0:0:
334,165,148390,5,0,0:0:0:0:
373,116,148497,1,0,0:0:0:0:
380,216,148605,2,0,B|392:265|392:265|420:204|358:170,1,158.333333333333
246,247,148928,6,0,B|199:284|199:284|218:246,1,79.1666666666667
211,162,149143,1,0,0:0:0:0:
140,160,149250,1,0,0:0:0:0:
194,234,149358,5,0,0:0:0:0:
179,152,149465,1,0,0:0:0:0:
127,245,149573,2,0,L|77:342,1,79.1666666666667
210,288,149788,5,0,0:0:0:0:
267,247,149895,1,0,0:0:0:0:
269,175,150003,1,0,0:0:0:0:
209,213,150110,1,0,0:0:0:0:
275,264,150218,2,0,P|331:270|392:239,1,79.1666666666667
386,142,150433,5,0,0:0:0:0:
377,222,150540,1,0,0:0:0:0:
436,194,150648,1,0,0:0:0:0:
351,192,150756,1,0,0:0:0:0:
419,256,150863,2,0,B|472:302|472:302|442:239,1,79.1666666666667
461,186,151078,5,0,0:0:0:0:
381,133,151186,2,0,P|313:129|272:220,1,158.333333333333
262,335,151508,5,0,0:0:0:0:
284,324,151616,1,0,0:0:0:0:
224,323,151723,1,0,0:0:0:0:
253,314,151831,1,0,0:0:0:0:
174,309,151938,1,0,0:0:0:0:
212,290,152046,1,0,0:0:0:0:
126,298,152153,5,0,0:0:0:0:
173,268,152261,1,0,0:0:0:0:
212,290,152368,1,0,0:0:0:0:
261,263,152476,1,0,0:0:0:0:
300,282,152584,1,0,0:0:0:0:
356,254,152691,1,0,0:0:0:0:
403,257,152799,6,0,B|441:232|441:232|398:241,1,79.1666666666667
347,255,153014,5,0,0:0:0:0:
308,208,153121,1,0,0:0:0:0:
311,152,153229,1,0,0:0:0:0:
257,137,153336,1,0,0:0:0:0:
203,151,153444,1,0,0:0:0:0:
195,205,153551,1,0,0:0:0:0:
246,278,153659,1,0,0:0:0:0:
157,234,153766,2,0,L|162:342,2,79.1666666666667
236,108,154089,5,0,0:0:0:0:
266,83,154196,1,0,0:0:0:0:
305,78,154304,1,0,0:0:0:0:
343,86,154411,1,0,0:0:0:0:
374,110,154519,1,0,0:0:0:0:
389,146,154627,1,0,0:0:0:0:
384,185,154734,5,0,0:0:0:0:
411,156,154842,1,0,0:0:0:0:
417,117,154949,1,0,0:0:0:0:
403,79,155057,1,0,0:0:0:0:
371,55,155164,1,0,0:0:0:0:
331,50,155272,1,0,0:0:0:0:
296,69,155379,5,0,0:0:0:0:
288,108,155487,1,0,0:0:0:0:
271,143,155594,1,0,0:0:0:0:
240,168,155702,1,0,0:0:0:0:
201,177,155809,1,0,0:0:0:0:
162,167,155917,1,0,0:0:0:0:
138,135,156024,5,0,0:0:0:0:
145,95,156132,1,0,0:0:0:0:
176,71,156239,1,0,0:0:0:0:
214,79,156347,1,0,0:0:0:0:
243,105,156454,1,0,0:0:0:0:
243,144,156562,1,0,0:0:0:0:
224,194,156670,5,0,0:0:0:0:
225,233,156777,1,0,0:0:0:0:
246,266,156885,1,0,0:0:0:0:
283,278,156992,1,0,0:0:0:0:
321,269,157100,1,0,0:0:0:0:
348,240,157207,1,0,0:0:0:0:
383,222,157315,5,0,0:0:0:0:
422,220,157422,1,0,0:0:0:0:
451,246,157530,1,0,0:0:0:0:
453,285,157637,1,0,0:0:0:0:
430,317,157745,1,0,0:0:0:0:
390,319,157852,1,0,0:0:0:0:
365,287,157960,5,0,0:0:0:0:
376,249,158067,1,0,0:0:0:0:
403,220,158175,1,0,0:0:0:0:
411,181,158282,1,0,0:0:0:0:
384,151,158390,1,0,0:0:0:0:
345,142,158497,1,0,0:0:0:0:
308,157,158605,6,0,L|231:192,1,47.5000018119813
99,163,158820,2,0,L|155:134,1,47.5000018119813
231,82,159035,1,0,0:0:0:0:
222,151,159143,1,0,0:0:0:0:
210,210,159250,6,0,L|199:287,1,47.5000018119813
262,323,159465,1,0,0:0:0:0:
296,307,159573,1,0,0:0:0:0:
317,275,159680,1,0,0:0:0:0:
319,236,159788,1,0,0:0:0:0:
300,203,159895,1,0,0:0:0:0:
265,185,160003,1,0,0:0:0:0:
242,154,160110,1,0,0:0:0:0:
262,121,160218,5,0,0:0:0:0:
297,133,160325,1,0,0:0:0:0:
307,169,160433,1,0,0:0:0:0:
282,197,160540,1,0,0:0:0:0:
248,214,160648,1,0,0:0:0:0:
209,213,160756,1,0,0:0:0:0:
177,191,160863,5,0,0:0:0:0:
173,153,160971,1,0,0:0:0:0:
158,118,161078,1,0,0:0:0:0:
174,83,161186,2,0,L|213:15,1,47.5000018119813
292,34,161401,1,0,0:0:0:0:
364,111,161508,6,0,L|409:161,1,47.5000018119813
468,218,161723,1,0,0:0:0:0:
281,283,161831,6,0,L|200:299,1,72.833334722519
50,324,162046,1,0,0:0:0:0:
215,153,162153,2,0,L|270:87,1,72.833334722519
349,1,162368,1,0,0:0:0:0:
359,173,162476,2,0,L|368:245,1,72.833334722519
389,360,162691,1,0,0:0:0:0:
205,275,162799,2,0,L|108:229,1,72.833334722519
0,176,163014,1,0,0:0:0:0:
193,137,163121,5,0,0:0:0:0:
193,137,163202,1,0,0:0:0:0:
193,137,163282,2,0,L|211:204,1,54.6250010418892
337,284,163444,2,0,L|316:220,1,54.6250010418892
353,60,163605,2,0,L|383:148,1,54.6250010418892
447,247,163766,6,0,L|389:212,1,54.6250010418892
167,220,163928,6,0,L|237:258,1,54.6250010418892
318,358,164089,5,0,0:0:0:0:
315,344,164143,1,0,0:0:0:0:
312,330,164196,1,0,0:0:0:0:
310,316,164250,1,0,0:0:0:0:
307,303,164304,1,0,0:0:0:0:
304,289,164358,1,0,0:0:0:0:
302,275,164411,6,0,B|292:206|292:206|267:166|279:131,1,109.250002083778
452,93,164734,2,0,P|410:136|329:133,1,109.250002083778
128,62,165057,1,0,0:0:0:0:
376,61,165218,1,0,0:0:0:0:
141,269,165379,5,0,0:0:0:0:
358,71,165540,1,0,0:0:0:0:
73,144,165702,2,0,P|147:162|210:134,1,109.250002083778
345,82,166024,1,0,0:0:0:0:
368,76,166105,1,0,0:0:0:0:
383,70,166186,2,0,P|361:134|365:160,1,54.6250010418892
377,299,166347,2,0,P|411:238|406:215,1,54.6250010418892
454,124,166508,5,0,0:0:0:0:
304,227,166670,1,0,0:0:0:0:
492,200,166831,1,0,0:0:0:0:
232,67,166992,2,0,P|169:56|105:84,1,109.250002083778
248,267,167315,5,0,0:0:0:0:
352,80,167476,1,0,0:0:0:0:
188,158,167637,2,0,P|277:187|314:173,1,109.250002083778
430,132,167960,5,0,0:0:0:0:
252,93,168121,1,0,0:0:0:0:
356,347,168282,2,0,P|382:251|362:197,1,109.250002083778
319,34,168605,5,0,0:0:0:0:
281,178,168766,2,0,L|253:294,1,109.250002083778
145,24,169089,5,0,0:0:0:0:
144,189,169250,2,0,L|146:298,1,109.250002083778
227,131,169573,6,0,L|220:45,1,54.6250010418892
334,269,169734,1,0,0:0:0:0:
344,66,169895,1,0,0:0:0:0:
159,318,170057,1,0,0:0:0:0:
435,150,170218,1,0,0:0:0:0:
435,150,170299,1,0,0:0:0:0:
435,150,170379,1,0,0:0:0:0:
167,164,170540,1,0,0:0:0:0:
429,296,170702,6,0,P|427:254|400:215,1,54.6250010418892
272,127,170863,2,0,B|261:238|335:276|335:276|310:242|318:211,1,218.500004167557
368,66,171347,1,0,0:0:0:0:
368,66,171428,1,0,0:0:0:0:
368,66,171508,2,0,P|376:122|373:148,1,54.6250010418892
206,323,171670,2,0,P|191:266|197:240,1,54.6250010418892
233,40,171831,1,0,0:0:0:0:
335,271,171992,1,0,0:0:0:0:
144,152,172153,6,0,P|204:141|259:171,1,109.250002083778
444,384,172476,1,0,0:0:0:0:
217,321,172637,2,0,B|188:304|188:304|198:264|198:218,1,109.250002083778
123,19,172960,1,0,0:0:0:0:
88,257,173121,1,0,0:0:0:0:
366,112,173282,1,0,0:0:0:0:
39,113,173444,2,0,P|122:157|146:151,1,109.250002083778
447,143,173766,1,0,0:0:0:0:
233,241,173928,2,0,L|108:293,1,109.250002083778
35,229,174170,5,0,0:0:0:0:
57,240,174250,1,0,0:0:0:0:
87,256,174331,1,0,0:0:0:0:
114,268,174411,1,0,0:0:0:0:
135,285,174492,1,0,0:0:0:0:
161,291,174573,1,0,0:0:0:0:
187,285,174653,1,0,0:0:0:0:
210,272,174734,6,0,P|233:243|245:193,1,54.6250010418892
371,274,174895,2,0,P|348:245|336:195,1,54.6250010418892
86,287,175057,2,0,P|109:258|121:208,1,54.6250010418892
488,276,175218,2,0,P|465:247|453:197,1,54.6250010418892
200,71,175379,6,0,P|223:100|235:150,1,54.6250010418892
361,69,175540,2,0,P|338:98|326:148,1,54.6250010418892
75,56,175702,2,0,P|98:85|110:135,1,54.6250010418892
478,67,175863,2,0,P|455:96|443:146,1,54.6250010418892
140,232,176024,6,0,P|193:214|221:217,1,54.6250010418892
319,256,176186,2,0,P|266:274|238:271,1,54.6250010418892
33,168,176347,2,0,P|86:150|114:153,1,54.6250010418892
411,312,176508,2,0,P|358:330|330:327,1,54.6250010418892
153,247,176670,6,0,P|178:260|204:265,1,54.6250010418892
333,224,176832,2,0,P|308:211|282:206,1,54.6250010418892
61,303,176993,2,0,P|86:316|112:321,1,54.6250010418892
440,160,177154,2,0,P|415:147|389:142,1,54.6250010418892
90,34,177315,6,0,P|138:39|163:58,1,54.6250010418892
380,229,177476,2,0,P|356:243|330:249,1,54.6250010418892
78,244,177637,2,0,P|136:216|153:187,1,54.6250010418892
322,28,177799,2,0,P|348:33|371:48,1,54.6250010418892
193,355,177960,6,0,P|241:350|266:331,1,54.6250010418892
483,160,178121,2,0,P|459:145|433:139,1,54.6250010418892
181,145,178282,2,0,P|239:173|256:202,1,54.6250010418892
425,361,178444,2,0,P|451:355|474:340,1,54.6250010418892
18,131,178605,6,0,P|51:168|101:188,1,54.6250010418892
333,249,178766,2,0,P|339:207|323:174,1,54.6250010418892
47,267,178928,2,0,P|80:304|130:324,1,54.6250010418892
335,93,179089,2,0,P|341:51|325:18,1,54.6250010418892
177,293,179250,6,0,P|210:256|260:236,1,54.6250010418892
492,175,179411,2,0,P|498:217|482:250,1,54.6250010418892
206,157,179573,2,0,P|239:120|289:100,1,54.6250010418892
494,331,179734,2,0,P|500:373|484:406,1,54.6250010418892
108,177,179895,5,0,0:0:0:0:
108,177,179976,1,0,0:0:0:0:
108,177,180057,2,0,L|183:218,1,54.6250010418892
366,288,180218,1,0,0:0:0:0:
366,288,180299,1,0,0:0:0:0:
366,288,180379,2,0,L|330:211,1,54.6250010418892
225,40,180540,1,0,0:0:0:0:
228,72,180621,1,0,0:0:0:0:
229,110,180702,2,0,L|237:188,1,54.6250010418892
253,336,180863,5,0,0:0:0:0:
275,304,180944,1,0,0:0:0:0:
286,267,181024,1,0,0:0:0:0:
287,228,181105,1,0,0:0:0:0:
267,195,181186,5,0,0:0:0:0:
288,229,181266,1,0,0:0:0:0:
321,252,181347,1,0,0:0:0:0:
361,261,181427,1,0,0:0:0:0:
401,253,181508,2,0,P|444:235|464:203,1,64.1250002446175
436,2,181670,5,0,0:0:0:0:
409,45,181750,1,0,0:0:0:0:
406,96,181831,2,0,P|426:138|443:156,1,64.1250002446175
264,51,181992,1,0,0:0:0:0:
206,52,182073,1,0,0:0:0:0:
153,75,182153,2,0,P|105:111|72:164,1,64.1250002446175
104,318,182315,2,0,P|160:280|173:242,1,64.1250002446175
233,31,182476,5,0,0:0:0:0:
239,101,182557,1,0,0:0:0:0:
243,170,182637,1,0,0:0:0:0:
247,240,182718,1,0,0:0:0:0:
253,310,182799,2,0,L|265:386,1,64.1250002446175
336,70,182960,2,0,P|269:54|252:63,1,64.1250002446175
55,205,183121,2,0,P|126:216|183:195,1,128.250000489235
410,132,183444,5,0,0:0:0:0:
112,112,183605,1,0,0:0:0:0:
472,346,183766,1,0,0:0:0:0:
288,294,183928,5,0,0:0:0:0:
506,249,184089,1,0,0:0:0:0:
137,205,184250,1,0,0:0:0:0:
150,378,184411,5,0,0:0:0:0:
30,199,184573,1,0,0:0:0:0:
419,39,184734,1,0,0:0:0:0:
420,216,184895,5,0,0:0:0:0:
49,37,185057,1,0,0:0:0:0:
225,206,185218,5,0,0:0:0:0:
8,203,185379,1,0,0:0:0:0:
378,335,185540,1,0,0:0:0:0:
163,340,185702,5,0,0:0:0:0:
477,374,185863,1,0,0:0:0:0:
266,0,186024,1,0,0:0:0:0:
504,229,186186,5,0,0:0:0:0:
242,110,186347,1,0,0:0:0:0:
229,113,186428,1,0,0:0:0:0:
218,119,186508,1,0,0:0:0:0:
208,128,186589,1,0,0:0:0:0:
200,138,186670,1,0,0:0:0:0:
194,149,186750,1,0,0:0:0:0:
187,167,186831,2,0,P|185:209|192:251,1,64.1250002446175
281,352,186992,5,0,0:0:0:0:
291,335,187073,1,0,0:0:0:0:
296,316,187153,1,0,0:0:0:0:
294,296,187234,1,0,0:0:0:0:
286,278,187315,2,0,P|269:227|278:187,1,64.1250002446175
348,46,187476,1,0,0:0:0:0:
352,64,187557,1,0,0:0:0:0:
350,83,187637,2,0,P|333:130|340:190,1,64.1250002446175
377,303,187799,5,0,0:0:0:0:
396,304,187879,1,0,0:0:0:0:
414,297,187960,1,0,0:0:0:0:
421,279,188040,1,0,0:0:0:0:
423,259,188121,2,0,P|417:218|433:168,1,64.1250002446175
296,46,188282,2,0,P|290:87|306:137,1,64.1250002446175
178,301,188444,2,0,P|172:260|188:210,1,64.1250002446175
58,45,188605,5,0,0:0:0:0:
95,53,188686,1,0,0:0:0:0:
125,75,188766,1,0,0:0:0:0:
147,106,188847,1,0,0:0:0:0:
159,142,188928,2,0,P|220:184|260:188,1,95
434,72,189250,6,0,P|385:112|368:174,1,95
344,371,189573,2,0,P|380:288|374:257,1,95
331,215,189815,1,0,0:0:0:0:
331,215,189895,2,0,P|292:246|265:242,1,47.5
104,257,190057,1,0,0:0:0:0:
135,266,190137,1,0,0:0:0:0:
178,333,190218,2,0,P|132:345|86:337,1,95
180,48,190540,2,0,P|208:118|196:174,1,95
168,319,190863,1,0,0:0:0:0:
139,197,191024,5,0,0:0:0:0:
157,212,191105,1,0,0:0:0:0:
178,222,191186,1,0,0:0:0:0:
201,226,191266,1,0,0:0:0:0:
224,223,191347,1,0,0:0:0:0:
246,216,191428,1,0,0:0:0:0:
265,202,191508,2,0,B|296:192|298:159|298:159|332:192|372:188,1,95
457,149,191831,2,0,P|404:111|358:114,1,95
334,349,192153,6,0,P|366:288|349:233,1,95
338,248,192395,1,0,0:0:0:0:
338,248,192476,1,0,0:0:0:0:
193,47,192637,1,0,0:0:0:0:
193,47,192718,1,0,0:0:0:0:
193,47,192799,2,0,B|189:102|226:140|226:140|190:180|202:243,1,190
225,357,193282,1,0,0:0:0:0:
294,206,193444,6,0,L|343:92,1,95
361,113,193686,1,0,0:0:0:0:
361,113,193766,1,0,0:0:0:0:
411,294,193928,1,0,0:0:0:0:
411,294,194008,1,0,0:0:0:0:
411,294,194089,2,0,P|437:237|436:197,1,95
222,199,194411,2,0,P|273:222|328:211,1,95
119,81,194734,1,0,0:0:0:0:
119,81,194815,1,0,0:0:0:0:
119,81,194895,1,0,0:0:0:0:
108,222,195057,5,0,0:0:0:0:
123,239,195137,1,0,0:0:0:0:
145,247,195218,1,0,0:0:0:0:
168,246,195299,1,0,0:0:0:0:
191,241,195379,2,0,P|217:180|214:129,1,95
161,32,195702,1,0,0:0:0:0:
293,226,195863,2,0,L|337:291,1,47.5
367,350,196024,2,0,P|411:285|408:239,1,95
374,199,196266,5,0,0:0:0:0:
374,199,196347,2,0,P|386:163|384:130,1,47.5
308,20,196508,2,0,P|294:56|296:86,1,47.5
292,165,196670,2,0,P|373:208|459:174,1,190
503,48,197153,1,0,0:0:0:0:
382,83,197315,2,0,L|314:104,1,47.5
217,130,197476,1,0,0:0:0:0:
297,233,197637,2,0,L|353:291,1,47.5
412,323,197799,5,0,0:0:0:0:
412,323,197879,1,0,0:0:0:0:
412,323,197960,2,0,P|435:267|424:205,1,95
321,40,198282,1,0,0:0:0:0:
345,257,198444,1,0,0:0:0:0:
423,88,198605,1,0,0:0:0:0:
253,153,198766,1,0,0:0:0:0:
253,153,198847,1,0,0:0:0:0:
253,153,198928,2,0,L|308:213,1,47.5
455,141,199089,5,0,0:0:0:0:
440,122,199170,1,0,0:0:0:0:
419,109,199250,2,0,P|439:47|417:-2,1,95
200,32,199573,2,0,P|293:62|312:56,1,95
262,259,199895,2,0,L|299:195,1,47.5
344,105,200057,1,0,0:0:0:0:
414,303,200218,5,0,0:0:0:0:
403,281,200299,1,0,0:0:0:0:
400,257,200379,1,0,0:0:0:0:
402,233,200460,1,0,0:0:0:0:
408,210,200540,2,0,P|422:155|404:109,1,95
249,265,200863,2,0,P|253:330|275:373,1,95
297,56,201186,1,0,0:0:0:0:
153,173,201347,5,0,0:0:0:0:
153,173,201428,1,0,0:0:0:0:
153,173,201508,2,0,P|220:195|231:193,1,47.5
377,155,201670,2,0,P|333:142|305:140,1,47.5
196,297,201831,2,0,P|266:271|290:221,1,95
269,24,202153,2,0,P|245:86|262:145,1,95
375,305,202476,1,0,0:0:0:0:
375,305,202557,1,0,0:0:0:0:
390,69,202718,5,0,0:0:0:0:
390,69,202799,2,0,P|371:129|388:193,1,95
437,375,203121,2,0,P|462:303|449:251,1,95
196,172,203444,1,0,0:0:0:0:
338,233,203605,2,0,P|408:229|432:192,1,95
475,105,203928,1,0,0:0:0:0:
475,105,204008,1,0,0:0:0:0:
475,105,204089,1,0,0:0:0:0:
239,92,204250,5,0,0:0:0:0:
239,92,204331,1,0,0:0:0:0:
239,92,204411,2,0,P|302:121|347:115,1,95
167,6,204734,2,0,P|126:63|128:113,1,95
178,285,205057,1,0,0:0:0:0:
178,285,205137,1,0,0:0:0:0:
244,33,205299,1,0,0:0:0:0:
248,37,205379,2,0,P|254:97|241:135,1,95
150,230,205621,5,0,0:0:0:0:
150,230,205702,2,0,P|205:265|265:259,1,95
458,165,206024,2,0,P|377:148|335:160,1,95
40,200,206347,1,0,0:0:0:0:
406,243,206508,1,0,0:0:0:0:
385,230,206589,1,0,0:0:0:0:
362,222,206670,1,0,0:0:0:0:
338,219,206750,1,0,0:0:0:0:
314,221,206831,1,0,0:0:0:0:
291,227,206911,1,0,0:0:0:0:
267,236,206992,6,0,P|206:259|147:235,1,95
176,47,207315,2,0,P|206:99|207:169,1,95
95,326,207637,1,0,0:0:0:0:
95,326,207718,1,0,0:0:0:0:
299,128,207879,1,0,0:0:0:0:
299,128,207960,2,0,P|287:193|261:223,1,95
27,192,208282,2,0,P|95:165|147:166,1,95
478,251,208605,6,0,P|399:268|351:251,1,95
118,222,208928,1,0,0:0:0:0:
423,117,209089,1,0,0:0:0:0:
409,136,209170,1,0,0:0:0:0:
389,149,209250,2,0,P|345:160|307:153,1,47.5
125,74,209411,2,0,P|169:59|195:60,1,47.5
220,319,209573,6,0,B|205:247|237:201|237:201|239:155,1,142.500005435944
316,11,209895,2,0,P|341:54|331:117,1,71.2500027179719
314,208,210057,2,0,B|291:99|342:76|342:76|347:126|387:154,1,213.750008153916
500,108,210379,2,0,P|427:55|390:173,1,213.750008153916
468,290,210702,2,0,B|527:229|503:180|503:180|442:158|436:109,1,213.750008153916
453,16,211024,5,0,0:0:0:0:
343,245,211186,1,0,0:0:0:0:
512,101,211347,1,0,0:0:0:0:
123,224,211508,1,0,0:0:0:0:
419,309,211670,1,0,0:0:0:0:
58,56,211831,1,0,0:0:0:0:
38,62,212153,6,0,L|101:111,1,71.2500027179719
280,234,212315,1,0,0:0:0:0:
280,234,212395,1,0,0:0:0:0:
280,234,212476,2,0,P|273:180|236:133,1,71.2500027179719
113,28,212637,1,0,0:0:0:0:
127,41,212718,1,0,0:0:0:0:
139,54,212799,2,0,P|212:80|330:39,1,190
195,280,213444,5,0,0:0:0:0:
185,258,213524,1,0,0:0:0:0:
180,234,213605,1,0,0:0:0:0:
181,210,213686,1,0,0:0:0:0:
187,187,213766,1,0,0:0:0:0:
211,210,213847,1,0,0:0:0:0:
240,224,213928,1,0,0:0:0:0:
272,227,214008,1,0,0:0:0:0:
304,219,214089,6,0,P|351:197|361:186,1,47.5
436,60,214250,2,0,P|419:108|421:130,1,47.5
486,299,214411,5,0,0:0:0:0:
503,270,214492,1,0,0:0:0:0:
511,237,214573,1,0,0:0:0:0:
508,204,214653,1,0,0:0:0:0:
492,174,214734,2,0,B|459:132|459:60|459:60|417:109|401:112,1,142.500005435944
239,268,215057,2,0,P|253:223|297:195,1,71.2500027179719
461,80,215218,2,0,B|419:158|343:122|343:122|329:179|284:182,1,213.750008153916
256,243,215540,2,0,P|340:233|331:112,1,213.750008153916
292,176,215863,2,0,B|262:101|306:56|306:56|296:119|337:145,1,213.750008153916
480,213,216186,5,0,0:0:0:0:
384,83,216347,1,0,0:0:0:0:
488,323,216508,1,0,0:0:0:0:
459,46,216670,1,0,0:0:0:0:
417,384,216831,1,0,0:0:0:0:
250,24,216992,1,0,0:0:0:0:
256,372,217315,6,0,L|256:297,1,59.375
274,149,217476,1,0,0:0:0:0:
271,166,217557,1,0,0:0:0:0:
260,180,217637,1,0,0:0:0:0:
244,188,217718,1,0,0:0:0:0:
226,186,217799,1,0,0:0:0:0:
211,175,217879,1,0,0:0:0:0:
196,158,217960,2,0,B|184:114|184:114|232:124|287:84,1,118.75
391,0,218282,6,0,L|351:74,1,59.375
353,271,218444,2,0,L|381:218,1,59.375
494,51,218605,1,0,0:0:0:0:
466,89,218686,1,0,0:0:0:0:
426,114,218766,2,0,P|393:122|353:116,1,59.375
183,67,218928,2,0,P|211:114|251:147,1,59.375
410,239,219089,5,0,0:0:0:0:
368,261,219170,1,0,0:0:0:0:
320,260,219250,2,0,P|284:235|270:201,1,59.375
282,0,219411,2,0,P|271:81|276:107,1,59.375
332,172,219573,1,0,0:0:0:0:
291,147,219653,1,0,0:0:0:0:
237,148,219734,2,0,P|212:161|182:205,1,59.375
224,369,219895,2,0,P|244:314|241:268,1,59.375
98,134,220057,5,0,0:0:0:0:
83,185,220137,1,0,0:0:0:0:
85,238,220218,2,0,P|97:280|118:318,1,59.375
298,58,220379,2,0,P|308:30|314:1,1,59.375
219,247,220540,5,0,0:0:0:0:
287,266,220621,1,0,0:0:0:0:
355,244,220702,2,0,P|373:219|390:171,1,64.1250002446175
241,123,220863,2,0,P|264:155|301:167,1,64.1250002446175
264,24,221024,2,0,P|215:18|169:27,1,64.1250002446175
68,185,221186,6,0,B|119:216|174:172|174:172|190:188|240:195,1,128.250000489235
310,243,221428,1,0,0:0:0:0:
310,300,221508,1,0,0:0:0:0:
257,107,221670,2,0,P|294:90|387:98,1,128.250000489235
462,323,221992,2,0,P|435:273|443:231,1,64.1250002446175
473,120,222153,1,0,0:0:0:0:
435,172,222234,1,0,0:0:0:0:
377,201,222315,1,0,0:0:0:0:
313,204,222395,1,0,0:0:0:0:
254,177,222476,2,0,P|218:166|151:188,1,64.1250002446175
85,327,222637,6,0,P|146:317|166:278,1,64.1250002446175
114,114,222799,2,0,P|53:124|33:163,1,64.1250002446175
108,233,222960,1,0,0:0:0:0:
170,219,223040,1,0,0:0:0:0:
208,167,223121,2,0,P|219:131|212:70,1,64.1250002446175
416,61,223282,2,0,P|407:105|372:132,1,64.1250002446175
260,300,223444,1,0,0:0:0:0:
271,237,223524,1,0,0:0:0:0:
296,177,223605,2,0,P|328:154|363:145,1,64.1250002446175
512,246,223766,6,0,B|481:283|427:273|427:273|413:303|380:313,1,128.250000489235
184,316,224008,1,0,0:0:0:0:
184,316,224089,2,0,L|259:375,1,64.1250002446175
355,135,224250,2,0,P|326:97|272:74,1,64.1250002446175
74,180,224411,2,0,P|183:201|218:180,1,128.250000489235
434,0,224734,6,0,P|426:39|442:84,1,64.1250002446175
474,256,224895,2,0,P|495:201|486:140,1,64.1250002446175
279,192,225057,2,0,P|376:218|412:197,1,128.250000489235
512,134,225299,1,0,0:0:0:0:
512,134,225379,2,0,P|441:149|422:138,1,64.1250002446175
242,60,225540,2,0,P|301:63|335:80,1,64.1250002446175
301,321,225702,2,0,P|283:263|299:223,1,64.1250002446175
437,0,225863,2,0,P|451:71|450:108,1,64.1250002446175
151,233,226024,5,0,0:0:0:0:
192,183,226105,1,0,0:0:0:0:
253,162,226186,1,0,0:0:0:0:
316,167,226266,1,0,0:0:0:0:
374,194,226347,2,0,P|467:214|500:192,1,128.250000489235
512,101,226589,1,0,0:0:0:0:
462,87,226670,1,0,0:0:0:0:
413,102,226750,1,0,0:0:0:0:
360,127,226831,6,0,P|322:144|253:127,1,64.1250002446175
96,105,226992,2,0,P|147:68|260:78,1,128.250000489235
235,327,227315,2,0,P|200:252|206:188,1,128.250000489235
214,94,227557,1,0,0:0:0:0:
214,94,227637,1,0,0:0:0:0:
315,384,227799,2,0,P|331:337|332:307,1,64.1250002446175
332,45,227960,2,0,P|314:103|323:154,1,64.1250002446175
488,273,228121,6,0,P|456:234|417:222,1,64.1250002446175
68,237,228282,2,0,P|143:189|155:160,1,64.1250002446175
362,81,228444,2,0,P|373:145|356:185,1,64.1250002446175
155,366,228605,2,0,P|152:307|176:258,1,64.1250002446175
473,0,228766,2,0,P|487:57|478:107,1,64.1250002446175
30,321,228928,2,0,P|24:210|66:149,1,128.250000489235
124,78,229170,1,0,0:0:0:0:
180,70,229250,1,0,0:0:0:0:
232,95,229331,1,0,0:0:0:0:
266,140,229411,6,0,P|281:202|269:236,1,64.1250002446175
154,370,229573,2,0,P|145:319|158:277,1,64.1250002446175
328,0,229734,1,0,0:0:0:0:
62,232,229895,6,0,P|107:205|151:208,1,64.1250002446175
458,123,230057,2,0,P|413:96|369:99,1,64.1250002446175
231,296,230218,2,0,P|279:233|280:202,1,64.1250002446175
322,29,230379,1,0,0:0:0:0:
299,82,230460,1,0,0:0:0:0:
309,138,230540,2,0,P|335:157|355:207,1,64.1250002446175
31,83,230702,2,0,P|22:27|42:-24,1,64.1250002446175
500,275,230863,2,0,P|459:305|412:305,1,64.1250002446175
47,192,231024,2,0,P|117:145|163:140,1,128.250000489235
412,125,231266,5,0,0:0:0:0:
365,178,231347,1,0,0:0:0:0:
301,208,231428,1,0,0:0:0:0:
231,200,231508,2,0,B|188:175|188:175|254:132|257:72,1,128.250000489235
186,0,231750,1,0,0:0:0:0:
256,10,231831,2,0,L|339:23,1,64.1250002446175
187,382,231992,2,0,P|166:299|175:258,1,128.250000489235
360,97,232315,2,0,P|284:134|271:135,1,64.1250002446175
79,227,232476,6,0,P|144:180|172:184,1,64.1250002446175
469,250,232637,1,0,0:0:0:0:
33,93,232799,1,0,0:0:0:0:
263,300,232960,2,0,P|307:225|282:147,1,128.250000489235
196,117,233202,1,0,0:0:0:0:
196,117,233282,1,0,0:0:0:0:
436,189,233444,6,0,L|536:214,1,64.1250002446175
131,179,233605,2,0,P|106:138|102:102,1,64.1250002446175
421,0,233766,2,0,P|387:20|334:26,1,64.1250002446175
289,370,233928,2,0,P|266:346|254:317,1,64.1250002446175
247,0,234089,2,0,P|255:63|238:124,1,128.250000489235
121,220,234331,1,0,0:0:0:0:
121,220,234411,5,0,0:0:0:0:
182,255,234492,1,0,0:0:0:0:
252,250,234573,1,0,0:0:0:0:
313,216,234653,1,0,0:0:0:0:
361,164,234734,2,0,P|379:118|376:67,1,64.1250002446175
373,262,234895,2,0,P|384:307|423:342,1,64.1250002446175
249,98,235057,6,0,P|178:93|127:133,1,128.250000489235
98,237,235299,1,0,0:0:0:0:
250,320,235379,2,0,P|287:311|340:246,1,64.1250002446175
366,54,235540,2,0,P|335:124|342:159,1,64.1250002446175
456,336,235702,2,0,P|480:296|474:245,1,64.1250002446175
255,52,235863,5,0,0:0:0:0:
232,119,235944,1,0,0:0:0:0:
245,187,236024,2,0,P|289:252|306:256,1,64.1250002446175
451,329,236186,1,0,0:0:0:0:
452,278,236266,1,0,0:0:0:0:
452,226,236347,1,0,0:0:0:0:
322,0,236508,2,0,P|264:25|251:45,1,64.1250002446175
150,336,236670,2,0,P|231:314|263:256,1,132.999995941162
224,86,236911,5,0,0:0:0:0:
270,155,236992,1,0,0:0:0:0:
343,194,237073,1,0,0:0:0:0:
424,181,237153,2,0,P|473:151|489:53,1,132.999995941162
64,139,237476,1,0,0:0:0:0:
402,93,237637,2,0,P|347:111|302:104,1,66.4999979705811
123,39,237799,1,0,0:0:0:0:
372,259,237960,1,0,0:0:0:0:
225,55,238121,6,0,P|203:128|204:144,1,66.4999979705811
249,341,238282,1,0,0:0:0:0:
323,37,238444,1,0,0:0:0:0:
96,341,238605,2,0,P|155:275|156:252,1,66.4999979705811
64,4,238766,2,0,P|46:71|58:109,1,66.4999979705811
223,348,238928,2,0,P|285:353|299:343,1,66.4999979705811
490,159,239089,2,0,P|511:114|505:93,1,66.4999979705811
45,202,239250,2,0,B|71:192|87:205|87:205|123:141|188:127,1,132.999995941162
311,165,239492,1,0,0:0:0:0:
284,276,239573,6,0,P|228:324|199:329,1,66.4999979705811
228,84,239734,2,0,P|269:56|327:46,1,66.4999979705811
420,296,239895,2,0,P|395:213|408:169,1,132.999995941162
472,77,240137,1,0,0:0:0:0:
311,165,240218,2,0,P|242:172|199:159,1,66.4999979705811
40,22,240379,2,0,P|91:9|131:13,1,66.4999979705811
194,358,240540,5,0,0:0:0:0:
153,296,240621,1,0,0:0:0:0:
146,222,240702,1,0,0:0:0:0:
168,153,240782,1,0,0:0:0:0:
215,96,240863,5,0,0:0:0:0:
208,169,240944,1,0,0:0:0:0:
168,229,241024,2,0,P|124:259|83:265,1,66.4999979705811
334,81,241186,2,0,P|373:81|421:86,1,66.4999979705811
332,304,241347,5,0,0:0:0:0:
315,232,241428,1,0,0:0:0:0:
345,165,241508,2,0,P|373:132|450:102,1,66.4999979705811
214,299,241670,5,0,0:0:0:0:
189,230,241750,1,0,0:0:0:0:
213,160,241831,2,0,P|231:129|224:30,1,71.2500027179719
89,287,241992,5,0,0:0:0:0:
150,323,242073,1,0,0:0:0:0:
220,326,242153,1,0,0:0:0:0:
285,296,242234,1,0,0:0:0:0:
329,240,242315,2,0,P|352:192|360:137,1,71.2500027179719
240,5,242476,2,0,L|231:92,1,71.2500027179719
449,288,242637,5,0,0:0:0:0:
477,222,242718,1,0,0:0:0:0:
470,150,242799,2,0,P|460:102|429:61,1,71.2500027179719
120,155,242960,5,0,0:0:0:0:
189,166,243040,1,0,0:0:0:0:
255,139,243121,1,0,0:0:0:0:
292,77,243202,1,0,0:0:0:0:
309,30,243282,2,0,P|330:71|336:143,1,71.2500027179719
257,216,243444,2,0,P|239:184|230:150,1,71.2500027179719
385,0,243605,2,0,P|406:41|412:113,1,71.2500027179719
160,384,243766,6,0,P|139:343|133:271,1,71.2500027179719
512,52,243928,2,0,P|483:127|450:147,1,71.2500027179719
13,328,244089,2,0,P|37:258|63:237,1,71.2500027179719
512,264,244250,2,0,P|434:278|403:259,1,71.2500027179719
40,100,244411,2,0,P|130:77|146:85,1,71.2500027179719
254,233,244573,2,0,P|325:261|341:263,1,71.2500027179719
512,195,244734,5,0,0:0:0:0:
495,117,244815,1,0,0:0:0:0:
435,67,244895,1,0,0:0:0:0:
357,53,244976,1,0,0:0:0:0:
273,71,245057,2,0,L|187:99,1,71.2500027179719
156,356,245218,2,0,P|205:277|200:236,1,71.2500027179719
77,40,245379,2,0,P|70:98|100:154,1,71.2500027179719
397,364,245540,2,0,P|413:325|404:269,1,71.2500027179719
57,242,245702,6,0,P|112:239|161:190,1,71.2500027179719
396,28,245863,1,0,0:0:0:0:
401,99,245944,1,0,0:0:0:0:
410,169,246024,2,0,L|430:289,1,71.2500027179719
203,319,246186,5,0,0:0:0:0:
238,258,246266,1,0,0:0:0:0:
239,186,246347,2,0,P|233:147|191:81,1,71.2500027179719
19,243,246508,5,0,0:0:0:0:
90,243,246589,1,0,0:0:0:0:
161,243,246670,2,0,L|290:238,1,71.2500027179719
512,156,246831,2,0,L|440:158,1,71.2500027179719
64,59,246992,6,0,P|96:44|135:56,1,71.2500027179719
307,318,247153,5,0,0:0:0:0:
260,263,247234,1,0,0:0:0:0:
271,192,247315,1,0,0:0:0:0:
331,156,247395,1,0,0:0:0:0:
398,179,247476,1,0,0:0:0:0:
403,250,247557,1,0,0:0:0:0:
361,316,247637,2,0,P|305:333|253:320,1,71.2500027179719
108,223,247799,2,0,P|164:206|216:219,1,71.2500027179719
15,334,247960,6,0,P|0:288|6:236,1,71.2500027179719
467,137,248121,2,0,P|480:103|483:68,1,71.2500027179719
46,91,248282,1,0,0:0:0:0:
99,148,248363,1,0,0:0:0:0:
176,163,248444,2,0,P|226:168|298:144,1,71.2500027179719
434,34,248605,1,0,0:0:0:0:
395,102,248686,1,0,0:0:0:0:
399,179,248766,1,0,0:0:0:0:
446,250,248847,1,0,0:0:0:0:
467,333,248928,2,0,P|412:358|396:359,1,71.2500027179719
59,313,249089,2,0,P|114:288|130:287,1,71.2500027179719
470,107,249250,2,0,P|415:132|399:133,1,71.2500027179719
0,16,249411,2,0,P|55:41|71:42,1,71.2500027179719
249,374,249573,5,0,0:0:0:0:
226,306,249653,1,0,0:0:0:0:
258,242,249734,1,0,0:0:0:0:
272,171,249815,1,0,0:0:0:0:
245,105,249895,1,0,0:0:0:0:
175,88,249976,1,0,0:0:0:0:
127,141,250057,1,0,0:0:0:0:
127,211,250137,1,0,0:0:0:0:
186,250,250218,2,0,P|226:262|273:254,1,71.2500027179719
431,20,250379,5,0,0:0:0:0:
401,69,250460,1,0,0:0:0:0:
370,116,250540,2,0,P|341:144|294:160,1,71.2500027179719
67,129,250702,2,0,P|93:84|146:48,1,71.2500027179719
275,332,250863,5,0,0:0:0:0:
272,274,250944,1,0,0:0:0:0:
272,217,251024,1,0,0:0:0:0:
272,159,251105,1,0,0:0:0:0:
275,101,251186,5,0,0:0:0:0:
219,132,251266,1,0,0:0:0:0:
199,193,251347,1,0,0:0:0:0:
230,249,251428,1,0,0:0:0:0:
289,271,251508,2,0,B|356:266|371:252|383:228,1,71.2500027179719
388,0,251670,2,0,P|351:43|352:105,1,71.2500027179719
220,384,251831,2,0,B|287:379|302:365|314:341,1,71.2500027179719
255,13,251992,2,0,P|238:62|247:138,1,71.2500027179719
492,277,252153,6,0,P|441:231|410:227,1,78.3750007474423
51,252,252315,1,0,0:0:0:0:
115,279,252395,1,0,0:0:0:0:
184,263,252476,1,0,0:0:0:0:
234,202,252557,1,0,0:0:0:0:
291,149,252637,6,0,P|324:121|369:117,1,78.3750007474423
157,375,252799,2,0,P|150:316|175:262,1,78.3750007474423
355,35,252960,2,0,P|388:7|433:3,1,78.3750007474423
27,384,253121,2,0,P|20:325|45:271,1,78.3750007474423
165,0,253282,2,0,P|172:59|147:113,1,78.3750007474423
341,374,253444,2,0,P|334:315|359:261,1,78.3750007474423
475,97,253605,6,0,P|435:122|378:119,1,78.3750007474423
187,85,253766,1,0,0:0:0:0:
247,101,253847,1,0,0:0:0:0:
271,158,253928,1,0,0:0:0:0:
266,220,254008,1,0,0:0:0:0:
216,258,254089,2,0,P|186:279|129:284,1,78.3750007474423
80,32,254250,2,0,P|112:58|122:136,1,78.3750007474423
87,366,254411,2,0,P|66:306|109:236,1,78.3750007474423
258,75,254573,2,0,P|257:123|207:209,1,78.3750007474423
0,233,254734,6,0,P|70:194|127:215,1,78.3750007474423
512,318,254895,2,0,P|442:357|385:336,1,78.3750007474423
52,31,255057,2,0,P|108:53|148:121,1,78.3750007474423
271,356,255218,5,0,0:0:0:0:
246,298,255299,1,0,0:0:0:0:
263,238,255379,2,0,P|283:202|289:111,1,78.3750007474423
0,83,255540,1,0,0:0:0:0:
40,131,255621,1,0,0:0:0:0:
101,145,255702,2,0,P|151:148|231:88,1,78.3750007474423
448,20,255863,2,0,B|411:82|434:124,1,78.3750007474423
345,356,256024,6,0,P|357:257|334:230,1,78.3750007474423
139,2,256186,1,0,0:0:0:0:
118,60,256266,1,0,0:0:0:0:
135,120,256347,2,0,P|167:154|236:185,1,78.3750007474423
380,309,256508,5,0,0:0:0:0:
453,304,256589,1,0,0:0:0:0:
489,243,256670,1,0,0:0:0:0:
466,176,256750,1,0,0:0:0:0:
395,184,256831,1,0,0:0:0:0:
363,246,256911,1,0,0:0:0:0:
415,293,256992,1,0,0:0:0:0:
483,274,257073,1,0,0:0:0:0:
511,210,257153,1,0,0:0:0:0:
508,139,257234,1,0,0:0:0:0:
455,91,257315,6,0,P|404:67|357:80,1,78.3750007474423
23,312,257476,2,0,P|55:332|94:334,1,78.3750007474423
302,22,257637,2,0,P|251:-2|204:11,1,78.3750007474423
253,374,257799,2,0,P|278:328|285:252,1,78.3750007474423
71,38,257960,2,0,L|155:122,1,78.3750007474423
512,257,258121,5,0,0:0:0:0:
452,294,258202,1,0,0:0:0:0:
382,304,258282,2,0,B|318:293|283:256,1,78.3750007474423
197,28,258444,2,0,P|220:77|204:164,1,78.3750007474423
136,367,258605,2,0,P|128:304|152:258,1,78.3750007474423
421,106,258766,2,0,P|395:165|337:200,1,78.3750007474423
35,164,258928,5,0,0:0:0:0:
104,157,259008,1,0,0:0:0:0:
167,187,259089,1,0,0:0:0:0:
217,246,259170,1,0,0:0:0:0:
266,305,259250,2,0,P|325:320|374:287,1,78.3750007474423
452,28,259411,2,0,P|393:89|399:130,1,78.3750007474423
59,322,259573,2,0,P|118:337|167:304,1,78.3750007474423
312,0,259734,2,0,P|253:61|259:102,1,78.3750007474423
241,359,259895,5,0,0:0:0:0:
290,297,259976,1,0,0:0:0:0:
309,220,260057,1,0,0:0:0:0:
288,144,260137,1,0,0:0:0:0:
239,82,260218,5,0,0:0:0:0:
211,138,260299,1,0,0:0:0:0:
224,198,260379,1,0,0:0:0:0:
268,242,260460,1,0,0:0:0:0:
329,250,260540,2,0,P|412:254|464:220,1,78.3750007474423
67,65,260702,5,0,0:0:0:0:
56,126,260782,1,0,0:0:0:0:
72,186,260863,2,0,B|93:226|154:259,1,78.3750007474423
506,159,261024,1,0,0:0:0:0:
453,123,261105,1,0,0:0:0:0:
389,113,261186,6,0,B|341:109|325:118|271:141,1,78.3750007474423
162,301,261347,2,0,B|210:305|226:296|238:290,1,78.3750007474423
194,74,261508,6,0,P|192:139|208:187,1,78.3750007474423
397,341,261670,2,0,P|401:302|397:263,1,78.3750007474423
79,12,261831,6,0,P|77:77|93:125,1,78.3750007474423
491,203,261992,2,0,P|426:166|389:158,1,78.3750007474423
44,368,262153,2,0,P|79:352|111:330,1,78.3750007474423
374,7,262315,2,0,P|336:41|310:130,1,78.3750007474423
241,383,262476,6,0,L|242:268,1,78.3750007474423
283,35,262637,1,0,0:0:0:0:
39,384,262799,6,0,L|89:277,1,78.3750007474423
198,5,262960,1,0,0:0:0:0:
23,228,263121,6,0,L|113:193,1,78.3750007474423
413,101,263282,1,0,0:0:0:0:
190,376,263444,6,0,P|186:325|222:253,1,78.3750007474423
328,34,263605,1,0,0:0:0:0:
393,310,263766,6,0,P|351:251|315:232,1,78.3750007474423
24,180,263928,1,0,0:0:0:0:
254,384,264089,6,0,P|289:336|299:250,1,78.3750007474423
324,17,264250,1,0,0:0:0:0:
44,275,264411,6,0,P|109:260|145:205,1,78.3750007474423
313,14,264573,1,0,0:0:0:0:
311,76,264653,1,0,0:0:0:0:
305,138,264734,2,0,L|294:278,1,78.3750007474423
287,384,264895,1,0,0:0:0:0:
94,116,265057,2,0,P|162:78|222:75,1,78.3750007474423
497,143,265218,2,0,P|464:171|383:177,1,78.3750007474423
38,223,265379,2,0,L|170:170,1,78.3750007474423
404,106,265540,1,0,0:0:0:0:
189,379,265702,6,0,L|219:239,1,78.3750007474423
250,3,265863,1,0,0:0:0:0:
414,313,266024,6,0,P|381:255|348:242,1,78.3750007474423
48,219,266186,1,0,0:0:0:0:
436,47,266347,6,0,L|363:126,1,78.3750007474423
142,379,266508,1,0,0:0:0:0:
60,27,266670,6,0,L|134:113,1,78.3750007474423
333,350,266831,1,0,0:0:0:0:
280,18,266992,6,0,P|270:60|281:118,1,78.3750007474423
365,359,267153,1,0,0:0:0:0:
366,296,267234,1,0,0:0:0:0:
395,240,267315,1,0,0:0:0:0:
380,179,267395,1,0,0:0:0:0:
320,157,267476,1,0,0:0:0:0:
268,192,267557,1,0,0:0:0:0:
240,247,267637,6,0,P|211:288|181:301,1,78.3750007474423
0,282,267799,1,0,0:0:0:0:
438,72,267960,6,0,L|353:118,1,78.3750007474423
93,252,268121,1,0,0:0:0:0:
485,310,268282,2,0,P|436:242|421:239,1,78.3750007474423
74,180,268444,1,0,0:0:0:0:
129,207,268524,1,0,0:0:0:0:
191,200,268605,2,0,B|244:175|248:169|282:87,1,78.3750007474423
329,0,268766,1,0,0:0:0:0:
314,367,268928,6,0,P|347:304|339:249,1,78.3750007474423
220,16,269089,1,0,0:0:0:0:
246,73,269170,1,0,0:0:0:0:
303,96,269250,2,0,B|365:97|391:87|426:53,1,78.3750007474423
497,101,269411,5,0,0:0:0:0:
469,157,269492,1,0,0:0:0:0:
417,193,269573,2,0,B|361:205|349:207|278:170,1,78.3750007474423
118,95,269734,1,0,0:0:0:0:
246,355,269895,5,0,0:0:0:0:
226,294,269976,1,0,0:0:0:0:
238,232,270057,1,0,0:0:0:0:
277,183,270137,1,0,0:0:0:0:
325,142,270218,2,0,B|352:96|357:72|353:-8,1,78.3750007474423
39,201,270379,5,0,0:0:0:0:
100,216,270460,1,0,0:0:0:0:
160,229,270540,2,0,L|277:260,1,78.3750007474423
469,294,270702,1,0,0:0:0:0:
75,39,270863,2,0,P|106:85|161:119,1,78.3750007474423
420,246,271024,1,0,0:0:0:0:
220,21,271186,6,0,P|215:69|232:149,1,78.3750007474423
304,370,271347,1,0,0:0:0:0:
354,309,271428,1,0,0:0:0:0:
384,237,271508,2,0,B|409:188|383:128,1,78.3750007474423
217,258,271670,2,0,B|192:307|218:367,1,78.3750007474423
443,7,271831,2,0,B|385:-1|361:17|326:35,1,78.3750007474423
41,323,271992,2,0,B|113:300|145:294|161:245,1,78.3750007474423
501,117,272153,6,0,B|443:97|377:118,1,78.3750007474423
0,28,272315,2,0,B|58:8|124:29,1,78.3750007474423
415,367,272476,2,0,P|359:304|367:252,1,78.3750007474423
190,0,272637,2,0,P|213:31|204:125,1,78.3750007474423
198,380,272799,6,0,L|215:276,1,78.3750007474423
261,72,272960,1,0,0:0:0:0:
261,72,273040,1,0,0:0:0:0:
261,72,273121,1,0,0:0:0:0:
100,262,273282,6,0,L|44:329,1,78.3750007474423
336,147,273444,2,0,L|386:86,1,78.3750007474423
52,151,273605,1,0,0:0:0:0:
353,241,273766,1,0,0:0:0:0:
183,49,273928,5,0,0:0:0:0:
185,118,274008,1,0,0:0:0:0:
188,188,274089,2,0,L|192:291,1,78.3750007474423
366,72,274250,5,0,0:0:0:0:
382,140,274331,1,0,0:0:0:0:
413,202,274411,2,0,L|463:321,1,78.3750007474423
54,242,274573,5,0,0:0:0:0:
113,205,274653,1,0,0:0:0:0:
183,210,274734,2,0,P|231:213|280:261,1,78.3750007474423
378,339,274895,5,0,0:0:0:0:
198,32,275057,1,0,0:0:0:0:
512,311,275218,1,0,0:0:0:0:
19,47,275379,1,0,0:0:0:0:
