osu file format v14

[General]
AudioFilename: audio.mp3
AudioLeadIn: 0
PreviewTime: 188930
Countdown: 1
SampleSet: Drum
StackLeniency: 0.7
Mode: 0
LetterboxInBreaks: 0
WidescreenStoryboard: 1

[Editor]
Bookmarks: 21833,28607,47559,59897,111188,111349,112155,116349,116672,155381,156672,157962,158768,159252,160542,220704,247639,248930,250220,250865,251510,252801,254091,255381,256672,257962,259252,260542,260865,261188,262478
DistanceSpacing: 0.8
BeatDivisor: 4
GridSize: 16
TimelineZoom: 2.1

[Metadata]
Title:Black Pentagram
TitleUnicode:Black Pentagram
Artist:Unlucky Morpheus
ArtistUnicode:Unlucky Morpheus
Creator:Krisu
Version:Seija ni ake no sensei wo
Source:
Tags:fuyuki tenge fuki metal rock technical melodic speed metal stream death marathon
BeatmapID:1807460
BeatmapSetID:864182

[Difficulty]
HPDrainRate:6.3
CircleSize:4.3
OverallDifficulty:9.8
ApproachRate:9.8
SliderMultiplier:1.9
SliderTickRate:1

[Events]
//Background and Video events
0,0,"g.jpg",0,0
//Break Periods
//Storyboard Layer 0 (Background)
//Storyboard Layer 1 (Fail)
//Storyboard Layer 2 (Pass)
//Storyboard Layer 3 (Foreground)
//Storyboard Layer 4 (Overlay)
//Storyboard Sound Samples

[TimingPoints]
543,322.58064516129,4,3,1,85,1,0
543,-100,4,3,1,85,0,0
704,-100,4,3,7,85,0,0
865,-100,4,3,1,85,0,0
1188,-100,4,3,6,85,0,0
1349,-100,4,3,13,85,0,0
1510,-100,4,3,8,85,0,0
1672,-100,4,3,13,85,0,0
1833,-100,4,3,1,85,0,0
1994,-100,4,3,8,85,0,0
3123,-100,4,3,5,85,0,0
7317,-100,4,3,6,85,0,0
7478,-100,4,3,6,85,0,0
7559,-100,4,3,1,85,0,0
8123,-100,4,3,8,85,0,0
8284,-100,4,3,5,85,0,0
12317,-100,4,3,6,85,0,0
12801,-100,4,3,7,85,0,0
13446,-100,4,3,1,85,0,0
16026,-100,4,3,12,65,0,0
16188,-100,4,3,1,85,0,0
17155,-100,4,3,1,85,0,0
17478,-83.3333333333333,4,3,1,85,0,0
17801,-71.4285714285714,4,3,1,85,0,0
18123,-62.5,4,3,12,85,0,0
18284,-62.5,4,3,1,85,0,0
18607,-100,4,3,1,85,0,0
21026,-100,4,3,6,85,0,0
21188,-100,4,3,21,85,0,0
21268,-100,4,3,1,85,0,0
22639,-100,4,3,6,85,0,0
22801,-100,4,3,8,85,0,0
22962,-100,4,3,1,85,0,0
23446,-100,4,3,7,85,0,0
23768,-100,4,3,13,85,0,0
24091,-200,4,3,1,15,0,0
26349,-500,4,3,1,20,0,0
26510,-500,4,3,6,20,0,0
26994,-500,4,3,7,20,0,0
27639,-66.6666666666667,4,3,6,80,0,0
27962,-66.6666666666667,4,3,13,80,0,0
28607,-66.6666666666667,4,3,1,80,0,0
28930,-100,4,3,1,70,0,0
30865,-66.6666666666667,4,3,1,70,0,0
31510,-100,4,3,1,70,0,0
33446,-66.6666666666667,4,3,1,70,0,0
34413,-100,4,3,1,70,0,0
36026,-66.6666666666667,4,3,1,70,0,0
36188,-66.6666666666667,4,3,2,70,0,0
36349,-66.6666666666667,4,3,1,70,0,0
36994,-100,4,3,1,70,0,0
38607,-133.333333333333,4,3,13,70,0,0
39252,-100,4,3,13,70,0,0
39413,-100,4,3,1,70,0,0
40704,-100,4,1,1,85,0,0
40865,-100,4,3,1,70,0,0
41833,-100,4,3,1,70,0,0
42317,-100,4,3,1,85,0,0
42478,-100,4,3,1,70,0,0
42639,-100,4,3,12,80,0,0
42801,-100,4,3,1,70,0,0
43768,-83.3333333333333,4,3,13,70,0,0
44736,-100,4,3,1,70,0,0
45220,-100,4,3,2,70,0,0
45381,-100,4,3,1,70,0,0
45865,-100,4,3,12,70,0,0
46026,-100,4,3,1,70,0,0
46349,-66.6666666666667,4,3,1,70,0,0
47317,-100,4,3,1,70,0,0
49091,-100,4,3,6,70,0,0
49333,-100,4,3,7,70,0,0
49575,-66.6666666666667,4,3,1,80,0,0
51026,-100,4,3,8,80,0,0
51833,-100,4,3,12,80,0,0
52155,-100,4,3,1,80,0,0
56188,-100,4,3,6,80,0,0
56672,-100,4,3,7,80,0,0
57317,-100,4,3,1,80,0,0
58930,-100,4,3,6,80,0,0
59091,-100,4,3,7,80,0,0
59252,-100,4,3,8,80,0,0
59897,-76.9230769230769,4,3,1,95,0,1
61349,-76.9230769230769,4,3,12,95,0,1
61510,-76.9230769230769,4,3,12,95,0,1
64736,-76.9230769230769,4,3,6,95,0,1
65059,-76.9230769230769,4,3,1,95,0,1
75059,-76.9230769230769,4,3,6,95,0,1
75381,-76.9230769230769,4,3,1,95,0,1
79897,-76.9230769230769,4,3,7,95,0,1
80542,-100,4,3,1,75,0,0
80704,-100,4,3,6,75,0,0
81188,-100,4,3,7,75,0,0
81833,-100,4,3,1,80,0,0
83768,-66.6666666666667,4,3,1,80,0,0
84413,-100,4,3,1,80,0,0
86349,-66.6666666666667,4,3,1,80,0,0
86994,-100,4,3,1,80,0,0
88930,-66.6666666666667,4,3,1,80,0,0
89575,-100,4,3,1,80,0,0
91188,-100,4,3,1,80,0,0
91510,-66.6666666666667,4,3,5,80,0,0
91672,-66.6666666666667,4,3,1,80,0,0
92155,-100,4,3,1,80,0,0
93607,-100,4,3,2,80,0,0
93768,-100,4,3,1,80,0,0
94091,-66.6666666666667,4,3,1,80,0,0
94736,-100,4,3,1,80,0,0
97317,-100,4,3,1,80,0,0
99252,-66.6666666666667,4,3,1,80,0,0
99897,-100,4,3,6,80,0,0
100381,-100,4,3,7,80,0,0
100865,-100,4,3,1,80,0,0
100946,-100,4,3,8,80,0,0
101188,-100,4,3,1,85,0,0
101349,-100,4,3,15,85,0,0
101672,-100,4,3,1,85,0,0
101833,-100,4,3,7,85,0,0
101913,-100,4,3,1,85,0,0
102478,-100,4,3,1,90,0,0
103930,-100,4,3,8,90,0,0
104736,-100,4,3,1,90,0,0
105059,-100,4,3,1,75,0,0
107639,-100,4,3,1,90,0,0
109091,-100,4,3,8,90,0,0
110220,-100,4,3,1,75,0,0
111752,-100,4,3,1,55,0,0
111833,-100,4,3,12,75,0,0
111994,-100,4,3,12,75,0,0
112155,-100,4,3,1,80,0,0
112801,-76.9230769230769,4,3,1,95,0,1
114091,-76.9230769230769,4,3,12,95,0,1
114252,-76.9230769230769,4,3,1,95,0,1
117317,-76.9230769230769,4,3,8,95,0,1
117397,-76.9230769230769,4,3,1,95,0,1
117962,-76.9230769230769,4,3,21,95,0,1
118123,-76.9230769230769,4,3,1,95,0,1
120542,-76.9230769230769,4,3,21,85,0,1
120623,-76.9230769230769,4,3,1,95,0,1
121188,-76.9230769230769,4,3,12,95,0,1
121268,-76.9230769230769,4,3,1,95,0,1
121510,-76.9230769230769,4,3,13,95,0,1
121672,-76.9230769230769,4,3,1,95,0,1
121833,-76.9230769230769,4,3,12,95,0,1
121913,-76.9230769230769,4,3,1,95,0,1
121994,-76.9230769230769,4,3,6,95,0,1
122075,-76.9230769230769,4,3,1,95,0,1
123768,-76.9230769230769,4,3,12,95,0,1
123930,-76.9230769230769,4,3,1,95,0,1
124736,-76.9230769230769,4,3,13,95,0,1
124897,-76.9230769230769,4,3,1,95,0,1
126994,-76.9230769230769,4,3,12,95,0,1
127075,-76.9230769230769,4,3,1,95,0,1
133446,-100,4,3,1,80,0,0
133768,-100,4,3,10,80,0,0
133849,-100,4,3,1,80,0,0
134413,-100,4,3,10,80,0,0
134494,-100,4,3,1,80,0,0
134575,-100,4,3,12,80,0,0
134655,-100,4,3,1,80,0,0
138284,-100,4,3,6,80,0,0
138607,-100,4,3,1,80,0,0
141188,-100,4,3,12,80,0,0
141349,-100,4,3,1,80,0,0
143768,-200,4,3,1,80,0,0
144897,-200,4,3,1,5,0,0
145059,-200,4,3,1,60,0,0
146188,-200,4,3,1,5,0,0
146349,-200,4,3,1,60,0,0
147478,-200,4,3,1,5,0,0
147639,-200,4,3,1,60,0,0
148930,-200,4,3,1,70,0,0
152801,-200,4,3,1,75,0,0
153123,-125,4,3,1,80,0,0
153215,-125,4,3,6,80,0,0
153446,-90.9090909090909,4,3,13,85,0,0
153526,-90.9090909090909,4,3,1,85,0,0
153768,-71.4285714285714,4,3,1,90,0,0
153849,-71.4285714285714,4,3,7,90,0,0
153930,-71.4285714285714,4,3,8,90,0,0
154091,-100,4,3,1,70,0,0
154629,-100,4,3,12,70,0,0
154736,-100,4,3,1,70,0,0
159252,-100,4,3,1,70,0,0
159360,-100,4,3,12,70,0,0
161833,-100,4,3,1,75,0,0
162155,-83.3333333333333,4,3,1,80,0,0
162478,-71.4285714285714,4,3,1,85,0,0
162801,-62.5,4,3,1,90,0,0
163123,-62.5,4,3,0,90,0,0
164413,-76.9230769230769,4,3,1,80,0,0
172801,-90.9090909090909,4,3,1,80,0,0
174091,-76.9230769230769,4,3,6,80,0,0
174413,-76.9230769230769,4,3,7,80,0,0
174575,-76.9230769230769,4,3,8,80,0,0
174736,-76.9230769230769,4,3,1,90,0,1
175704,-76.9230769230769,4,3,12,90,0,1
175865,-76.9230769230769,4,3,1,90,0,1
176349,-76.9230769230769,4,3,12,90,0,1
176430,-76.9230769230769,4,3,1,90,0,1
176672,-76.9230769230769,4,3,12,90,0,1
176752,-76.9230769230769,4,3,1,90,0,1
177801,-76.9230769230769,4,3,12,90,0,1
177962,-76.9230769230769,4,3,1,90,0,1
178284,-76.9230769230769,4,3,12,90,0,1
178446,-76.9230769230769,4,3,1,90,0,1
179897,-100,4,3,1,80,0,1
180220,-100,4,3,12,80,0,1
180381,-100,4,3,12,80,0,1
180704,-100,4,3,1,80,0,1
180865,-100,4,3,12,80,0,1
181026,-100,4,3,1,80,0,1
181188,-100,4,3,12,80,0,1
181349,-100,4,3,1,80,0,1
181510,-100,4,3,12,80,0,1
181672,-100,4,3,1,80,0,1
181833,-100,4,3,12,80,0,1
181994,-100,4,3,1,80,0,1
182155,-100,4,3,12,80,0,1
182317,-100,4,3,1,80,0,1
183768,-100,4,3,1,75,0,0
188607,-100,4,3,6,75,0,0
188768,-100,4,3,7,75,0,0
188930,-133.333333333333,4,3,1,70,0,0
189575,-222.222222222221,4,3,1,70,0,0
189897,-133.333333333333,4,3,1,70,0,0
192236,-133.333333333333,4,3,1,70,0,0
196026,-133.333333333333,4,3,12,70,0,0
196188,-133.333333333333,4,3,1,70,0,0
197317,-133.333333333333,4,3,12,70,0,0
197397,-133.333333333333,4,3,1,70,0,0
198607,-133.333333333333,4,3,6,70,0,0
198688,-133.333333333333,4,3,8,70,0,0
199252,-111.111111111111,4,3,1,70,0,0
206994,-111.111111111111,4,3,1,80,0,0
208284,-100,4,3,1,85,0,0
209010,-100,4,3,6,85,0,0
209333,-100,4,3,7,85,0,0
209575,-100,4,3,1,85,0,0
211026,-100,4,3,8,85,0,0
212155,-100,4,3,1,75,0,0
214413,-100,4,3,6,75,0,0
214575,-100,4,3,7,75,0,0
214736,-100,4,3,1,75,0,0
216188,-100,4,3,8,75,0,0
217317,-100,4,3,1,75,0,0
218284,-100,4,3,1,75,0,0
218607,-100,4,3,6,75,0,0
218768,-100,4,3,1,75,0,0
219091,-100,4,3,6,75,0,0
219252,-100,4,3,1,80,0,0
219575,-100,4,3,6,80,0,0
219736,-100,4,3,12,85,0,0
220059,-100,4,3,6,85,0,0
220220,-100,4,3,6,90,0,0
220381,-100,4,3,7,90,0,0
220704,-100,4,3,8,95,0,0
221188,-76.9230769230769,4,3,1,95,0,1
225059,-76.9230769230769,4,3,12,95,0,1
225139,-76.9230769230769,4,3,1,95,0,1
231994,-76.9230769230769,4,3,12,95,0,1
232155,-76.9230769230769,4,3,1,95,0,1
233930,-76.9230769230769,4,3,12,95,0,1
234091,-76.9230769230769,4,3,1,95,0,1
240542,-76.9230769230769,4,3,1,85,0,1
240865,-76.9230769230769,4,3,6,85,0,1
241026,-76.9230769230769,4,3,7,85,0,1
241188,-76.9230769230769,4,3,1,85,0,1
241833,-100,4,3,6,85,0,0
242236,-100,4,3,1,85,0,0
247639,-100,4,3,12,85,0,0
247720,-100,4,3,1,85,0,0
251188,-100,4,3,12,85,0,0
252155,-100,4,3,1,85,0,0
252236,-100,4,3,12,85,0,0
253123,-100,4,3,1,85,0,0
253204,-100,4,3,12,85,0,0
257317,-100,4,3,1,85,0,0
257397,-100,4,3,12,85,0,0
260542,-66.6666666666667,4,3,1,85,0,0
260865,-66.6666666666667,4,3,1,85,0,0
261188,-66.6666666666667,4,3,1,90,0,0
261268,-66.6666666666667,4,3,7,90,0,0
261833,-66.6666666666667,4,3,8,90,0,0
262478,-66.6666666666667,4,3,1,95,0,1
267639,-66.6666666666667,4,3,1,95,0,1
271510,-66.6666666666667,4,3,1,85,0,0
273930,-66.6666666666667,4,3,15,85,0,0
274091,-66.6666666666667,4,3,1,85,0,0
274252,-66.6666666666667,4,3,7,85,0,0
274413,-66.6666666666667,4,3,1,85,0,0

[Colours]
Combo1 : 128,0,0
Combo2 : 64,0,0
Combo3 : 255,128,0
Combo4 : 255,255,128

[HitObjects]
78,313,543,6,0,P|78:284|87:248,1,47.5
123,156,704,1,12,0:0:0:0:
155,152,784,1,12,0:0:0:0:
188,156,865,2,0,P|215:161|233:173,1,47.5
256,287,1026,2,0,P|232:283|212:271,1,47.5
341,216,1188,1,8,0:0:0:0:
341,216,1268,1,8,0:0:0:0:
341,216,1349,2,0,P|369:221|400:232,3,47.5,4|0|8|8,0:0|0:0|0:0|0:0,0:0:0:0:
350,101,1672,2,0,P|327:94|303:89,3,47.5,8|0|0|0,0:0|0:0|0:0|0:0,0:0:0:0:
350,255,1994,5,12,0:0:0:0:
128,178,2155,1,12,0:0:0:0:
339,73,2317,1,12,0:0:0:0:
235,332,2478,1,0,0:0:0:0:
190,76,2639,2,0,B|158:42|158:42|89:26,2,95
166,310,3123,5,10,0:0:0:0:
210,326,3204,1,0,0:0:0:0:
257,322,3284,1,10,0:0:0:0:
297,296,3365,1,0,0:0:0:0:
325,257,3446,1,10,0:0:0:0:
322,209,3526,1,0,0:0:0:0:
291,172,3607,1,10,0:0:0:0:
268,129,3688,1,0,0:0:0:0:
265,81,3768,5,10,0:0:0:0:
280,35,3849,1,0,0:0:0:0:
322,13,3930,1,10,0:0:0:0:
369,16,4010,1,0,0:0:0:0:
410,38,4091,1,10,0:0:0:0:
421,84,4172,1,0,0:0:0:0:
401,127,4253,1,10,0:0:0:0:
361,152,4333,1,0,0:0:0:0:
314,162,4413,5,10,0:0:0:0:
267,157,4494,1,0,0:0:0:0:
222,139,4575,1,10,0:0:0:0:
174,136,4656,1,0,0:0:0:0:
130,155,4736,1,10,0:0:0:0:
95,187,4817,1,0,0:0:0:0:
75,230,4898,1,10,0:0:0:0:
66,276,4978,1,0,0:0:0:0:
78,321,5059,5,10,0:0:0:0:
114,351,5139,1,0,0:0:0:0:
159,364,5220,2,0,P|191:367|219:363,1,47.5,8|0,0:0|0:0,0:0:0:0:
407,272,5381,2,0,L|425:334,1,47.5,8|0,0:0|0:0,0:0:0:0:
248,235,5542,2,0,L|230:173,1,47.5,8|0,0:0|0:0,0:0:0:0:
336,19,5704,5,10,0:0:0:0:
376,42,5784,1,0,0:0:0:0:
394,85,5865,1,10,0:0:0:0:
399,132,5946,1,0,0:0:0:0:
390,178,6026,1,10,0:0:0:0:
372,222,6107,1,0,0:0:0:0:
330,245,6188,1,10,0:0:0:0:
282,242,6268,1,0,0:0:0:0:
242,214,6349,5,10,0:0:0:0:
228,168,6430,1,0,0:0:0:0:
250,126,6510,1,10,0:0:0:0:
264,80,6591,1,0,0:0:0:0:
244,36,6672,1,10,0:0:0:0:
199,20,6752,1,0,0:0:0:0:
151,22,6833,1,10,0:0:0:0:
111,48,6913,1,0,0:0:0:0:
81,85,6994,6,8,P|74:115|73:148,1,47.5
93,259,7155,5,8,0:0:0:0:
125,265,7236,1,0,0:0:0:0:
156,254,7317,2,0,P|187:233|200:212,1,47.5,12|0,0:0|0:0,0:0:0:0:
269,127,7478,5,12,0:0:0:0:
300,114,7559,1,0,0:0:0:0:
332,113,7639,2,8,P|363:122|384:133,1,47.5
472,209,7801,6,0,P|480:238|480:269,1,47.5
410,352,7962,2,0,P|383:362|356:363,1,47.5,10|0,0:0|0:0,0:0:0:0:
240,346,8123,2,8,P|219:318|207:289,1,47.5
171,152,8284,5,8,0:0:0:0:
180,105,8365,1,0,0:0:0:0:
216,74,8446,1,2,0:0:0:0:
262,65,8526,1,0,0:0:0:0:
306,83,8607,1,8,0:0:0:0:
333,122,8688,1,0,0:0:0:0:
370,150,8768,1,8,0:0:0:0:
417,156,8849,1,0,0:0:0:0:
456,129,8930,5,10,0:0:0:0:
411,112,9010,1,0,0:0:0:0:
363,119,9091,1,10,0:0:0:0:
321,142,9172,1,0,0:0:0:0:
274,148,9252,1,2,0:0:0:0:
227,138,9333,1,0,0:0:0:0:
185,115,9413,1,10,0:0:0:0:
149,83,9494,1,0,0:0:0:0:
129,39,9575,5,8,0:0:0:0:
108,81,9655,1,0,0:0:0:0:
98,127,9736,1,10,0:0:0:0:
102,174,9817,1,0,0:0:0:0:
124,215,9897,1,2,0:0:0:0:
162,243,9978,1,0,0:0:0:0:
208,251,10059,1,10,0:0:0:0:
253,240,10139,1,0,0:0:0:0:
289,209,10220,1,2,0:0:0:0:
320,173,10301,1,0,0:0:0:0:
366,166,10381,6,0,P|387:201|395:236,1,47.5,8|0,0:0|0:0,0:0:0:0:
374,346,10542,2,0,P|337:345|310:334,1,47.5,8|0,0:0|0:0,0:0:0:0:
224,259,10704,2,0,P|220:233|228:195,1,47.5,8|0,0:0|0:0,0:0:0:0:
281,85,10866,5,8,0:0:0:0:
258,43,10946,1,0,0:0:0:0:
215,21,11027,1,0,0:0:0:0:
167,15,11108,1,0,0:0:0:0:
121,27,11188,1,8,0:0:0:0:
83,55,11268,1,0,0:0:0:0:
61,97,11349,1,8,0:0:0:0:
69,143,11430,1,0,0:0:0:0:
98,179,11510,5,0,0:0:0:0:
142,197,11591,1,0,0:0:0:0:
189,191,11672,1,8,0:0:0:0:
230,168,11752,1,0,0:0:0:0:
273,147,11833,1,8,0:0:0:0:
320,145,11913,1,0,0:0:0:0:
363,164,11994,1,8,0:0:0:0:
392,188,12075,1,0,0:0:0:0:
413,218,12155,5,0,0:0:0:0:
424,254,12236,1,0,0:0:0:0:
424,292,12317,1,12,0:0:0:0:
413,328,12397,1,4,0:0:0:0:
389,358,12478,1,12,0:0:0:0:
353,371,12559,1,4,0:0:0:0:
315,365,12639,1,10,0:0:0:0:
289,336,12720,1,2,0:0:0:0:
283,283,12801,5,14,0:0:0:0:
295,232,12881,1,4,0:0:0:0:
289,179,12962,1,14,0:0:0:0:
265,132,13042,1,6,0:0:0:0:
226,96,13123,1,14,0:0:0:0:
178,73,13204,1,4,0:0:0:0:
126,67,13284,1,12,0:0:0:0:
76,83,13365,1,4,0:0:0:0:
38,120,13446,6,0,P|17:181|31:235,1,95,0|8,0:0|0:0,0:0:0:0:
221,354,13768,1,0,0:0:0:0:
235,318,13849,1,0,0:0:0:0:
236,279,13930,2,0,B|237:235|237:235|218:176,1,95,8|0,0:0|0:0,0:0:0:0:
63,65,14252,1,8,0:0:0:0:
63,65,14333,1,0,0:0:0:0:
63,65,14413,1,0,0:0:0:0:
168,353,14575,2,0,P|168:288|177:236,1,95
381,37,14897,5,10,0:0:0:0:
381,37,14978,1,0,0:0:0:0:
381,37,15059,1,0,0:0:0:0:
461,307,15220,2,0,B|414:328|414:328|359:312,1,95,10|0,0:0|0:0,0:0:0:0:
293,121,15542,6,0,L|299:66,1,47.5
107,39,15704,2,0,L|115:86,1,47.5
204,249,15865,2,0,L|211:200,1,47.5,8|0,0:0|0:0,0:0:0:0:
51,159,16026,6,0,P|46:214|56:265,1,95,2|8,0:0|0:0,0:0:0:0:
290,367,16349,1,0,0:0:0:0:
306,332,16430,1,0,0:0:0:0:
304,294,16510,2,0,P|294:235|307:189,1,95,10|0,0:0|0:0,0:0:0:0:
421,89,16833,1,10,0:0:0:0:
50,157,16994,5,0,0:0:0:0:
50,157,17075,1,0,0:0:0:0:
50,157,17155,2,0,P|59:98|86:60,1,95,10|0,0:0|0:0,0:0:0:0:
188,318,17478,2,0,P|118:332|69:322,1,113.999996520996,8|0,0:0|0:0,0:0:0:0:
421,363,17801,2,0,L|432:215,1,132.999995941162,8|0,0:0|0:0,0:0:0:0:
176,41,18123,6,0,P|224:33|262:38,1,76
425,117,18284,2,0,L|434:37,1,76
275,105,18446,2,0,L|283:180,1,76
373,277,18607,1,0,0:0:0:0:
373,277,18688,1,0,0:0:0:0:
373,277,18768,1,8,0:0:0:0:
83,186,18930,5,0,0:0:0:0:
83,186,19010,1,0,0:0:0:0:
83,186,19091,2,0,P|72:119|86:67,1,95,8|0,0:0|0:0,0:0:0:0:
193,22,19413,2,0,P|204:89|190:141,1,95,8|0,0:0|0:0,0:0:0:0:
103,204,19655,1,0,0:0:0:0:
103,204,19736,2,0,P|92:137|106:85,1,95,10|0,0:0|0:0,0:0:0:0:
273,216,20059,1,10,0:0:0:0:
418,355,20220,1,0,0:0:0:0:
437,328,20301,1,0,0:0:0:0:
439,295,20381,1,10,0:0:0:0:
372,144,20542,1,0,0:0:0:0:
140,294,20704,6,0,P|116:316|84:328,1,47.5,8|0,0:0|0:0,0:0:0:0:
181,171,20865,2,0,P|205:149|237:137,1,47.5
129,331,21026,2,0,P|105:353|73:365,1,47.5,10|0,0:0|0:0,0:0:0:0:
193,128,21188,5,2,0:0:0:0:
234,119,21268,1,0,0:0:0:0:
276,125,21349,1,8,0:0:0:0:
313,146,21430,1,0,0:0:0:0:
335,181,21510,1,0,0:0:0:0:
348,221,21591,1,0,0:0:0:0:
341,263,21672,5,10,0:0:0:0:
336,309,21752,1,0,0:0:0:0:
362,349,21833,1,0,0:0:0:0:
407,362,21913,1,0,0:0:0:0:
453,351,21994,1,10,0:0:0:0:
487,318,22075,1,0,0:0:0:0:
492,271,22155,1,0,0:0:0:0:
480,224,22236,1,0,0:0:0:0:
445,191,22317,5,8,0:0:0:0:
391,172,22397,1,0,0:0:0:0:
340,144,22478,2,0,P|308:117|290:93,1,47.5
209,30,22639,5,12,0:0:0:0:
155,49,22720,1,12,0:0:0:0:
118,92,22801,2,8,P|97:139|96:168,1,47.5
96,276,22962,5,8,0:0:0:0:
144,327,23042,1,8,0:0:0:0:
214,339,23123,1,14,0:0:0:0:
279,309,23204,1,8,0:0:0:0:
318,250,23284,1,8,0:0:0:0:
310,178,23365,1,8,0:0:0:0:
298,107,23446,1,8,0:0:0:0:
324,41,23526,1,8,0:0:0:0:
389,13,23607,1,8,0:0:0:0:
458,30,23688,1,8,0:0:0:0:
500,86,23768,5,12,0:0:0:0:
151,184,24091,5,8,0:0:0:0:
77,259,24253,2,0,L|66:287,2,23.75,0|0|2,0:0|0:0|0:0,0:0:0:0:
361,184,24575,5,8,0:0:0:0:
435,259,24736,2,0,L|446:287,2,23.75,2|0|0,0:0|0:0|0:0,0:0:0:0:
255,237,25059,5,8,0:0:0:0:
256,331,25221,2,0,L|256:362,2,23.75,0|0|2,0:0|0:0|0:0,0:0:0:0:
257,147,25542,5,8,0:0:0:0:
251,54,25704,2,0,L|252:24,2,23.75,2|0|0,0:0|0:0|0:0,0:0:0:0:
362,141,26026,6,0,L|402:157,2,23.75,2|0|0,0:0|0:0|0:0,0:0:0:0:
205,220,26349,6,2,L|194:238,1,19,6|10,0:0|0:0,0:0:0:0:
136,336,26672,1,8,0:0:0:0:
136,336,26752,1,8,0:0:0:0:
136,336,26833,1,8,0:0:0:0:
136,104,26994,6,8,L|147:122,1,19,10|10,0:0|0:0,0:0:0:0:
205,220,27317,1,8,0:0:0:0:
205,220,27397,1,8,0:0:0:0:
205,220,27478,1,14,0:0:0:0:
408,39,27639,5,14,0:0:0:0:
423,78,27720,1,14,0:0:0:0:
428,120,27801,1,14,0:0:0:0:
425,162,27881,1,14,0:0:0:0:
414,203,27962,2,0,P|401:291|417:353,1,142.500005435944,4|0,0:0|0:0,0:0:0:0:
98,203,28284,2,0,P|111:291|95:353,1,142.500005435944,4|0,0:0|0:0,0:0:0:0:
286,30,28607,1,4,0:0:0:0:
305,76,28688,1,0,0:0:0:0:
306,125,28768,1,8,0:0:0:0:
292,173,28849,1,8,0:0:0:0:
271,216,28930,6,0,P|263:287|272:328,1,95,6|8,0:0|0:0,0:0:0:0:
400,140,29252,1,0,0:0:0:0:
400,140,29333,1,0,0:0:0:0:
400,140,29413,1,8,0:0:0:0:
215,50,29575,1,0,0:0:0:0:
156,254,29736,5,10,0:0:0:0:
344,56,29897,1,0,0:0:0:0:
344,56,29978,1,0,0:0:0:0:
344,56,30059,1,10,0:0:0:0:
112,168,30220,5,0,0:0:0:0:
337,355,30381,2,0,P|344:308|337:248,1,95,10|0,0:0|0:0,0:0:0:0:
331,243,30623,1,0,0:0:0:0:
331,243,30704,1,10,0:0:0:0:
122,31,30865,6,0,B|109:77|109:77|122:133|122:133|103:202,1,142.500005435944,0|2,0:0|0:0,0:0:0:0:
61,337,31188,1,0,0:0:0:0:
61,337,31268,1,0,0:0:0:0:
61,337,31349,1,10,0:0:0:0:
280,65,31510,6,0,P|328:62|375:68,1,95,0|8,0:0|0:0,0:0:0:0:
81,28,31833,1,0,0:0:0:0:
68,73,31913,1,0,0:0:0:0:
59,119,31994,2,0,B|66:165|66:165|105:214,1,95,8|0,0:0|0:0,0:0:0:0:
298,261,32317,1,8,0:0:0:0:
188,125,32478,1,0,0:0:0:0:
188,125,32559,1,0,0:0:0:0:
188,125,32639,1,8,0:0:0:0:
152,338,32801,5,0,0:0:0:0:
108,132,32962,1,10,0:0:0:0:
281,247,33123,1,0,0:0:0:0:
281,247,33204,1,0,0:0:0:0:
281,247,33284,1,10,0:0:0:0:
79,222,33446,6,0,P|69:142|98:70,1,142.500005435944,0|10,0:0|0:0,0:0:0:0:
256,328,33768,1,0,0:0:0:0:
256,328,33849,1,0,0:0:0:0:
256,328,33930,1,10,0:0:0:0:
443,41,34091,2,0,L|431:192,1,142.500005435944,4|10,0:0|0:0,0:0:0:0:
76,319,34413,5,0,0:0:0:0:
121,332,34493,1,0,0:0:0:0:
167,326,34574,1,10,0:0:0:0:
307,167,34736,1,0,0:0:0:0:
130,67,34897,1,8,0:0:0:0:
194,263,35059,1,0,0:0:0:0:
194,263,35139,1,0,0:0:0:0:
194,263,35220,1,10,0:0:0:0:
282,53,35381,5,0,0:0:0:0:
81,196,35542,1,10,0:0:0:0:
363,208,35704,1,0,0:0:0:0:
363,208,35784,1,0,0:0:0:0:
363,208,35865,1,10,0:0:0:0:
87,43,36026,6,0,P|77:135|102:191,1,142.500005435944,0|10,0:0|0:0,0:0:0:0:
171,104,36349,1,0,0:0:0:0:
171,104,36430,1,0,0:0:0:0:
171,104,36510,1,10,0:0:0:0:
376,309,36672,2,0,P|358:229|369:154,1,142.500005435944,0|10,0:0|0:0,0:0:0:0:
61,303,36994,5,0,0:0:0:0:
90,286,37075,1,0,0:0:0:0:
121,275,37155,2,0,B|162:270|191:301|251:288,1,95,10|0,0:0|0:0,0:0:0:0:
400,350,37478,1,8,0:0:0:0:
284,162,37639,1,0,0:0:0:0:
284,162,37720,1,0,0:0:0:0:
284,162,37801,1,10,0:0:0:0:
116,346,37962,5,0,0:0:0:0:
360,256,38123,1,10,0:0:0:0:
122,190,38284,1,0,0:0:0:0:
122,190,38365,1,0,0:0:0:0:
122,190,38446,1,10,0:0:0:0:
344,52,38607,6,0,P|349:94|339:131,1,71.2500027179719,4|10,0:0|0:0,0:0:0:0:
123,94,38849,1,8,0:0:0:0:
111,111,38930,2,0,P|102:160|109:198,1,71.2500027179719,6|0,0:0|0:0,0:0:0:0:
218,322,39172,1,8,0:0:0:0:
237,334,39252,6,0,B|251:300|251:300|240:226,1,95,6|8,0:0|0:0,0:0:0:0:
151,85,39575,1,0,0:0:0:0:
192,62,39655,1,0,0:0:0:0:
239,65,39736,1,10,0:0:0:0:
364,215,39897,1,0,0:0:0:0:
431,60,40059,1,10,0:0:0:0:
460,305,40220,1,0,0:0:0:0:
460,305,40301,1,0,0:0:0:0:
460,305,40381,1,10,0:0:0:0:
328,113,40542,1,0,0:0:0:0:
250,348,40704,6,0,P|189:353|152:336,1,95,10|0,0:1|0:0,0:0:0:0:
148,316,40946,1,0,0:0:0:0:
148,316,41026,1,10,0:0:0:0:
221,89,41188,2,0,P|229:140|215:195,1,95,0|10,0:0|0:0,0:0:0:0:
54,61,41510,1,0,0:0:0:0:
54,61,41591,1,0,0:0:0:0:
54,61,41672,1,10,0:0:0:0:
250,295,41833,5,0,0:0:0:0:
149,133,41994,1,10,0:0:0:0:
73,332,42155,1,0,0:0:0:0:
73,332,42236,1,0,0:0:0:0:
73,332,42317,1,10,0:0:0:0:
265,200,42478,1,0,0:0:0:0:
59,166,42639,5,10,0:0:0:0:
227,341,42801,1,0,0:0:0:0:
227,341,42882,1,0,0:0:0:0:
227,341,42962,1,8,0:0:0:0:
192,80,43123,1,0,0:0:0:0:
381,352,43284,2,0,P|402:298|397:247,1,95,8|0,0:0|0:0,0:0:0:0:
387,238,43526,1,0,0:0:0:0:
387,238,43607,1,8,0:0:0:0:
106,136,43768,6,0,L|86:12,1,113.999996520996,4|8,0:0|0:0,0:0:0:0:
223,199,44010,1,8,0:0:0:0:
238,187,44091,2,0,L|270:76,1,113.999996520996,4|8,0:0|0:0,0:0:0:0:
113,314,44333,1,8,0:0:0:0:
97,331,44413,2,0,L|79:197,1,113.999996520996,4|8,0:0|0:0,0:0:0:0:
402,217,44736,5,0,0:0:0:0:
424,174,44817,1,0,0:0:0:0:
424,126,44897,2,0,P|392:86|345:72,1,95,8|0,0:0|0:0,0:0:0:0:
235,300,45220,1,10,0:0:0:0:
178,62,45381,1,0,0:0:0:0:
178,62,45462,1,0,0:0:0:0:
178,62,45542,1,8,0:0:0:0:
70,197,45704,1,0,0:0:0:0:
317,89,45865,2,0,P|341:142|339:190,1,95,10|0,0:0|0:0,0:0:0:0:
330,203,46107,1,0,0:0:0:0:
330,203,46188,1,8,0:0:0:0:
108,49,46349,6,0,B|98:97|98:97|109:206,1,142.500005435944,0|8,0:0|0:0,0:0:0:0:
293,349,46672,1,0,0:0:0:0:
293,349,46752,1,0,0:0:0:0:
293,349,46833,1,0,0:0:0:0:
44,241,46994,2,0,B|84:206|84:206|192:197,1,142.500005435944,0|10,0:0|0:0,0:0:0:0:
443,235,47317,5,0,0:0:0:0:
443,235,47397,1,0,0:0:0:0:
443,235,47478,2,0,L|436:161,1,47.5,10|0,0:0|0:0,0:0:0:0:
336,33,47639,1,0,0:0:0:0:
336,33,47720,1,0,0:0:0:0:
336,33,47801,2,0,L|279:46,1,47.5,10|0,0:0|0:0,0:0:0:0:
69,147,47962,2,0,L|126:134,1,47.5
350,155,48123,2,0,L|303:165,1,47.5,10|0,0:0|0:0,0:0:0:0:
179,285,48284,5,0,0:0:0:0:
215,295,48365,1,0,0:0:0:0:
253,294,48446,1,8,0:0:0:0:
285,275,48526,1,0,0:0:0:0:
310,246,48607,1,8,0:0:0:0:
316,208,48688,1,0,0:0:0:0:
310,170,48768,1,10,0:0:0:0:
311,131,48849,1,0,0:0:0:0:
320,94,48930,6,0,P|333:65|355:47,1,47.5,10|0,0:0|0:0,0:0:0:0:
478,52,49091,2,8,P|474:83|459:107,1,47.5
346,168,49252,2,8,P|344:191|351:214,1,47.5
468,234,49413,2,8,P|469:257|462:280,1,47.5
372,347,49575,5,14,0:0:0:0:
59,142,49897,5,14,0:0:0:0:
367,85,50059,1,10,0:0:0:0:
114,314,50381,5,14,0:0:0:0:
395,186,50704,5,14,0:0:0:0:
145,63,51026,5,12,0:0:0:0:
228,314,51188,1,12,0:0:0:0:
395,86,51349,1,12,0:0:0:0:
92,217,51510,1,12,0:0:0:0:
405,251,51672,1,12,0:0:0:0:
208,65,51833,2,0,P|210:31|222:10,3,47.5,10|0|0|0,0:0|0:0|0:0|0:0,0:0:0:0:
294,63,52155,5,10,0:0:0:0:
329,87,52236,1,0,0:0:0:0:
348,125,52317,1,0,0:0:0:0:
352,167,52397,1,0,0:0:0:0:
334,206,52478,1,10,0:0:0:0:
309,241,52559,1,0,0:0:0:0:
297,281,52639,1,0,0:0:0:0:
305,323,52720,1,0,0:0:0:0:
336,352,52801,2,8,B|419:368|419:368|451:331|451:331|433:282|429:225|480:182|480:182|493:133|468:95,1,380,12|8,0:0|0:0,0:0:0:0:
389,69,53526,5,8,0:0:0:0:
357,98,53607,1,0,0:0:0:0:
324,125,53688,1,0,0:0:0:0:
287,146,53768,1,2,0:0:0:0:
245,157,53849,1,0,0:0:0:0:
202,154,53930,1,0,0:0:0:0:
162,137,54010,1,0,0:0:0:0:
119,134,54091,2,8,B|59:162|59:162|72:239|42:317|42:317|93:362|93:362|164:361,1,332.5,12|8,0:0|0:0,0:0:0:0:
319,343,54736,6,0,P|339:294|332:244,1,95,4|0,0:0|0:0,0:0:0:0:
183,54,55059,1,4,0:0:0:0:
109,281,55220,1,0,0:0:0:0:
372,147,55542,5,4,0:0:0:0:
53,171,55865,5,4,0:0:0:0:
270,40,56188,5,12,0:0:0:0:
105,311,56349,1,12,0:0:0:0:
409,216,56510,1,12,0:0:0:0:
131,72,56672,1,12,0:0:0:0:
227,363,56833,1,12,0:0:0:0:
381,86,56994,1,12,0:0:0:0:
52,178,57155,1,12,0:0:0:0:
367,295,57317,5,8,0:0:0:0:
378,254,57397,1,0,0:0:0:0:
359,215,57478,1,0,0:0:0:0:
336,178,57559,1,0,0:0:0:0:
321,137,57639,1,2,0:0:0:0:
317,94,57720,1,0,0:0:0:0:
332,53,57801,1,0,0:0:0:0:
367,29,57881,1,0,0:0:0:0:
409,25,57962,5,10,0:0:0:0:
449,38,58042,1,0,0:0:0:0:
473,73,58123,1,0,0:0:0:0:
470,115,58204,1,0,0:0:0:0:
458,155,58284,6,0,P|435:185|400:211,1,47.5,8|0,0:0|0:0,0:0:0:0:
266,255,58446,2,0,P|258:227|258:190,1,47.5,8|0,0:0|0:0,0:0:0:0:
251,71,58607,5,0,0:0:0:0:
226,36,58688,1,0,0:0:0:0:
186,21,58768,1,8,0:0:0:0:
143,24,58849,1,8,0:0:0:0:
102,39,58930,6,8,P|79:69|71:102,1,47.5
98,230,59091,2,0,P|121:200|129:167,1,47.5,0|8,0:0|0:0,0:0:0:0:
176,88,59252,5,10,0:0:0:0:
242,61,59333,1,10,0:0:0:0:
312,60,59413,1,10,0:0:0:0:
379,82,59494,1,10,0:0:0:0:
438,121,59575,1,10,0:0:0:0:
468,184,59655,1,10,0:0:0:0:
472,255,59736,1,10,0:0:0:0:
442,320,59817,1,10,0:0:0:0:
376,354,59897,5,0,0:0:0:0:
322,130,60059,1,0,0:0:0:0:
322,130,60139,1,0,0:0:0:0:
322,130,60220,1,8,0:0:0:0:
237,266,60381,1,0,0:0:0:0:
52,181,60542,2,0,B|46:110|46:110|64:37,1,123.499994346619,0|8,0:0|0:0,0:0:0:0:
148,330,60864,1,0,0:0:0:0:
148,330,60945,1,0,0:0:0:0:
148,330,61026,1,10,0:0:0:0:
235,58,61188,5,0,0:0:0:0:
340,285,61349,1,10,0:0:0:0:
342,13,61510,1,0,0:0:0:0:
237,337,61672,1,8,0:0:0:0:
215,75,61833,2,0,P|171:86|136:101,1,61.7499971733095
66,267,61994,2,0,P|51:218|50:181,1,61.7499971733095,8|0,0:0|0:0,0:0:0:0:
270,182,62155,2,0,P|299:207|319:245,1,61.7499971733095
115,114,62317,2,0,P|134:79|163:51,1,61.7499971733095,8|0,0:0|0:0,0:0:0:0:
346,48,62478,5,8,0:0:0:0:
362,88,62559,1,0,0:0:0:0:
365,130,62639,1,12,0:0:0:0:
353,171,62720,1,0,0:0:0:0:
334,210,62801,1,0,0:0:0:0:
329,252,62881,1,0,0:0:0:0:
337,294,62962,1,12,0:0:0:0:
355,332,63042,1,0,0:0:0:0:
385,363,63123,5,8,0:0:0:0:
428,363,63204,1,0,0:0:0:0:
463,338,63284,1,12,0:0:0:0:
475,296,63365,1,0,0:0:0:0:
463,254,63446,1,0,0:0:0:0:
432,223,63526,1,0,0:0:0:0:
405,188,63607,1,12,0:0:0:0:
388,147,63688,1,0,0:0:0:0:
392,104,63768,5,0,0:0:0:0:
412,142,63849,1,0,0:0:0:0:
405,184,63930,1,12,0:0:0:0:
383,221,64010,1,0,0:0:0:0:
346,244,64091,1,0,0:0:0:0:
302,249,64172,1,0,0:0:0:0:
260,239,64252,1,12,0:0:0:0:
224,213,64333,1,0,0:0:0:0:
200,176,64413,1,0,0:0:0:0:
159,159,64494,1,0,0:0:0:0:
116,168,64575,1,12,0:0:0:0:
83,196,64655,1,0,0:0:0:0:
70,237,64736,5,12,0:0:0:0:
74,280,64817,1,12,0:0:0:0:
102,312,64897,1,12,0:0:0:0:
145,316,64978,1,12,0:0:0:0:
178,287,65059,5,0,0:0:0:0:
114,66,65220,1,0,0:0:0:0:
114,66,65301,1,0,0:0:0:0:
114,66,65381,1,0,0:0:0:0:
362,163,65542,1,0,0:0:0:0:
178,235,65704,1,0,0:0:0:0:
297,43,65865,1,0,0:0:0:0:
284,353,66026,5,0,0:0:0:0:
256,319,66107,1,0,0:0:0:0:
237,279,66188,2,0,P|224:241|238:153,1,123.499994346619,10|0,0:0|0:0,0:0:0:0:
408,117,66510,2,0,P|365:57|301:30,1,123.499994346619,10|0,0:0|0:0,0:0:0:0:
297,43,66752,1,0,0:0:0:0:
297,43,66833,1,10,0:0:0:0:
82,283,66994,5,0,0:0:0:0:
209,87,67155,1,10,0:0:0:0:
275,351,67317,1,0,0:0:0:0:
275,351,67397,1,0,0:0:0:0:
275,351,67478,1,10,0:0:0:0:
77,184,67639,5,12,0:0:0:0:
67,141,67720,1,0,0:0:0:0:
79,99,67801,1,10,0:0:0:0:
110,69,67881,1,0,0:0:0:0:
149,51,67962,1,0,0:0:0:0:
191,51,68042,1,0,0:0:0:0:
230,69,68123,1,10,0:0:0:0:
262,97,68204,1,0,0:0:0:0:
300,115,68284,1,0,0:0:0:0:
342,121,68365,1,0,0:0:0:0:
384,114,68446,1,10,0:0:0:0:
422,95,68526,1,0,0:0:0:0:
450,62,68607,6,0,L|469:130,1,61.7499971733095
384,190,68768,2,0,L|401:250,1,61.7499971733095,10|0,0:0|0:0,0:0:0:0:
298,95,68930,2,0,L|281:154,1,61.7499971733095
205,297,69091,2,0,L|188:237,1,61.7499971733095,10|0,0:0|0:0,0:0:0:0:
150,36,69252,2,0,L|166:95,1,61.7499971733095
53,227,69413,2,0,L|69:167,1,61.7499971733095,10|0,0:0|0:0,0:0:0:0:
252,49,69575,5,0,0:0:0:0:
276,91,69655,1,0,0:0:0:0:
281,140,69736,1,8,0:0:0:0:
273,188,69817,1,0,0:0:0:0:
269,236,69897,1,0,0:0:0:0:
277,284,69978,1,8,0:0:0:0:
302,327,70059,1,8,0:0:0:0:
346,349,70139,1,8,0:0:0:0:
395,357,70220,6,0,P|450:331|484:235,1,123.499994346619,4|10,0:0|0:0,0:0:0:0:
286,76,70542,1,0,0:0:0:0:
286,76,70623,1,0,0:0:0:0:
286,76,70704,2,0,P|352:54|417:71,1,123.499994346619,10|0,0:0|0:0,0:0:0:0:
259,310,71026,1,10,0:0:0:0:
136,37,71188,5,0,0:0:0:0:
136,37,71268,1,0,0:0:0:0:
136,37,71349,2,0,B|109:76|109:76|94:174,1,123.499994346619,10|0,0:0|0:0,0:0:0:0:
138,330,71672,1,10,0:0:0:0:
268,170,71833,1,0,0:0:0:0:
268,170,71913,1,0,0:0:0:0:
268,170,71994,1,10,0:0:0:0:
86,83,72155,6,0,B|75:51|75:51|76:13,3,61.7499971733095,8|0|10|0,0:0|0:0|0:0|0:0,0:0:0:0:
171,136,72478,2,0,B|182:104|182:104|181:66,3,61.7499971733095,8|0|10|0,0:0|0:0|0:0|0:0,0:0:0:0:
46,214,72801,5,12,0:0:0:0:
32,255,72881,1,0,0:0:0:0:
34,298,72962,1,10,0:0:0:0:
59,332,73042,1,0,0:0:0:0:
100,343,73123,1,0,0:0:0:0:
142,334,73204,1,0,0:0:0:0:
169,301,73284,1,10,0:0:0:0:
178,258,73365,1,0,0:0:0:0:
164,216,73446,5,0,0:0:0:0:
161,173,73526,1,0,0:0:0:0:
174,131,73607,1,10,0:0:0:0:
203,98,73688,1,0,0:0:0:0:
244,89,73768,1,0,0:0:0:0:
284,105,73849,1,0,0:0:0:0:
315,134,73930,1,10,0:0:0:0:
351,156,74010,1,0,0:0:0:0:
393,164,74091,5,4,0:0:0:0:
433,147,74172,1,0,0:0:0:0:
462,115,74252,1,10,0:0:0:0:
467,71,74333,1,0,0:0:0:0:
450,31,74413,1,0,0:0:0:0:
413,7,74494,1,0,0:0:0:0:
369,7,74575,1,10,0:0:0:0:
329,23,74655,1,0,0:0:0:0:
307,60,74736,5,6,0:0:0:0:
339,89,74817,1,0,0:0:0:0:
352,129,74897,1,10,0:0:0:0:
359,171,74978,1,0,0:0:0:0:
355,214,75059,1,8,0:0:0:0:
341,254,75139,1,8,0:0:0:0:
312,287,75220,1,14,0:0:0:0:
276,311,75301,1,8,0:0:0:0:
233,309,75381,6,0,B|187:298|137:348|75:299,1,123.499994346619,4|10,0:0|0:0,0:0:0:0:
31,108,75704,1,0,0:0:0:0:
31,108,75784,1,0,0:0:0:0:
31,108,75865,2,10,B|67:129|67:129|166:119,1,123.499994346619,10|0,0:0|0:0,0:0:0:0:
371,81,76188,1,10,0:0:0:0:
241,213,76349,5,0,0:0:0:0:
241,213,76430,1,0,0:0:0:0:
241,213,76510,1,10,0:0:0:0:
275,57,76672,1,0,0:0:0:0:
373,278,76833,1,10,0:0:0:0:
149,145,76994,1,0,0:0:0:0:
149,145,77075,1,0,0:0:0:0:
149,145,77155,1,10,0:0:0:0:
228,306,77317,5,0,0:0:0:0:
180,41,77478,1,10,0:0:0:0:
308,235,77639,2,0,L|312:171,3,61.7499971733095,12|0|10|0,0:0|0:0|0:0|0:0,0:0:0:0:
183,345,77962,5,8,0:0:0:0:
145,324,78042,1,0,0:0:0:0:
125,285,78123,1,10,0:0:0:0:
126,241,78204,1,0,0:0:0:0:
149,205,78284,1,8,0:0:0:0:
167,165,78365,1,0,0:0:0:0:
172,121,78446,1,10,0:0:0:0:
163,78,78526,1,0,0:0:0:0:
136,43,78607,5,0,0:0:0:0:
111,79,78688,1,0,0:0:0:0:
110,121,78768,1,10,0:0:0:0:
126,161,78849,1,0,0:0:0:0:
154,193,78930,1,0,0:0:0:0:
192,212,79010,1,0,0:0:0:0:
235,216,79091,1,10,0:0:0:0:
276,202,79172,1,0,0:0:0:0:
307,172,79252,6,0,P|329:139|334:113,1,61.7499971733095
436,45,79413,1,10,0:0:0:0:
436,45,79494,1,0,0:0:0:0:
436,45,79575,2,0,P|441:102|438:126,1,61.7499971733095
417,249,79736,2,0,P|396:290|369:319,1,61.7499971733095
240,337,79897,5,8,0:0:0:0:
208,298,79978,1,8,0:0:0:0:
198,249,80059,1,10,0:0:0:0:
209,201,80139,1,10,0:0:0:0:
216,151,80220,1,12,0:0:0:0:
207,102,80301,1,8,0:0:0:0:
177,62,80381,2,8,P|145:47|106:42,1,61.7499971733095,12|8,0:0|0:0,0:0:0:0:
16,70,80542,5,12,0:0:0:0:
7,102,80623,1,0,0:0:0:0:
11,135,80704,1,8,0:0:0:0:
29,162,80784,1,8,0:0:0:0:
52,186,80865,5,12,0:0:0:0:
69,219,80946,1,8,0:0:0:0:
83,253,81026,1,8,0:0:0:0:
84,291,81107,1,8,0:0:0:0:
63,323,81188,5,10,0:0:0:0:
46,283,81268,1,8,0:0:0:0:
50,240,81349,1,8,0:0:0:0:
70,202,81430,1,8,0:0:0:0:
106,180,81510,5,12,0:0:0:0:
152,171,81591,1,12,0:0:0:0:
196,187,81672,1,12,0:0:0:0:
243,185,81752,1,12,0:0:0:0:
287,166,81833,6,0,P|312:119|311:71,1,95,14|8,0:0|0:0,0:0:0:0:
201,17,82155,1,0,0:0:0:0:
201,17,82236,1,0,0:0:0:0:
201,17,82317,1,10,0:0:0:0:
136,275,82478,1,0,0:0:0:0:
74,132,82639,5,10,0:0:0:0:
51,348,82801,1,0,0:0:0:0:
51,348,82881,1,0,0:0:0:0:
51,348,82962,1,10,0:0:0:0:
197,204,83123,1,0,0:0:0:0:
348,358,83284,2,0,P|359:299|347:250,1,95,10|0,0:0|0:0,0:0:0:0:
343,243,83526,1,0,0:0:0:0:
343,243,83607,1,10,0:0:0:0:
164,42,83768,6,0,B|205:25|205:25|323:31,1,142.500005435944,0|10,0:0|0:0,0:0:0:0:
213,327,84091,2,0,B|172:344|172:344|54:338,1,142.500005435944,0|10,0:0|0:0,0:0:0:0:
444,125,84413,6,0,P|458:182|441:231,1,95,0|10,0:0|0:0,0:0:0:0:
308,69,84736,1,0,0:0:0:0:
308,69,84817,1,0,0:0:0:0:
308,69,84897,1,10,0:0:0:0:
277,286,85059,1,0,0:0:0:0:
123,143,85220,1,8,0:0:0:0:
386,223,85381,5,0,0:0:0:0:
398,192,85462,1,0,0:0:0:0:
398,159,85542,2,0,P|388:100|360:57,1,95,8|0,0:0|0:0,0:0:0:0:
141,39,85865,1,8,0:0:0:0:
295,183,86026,1,0,0:0:0:0:
295,183,86107,1,0,0:0:0:0:
295,183,86188,1,8,0:0:0:0:
51,117,86349,6,0,B|34:165|34:165|32:268,1,142.500005435944,0|8,0:0|0:0,0:0:0:0:
240,104,86672,1,0,0:0:0:0:
240,104,86752,1,0,0:0:0:0:
240,104,86833,1,10,0:0:0:0:
141,344,86994,6,0,P|199:358|263:334,1,95,0|10,0:0|0:0,0:0:0:0:
421,215,87317,1,0,0:0:0:0:
436,244,87397,1,0,0:0:0:0:
436,277,87478,1,10,0:0:0:0:
278,83,87639,1,0,0:0:0:0:
246,231,87801,5,10,0:0:0:0:
385,106,87962,1,0,0:0:0:0:
385,106,88042,1,0,0:0:0:0:
385,106,88123,1,10,0:0:0:0:
130,17,88284,2,0,B|109:59|109:59|108:123,1,95
218,316,88607,1,0,0:0:0:0:
218,316,88688,1,0,0:0:0:0:
218,316,88768,1,8,0:0:0:0:
411,190,88930,6,0,B|421:269|421:269|406:344,1,142.500005435944
238,53,89252,2,0,L|387:34,1,142.500005435944
146,338,89575,6,0,B|140:303|140:303|144:286|144:286|135:236,1,95,0|10,0:0|0:0,0:0:0:0:
96,55,89897,1,0,0:0:0:0:
96,55,89978,1,0,0:0:0:0:
96,55,90059,1,10,0:0:0:0:
50,268,90220,1,0,0:0:0:0:
170,162,90381,5,10,0:0:0:0:
237,340,90542,1,0,0:0:0:0:
237,340,90623,1,0,0:0:0:0:
237,340,90704,1,10,0:0:0:0:
77,226,90865,1,0,0:0:0:0:
323,265,91026,1,10,0:0:0:0:
186,23,91188,6,0,P|175:82|186:117,1,95,2|10,0:0|0:0,0:0:0:0:
204,133,91430,1,0,0:0:0:0:
204,133,91510,1,2,0:0:0:0:
318,65,91672,1,8,0:0:0:0:
387,364,91833,2,0,B|383:339|383:339|391:316|391:316|388:285,1,71.2500027179719,2|0,0:0|0:0,0:0:0:0:
369,168,91994,1,8,0:0:0:0:
369,168,92075,1,8,0:0:0:0:
369,168,92155,6,0,P|287:160|260:169,1,95,0|8,0:0|0:0,0:0:0:0:
136,321,92478,1,0,0:0:0:0:
136,321,92559,1,0,0:0:0:0:
136,321,92639,1,10,0:0:0:0:
76,81,92801,1,0,0:0:0:0:
48,238,92962,5,10,0:0:0:0:
236,112,93123,1,0,0:0:0:0:
236,112,93204,1,0,0:0:0:0:
236,112,93284,1,10,0:0:0:0:
351,278,93446,1,0,0:0:0:0:
416,22,93607,2,0,L|409:127,1,95,10|0,0:0|0:0,0:0:0:0:
408,142,93849,1,0,0:0:0:0:
408,142,93930,1,10,0:0:0:0:
102,27,94091,6,0,L|81:207,1,142.500005435944,0|10,0:0|0:0,0:0:0:0:
281,79,94413,1,0,0:0:0:0:
281,79,94494,1,0,0:0:0:0:
281,79,94575,1,10,0:0:0:0:
101,318,94736,6,0,P|161:333|202:317,1,95,0|8,0:0|0:0,0:0:0:0:
375,187,95059,1,0,0:0:0:0:
391,215,95139,1,0,0:0:0:0:
392,248,95220,1,10,0:0:0:0:
243,80,95381,1,0,0:0:0:0:
170,253,95542,5,10,0:0:0:0:
364,142,95704,1,0,0:0:0:0:
364,142,95784,1,0,0:0:0:0:
364,142,95865,1,10,0:0:0:0:
143,70,96026,1,0,0:0:0:0:
432,53,96188,5,10,0:0:0:0:
432,53,96268,1,0,0:0:0:0:
432,53,96349,2,2,P|440:96|436:128,1,47.5
343,343,96510,1,8,0:0:0:0:
343,343,96591,1,8,0:0:0:0:
343,343,96672,2,0,P|321:280|323:231,1,95,0|10,0:0|0:0,0:0:0:0:
358,88,96994,1,6,0:0:0:0:
332,66,97075,1,8,0:0:0:0:
299,59,97155,1,8,0:0:0:0:
266,65,97236,1,8,0:0:0:0:
240,86,97317,6,12,B|205:99|205:99|132:81,1,95,0|0,0:0|0:0,0:0:0:0:
26,246,97639,1,8,0:0:0:0:
26,246,97720,1,0,0:0:0:0:
26,246,97801,2,0,L|130:260,1,95,10|0,0:0|0:0,0:0:0:0:
377,371,98123,1,10,0:0:0:0:
464,150,98284,1,0,0:0:0:0:
464,150,98365,1,0,0:0:0:0:
464,150,98446,1,10,0:0:0:0:
325,252,98607,1,0,0:0:0:0:
377,29,98768,1,10,0:0:0:0:
377,29,98930,2,2,L|259:36,1,95,2|10,0:0|0:0,0:0:0:0:
42,204,99252,5,2,0:0:0:0:
42,204,99413,2,10,P|89:196|132:202,1,71.2500027179719
329,346,99575,5,2,0:0:0:0:
329,346,99655,1,2,0:0:0:0:
329,346,99736,2,10,P|371:336|402:315,1,71.2500027179719
457,71,99897,5,14,0:0:0:0:
417,54,99978,1,14,0:0:0:0:
374,49,100059,1,14,0:0:0:0:
332,55,100139,1,14,0:0:0:0:
293,73,100220,2,14,P|260:81|233:77,1,47.5
60,37,100381,5,12,0:0:0:0:
29,67,100462,1,12,0:0:0:0:
23,108,100542,1,12,0:0:0:0:
32,149,100623,1,12,0:0:0:0:
59,181,100704,2,12,P|82:180|109:170,1,47.5
304,27,100865,5,12,0:0:0:0:
304,69,100946,1,12,0:0:0:0:
320,108,101026,1,12,0:0:0:0:
353,135,101107,1,12,0:0:0:0:
394,144,101188,1,12,0:0:0:0:
435,134,101268,1,4,0:0:0:0:
476,144,101349,2,12,L|515:197,1,47.5
454,368,101510,2,8,L|417:320,1,47.5
315,194,101672,5,8,0:0:0:0:
277,159,101752,1,0,0:0:0:0:
227,145,101833,1,8,0:0:0:0:
176,152,101913,1,0,0:0:0:0:
132,179,101994,1,0,0:0:0:0:
84,198,102075,1,0,0:0:0:0:
33,198,102155,2,8,P|9:162|2:139,1,47.5
54,33,102317,2,0,P|78:69|85:92,1,47.5
98,275,102478,5,4,0:0:0:0:
375,332,102800,5,4,0:0:0:0:
277,44,102962,1,0,0:0:0:0:
454,202,103284,5,4,0:0:0:0:
90,93,103607,5,4,0:0:0:0:
146,301,103929,5,12,0:0:0:0:
260,66,104091,1,12,0:0:0:0:
371,258,104252,1,12,0:0:0:0:
92,132,104413,1,12,0:0:0:0:
230,344,104575,1,12,0:0:0:0:
395,95,104736,2,0,P|423:81|447:77,3,47.5
379,204,105059,5,0,0:0:0:0:
355,233,105139,1,0,0:0:0:0:
318,245,105220,1,0,0:0:0:0:
279,246,105301,1,0,0:0:0:0:
241,239,105381,1,0,0:0:0:0:
202,235,105462,1,0,0:0:0:0:
164,239,105542,1,0,0:0:0:0:
127,250,105623,1,0,0:0:0:0:
93,268,105704,2,0,B|33:261|33:261|1:181|1:181|41:149|41:149|56:59|148:64,1,332.5,12|0,0:0|0:0,0:0:0:0:
171,145,106349,5,0,0:0:0:0:
207,157,106430,1,0,0:0:0:0:
244,152,106510,1,0,0:0:0:0:
279,138,106591,1,0,0:0:0:0:
315,125,106672,1,0,0:0:0:0:
352,120,106752,1,0,0:0:0:0:
389,123,106833,1,0,0:0:0:0:
424,136,106913,1,0,0:0:0:0:
454,158,106994,2,0,B|500:235|444:258|446:320|446:320|396:312|355:352|355:352|282:347,1,332.5,12|0,0:0|0:0,0:0:0:0:
138,338,107639,6,0,P|130:282|145:230,1,95
214,92,107962,1,4,0:0:0:0:
284,357,108123,1,0,0:0:0:0:
79,211,108445,5,4,0:0:0:0:
439,128,108768,5,4,0:0:0:0:
175,84,109091,5,12,0:0:0:0:
231,339,109252,1,12,0:0:0:0:
362,91,109413,1,12,0:0:0:0:
74,195,109575,1,12,0:0:0:0:
389,302,109736,1,12,0:0:0:0:
266,43,109897,1,12,0:0:0:0:
131,310,110059,1,12,0:0:0:0:
58,52,110220,5,8,0:0:0:0:
45,92,110301,1,0,0:0:0:0:
44,134,110381,1,0,0:0:0:0:
65,171,110462,1,0,0:0:0:0:
84,208,110542,1,2,0:0:0:0:
95,249,110623,1,0,0:0:0:0:
101,291,110704,1,0,0:0:0:0:
90,331,110784,1,0,0:0:0:0:
50,346,110865,5,10,0:0:0:0:
41,303,110946,1,0,0:0:0:0:
60,265,111026,1,0,0:0:0:0:
91,235,111107,1,0,0:0:0:0:
129,216,111188,2,2,P|167:210|191:210,1,47.5,10|2,0:0|0:0,0:0:0:0:
370,312,111349,2,2,P|380:284|382:256,1,47.5,10|2,0:0|0:0,0:0:0:0:
369,47,111510,5,4,0:0:0:0:
328,34,111591,1,0,0:0:0:0:
280,36,111672,1,8,0:0:0:0:
236,53,111752,1,8,0:0:0:0:
198,89,111833,1,6,0:0:0:0:
182,138,111913,1,0,0:0:0:0:
179,195,111994,1,4,0:0:0:0:
200,248,112075,1,4,0:0:0:0:
242,292,112155,5,8,0:0:0:0:
288,237,112236,1,8,0:0:0:0:
282,165,112317,1,0,0:0:0:0:
234,112,112397,1,0,0:0:0:0:
162,106,112478,1,12,0:0:0:0:
101,144,112559,1,0,0:0:0:0:
71,207,112639,1,8,0:0:0:0:
80,277,112720,1,8,0:0:0:0:
125,333,112801,6,0,P|186:356|258:346,1,123.499994346619,4|10,0:0|0:0,0:0:0:0:
437,290,113123,1,0,0:0:0:0:
437,290,113204,1,0,0:0:0:0:
437,290,113284,1,10,0:0:0:0:
232,216,113446,1,0,0:0:0:0:
438,97,113607,5,10,0:0:0:0:
219,57,113768,1,0,0:0:0:0:
219,57,113849,1,0,0:0:0:0:
219,57,113930,1,10,0:0:0:0:
294,285,114091,1,4,0:0:0:0:
102,37,114252,5,14,0:0:0:0:
72,69,114333,1,0,0:0:0:0:
60,110,114413,1,0,0:0:0:0:
61,153,114494,1,0,0:0:0:0:
76,193,114575,1,10,0:0:0:0:
337,348,114736,5,0,0:0:0:0:
282,126,114897,1,10,0:0:0:0:
451,256,115059,1,0,0:0:0:0:
451,256,115139,1,0,0:0:0:0:
451,256,115220,1,10,0:0:0:0:
167,343,115381,5,12,0:0:0:0:
129,320,115462,1,0,0:0:0:0:
110,281,115542,1,8,0:0:0:0:
109,237,115623,1,0,0:0:0:0:
130,199,115704,1,0,0:0:0:0:
165,174,115784,1,0,0:0:0:0:
188,137,115865,1,10,0:0:0:0:
195,94,115946,1,0,0:0:0:0:
180,53,116026,5,0,0:0:0:0:
150,84,116107,1,0,0:0:0:0:
142,126,116188,1,8,0:0:0:0:
157,165,116268,1,0,0:0:0:0:
190,192,116349,1,0,0:0:0:0:
233,195,116430,1,0,0:0:0:0:
273,179,116510,1,10,0:0:0:0:
304,149,116591,1,0,0:0:0:0:
310,106,116672,5,0,0:0:0:0:
322,65,116752,1,0,0:0:0:0:
358,41,116833,1,10,0:0:0:0:
400,42,116913,1,0,0:0:0:0:
437,64,116994,1,0,0:0:0:0:
453,104,117075,1,0,0:0:0:0:
446,146,117155,1,10,0:0:0:0:
422,182,117236,1,0,0:0:0:0:
386,207,117317,5,14,0:0:0:0:
354,177,117397,1,0,0:0:0:0:
312,165,117478,1,10,0:0:0:0:
268,167,117559,1,8,0:0:0:0:
227,180,117639,1,8,0:0:0:0:
189,202,117720,1,8,0:0:0:0:
147,215,117801,1,8,0:0:0:0:
104,211,117881,1,8,0:0:0:0:
70,183,117962,6,0,B|54:159|54:159|56:59,1,123.499994346619,2|10,0:0|0:0,0:0:0:0:
162,113,118204,1,0,0:0:0:0:
162,113,118284,2,0,B|186:84|186:84|286:66,1,123.499994346619,0|10,0:0|0:0,0:0:0:0:
434,197,118607,1,0,0:0:0:0:
387,6,118768,1,10,0:0:0:0:
429,324,118930,5,0,0:0:0:0:
429,324,119010,1,0,0:0:0:0:
429,324,119091,2,0,P|348:306|284:314,1,123.499994346619,10|0,0:0|0:0,0:0:0:0:
89,343,119413,1,10,0:0:0:0:
66,306,119494,1,0,0:0:0:0:
57,263,119575,2,0,P|70:198|108:154,1,123.499994346619,0|10,0:0|0:0,0:0:0:0:
391,181,119897,5,2,0:0:0:0:
182,60,120059,1,10,0:0:0:0:
182,278,120220,1,2,0:0:0:0:
182,278,120301,1,2,0:0:0:0:
182,278,120381,1,10,0:0:0:0:
300,52,120542,5,10,0:0:0:0:
341,39,120623,1,0,0:0:0:0:
383,47,120704,1,10,0:0:0:0:
415,75,120784,1,0,0:0:0:0:
432,114,120865,1,0,0:0:0:0:
434,156,120946,1,0,0:0:0:0:
418,196,121026,1,10,0:0:0:0:
382,221,121107,1,0,0:0:0:0:
368,262,121188,5,4,0:0:0:0:
375,304,121268,1,0,0:0:0:0:
408,332,121349,1,10,0:0:0:0:
451,336,121430,1,0,0:0:0:0:
484,308,121510,6,0,P|488:272|484:235,1,61.7499971733095,2|0,0:0|0:0,0:0:0:0:
359,80,121672,2,0,P|392:62|424:54,1,61.7499971733095,10|0,0:0|0:0,0:0:0:0:
180,169,121833,2,8,P|177:129|184:102,1,61.7499971733095,4|10,0:0|0:0,0:0:0:0:
353,183,121994,2,0,P|356:223|349:250,1,61.7499971733095,12|0,0:0|0:0,0:0:0:0:
183,363,122155,2,0,P|180:323|187:296,1,61.7499971733095
253,166,122317,2,0,P|211:136|189:130,1,61.7499971733095,10|0,0:0|0:0,0:0:0:0:
42,224,122478,5,8,0:0:0:0:
78,257,122559,1,0,0:0:0:0:
121,279,122639,1,8,0:0:0:0:
168,292,122720,1,0,0:0:0:0:
217,298,122801,1,8,0:0:0:0:
265,294,122881,1,0,0:0:0:0:
312,278,122962,1,8,0:0:0:0:
353,251,123042,1,0,0:0:0:0:
388,216,123123,6,0,P|396:177|351:98,1,123.499994346619,0|10,0:0|0:0,0:0:0:0:
176,43,123446,1,0,0:0:0:0:
176,43,123526,1,0,0:0:0:0:
176,43,123607,1,10,0:0:0:0:
252,213,123768,1,4,0:0:0:0:
267,56,123930,5,10,0:0:0:0:
101,196,124091,1,0,0:0:0:0:
101,196,124172,1,0,0:0:0:0:
101,196,124252,1,10,0:0:0:0:
295,317,124413,1,2,0:0:0:0:
197,70,124575,1,10,0:0:0:0:
197,70,124655,1,0,0:0:0:0:
197,70,124736,2,0,B|178:105|178:105|167:209,1,123.499994346619,2|10,0:0|0:0,0:0:0:0:
351,331,125059,5,0,0:0:0:0:
146,272,125220,1,10,0:0:0:0:
361,185,125381,1,0,0:0:0:0:
361,185,125462,1,0,0:0:0:0:
361,185,125542,1,0,0:0:0:0:
68,109,125704,5,4,0:0:0:0:
89,71,125784,1,0,0:0:0:0:
126,48,125865,1,10,0:0:0:0:
169,42,125946,1,0,0:0:0:0:
210,53,126026,1,0,0:0:0:0:
240,83,126107,1,0,0:0:0:0:
275,107,126188,1,10,0:0:0:0:
316,118,126268,1,0,0:0:0:0:
357,105,126349,5,0,0:0:0:0:
378,67,126430,1,0,0:0:0:0:
418,53,126510,1,10,0:0:0:0:
459,65,126591,1,0,0:0:0:0:
482,101,126672,1,0,0:0:0:0:
480,143,126752,1,0,0:0:0:0:
453,177,126833,1,10,0:0:0:0:
414,196,126913,1,0,0:0:0:0:
370,192,126994,5,2,0:0:0:0:
337,162,127075,1,0,0:0:0:0:
297,144,127155,1,10,0:0:0:0:
253,140,127236,1,0,0:0:0:0:
211,151,127317,1,0,0:0:0:0:
176,176,127397,1,0,0:0:0:0:
159,216,127478,1,10,0:0:0:0:
156,259,127559,1,0,0:0:0:0:
168,300,127639,5,0,0:0:0:0:
186,260,127720,1,0,0:0:0:0:
186,216,127801,1,10,0:0:0:0:
173,175,127881,1,8,0:0:0:0:
144,142,127962,1,8,0:0:0:0:
141,99,128042,1,8,0:0:0:0:
157,58,128123,1,8,0:0:0:0:
195,37,128204,1,8,0:0:0:0:
235,40,128284,6,0,B|256:68|256:68|273:122|245:198,1,123.499994346619,4|10,0:0|0:0,0:0:0:0:
136,317,128607,1,0,0:0:0:0:
136,317,128688,1,0,0:0:0:0:
136,317,128768,1,10,0:0:0:0:
360,273,128930,1,0,0:0:0:0:
145,148,129091,5,10,0:0:0:0:
304,358,129252,1,0,0:0:0:0:
304,358,129333,1,0,0:0:0:0:
304,358,129413,1,10,0:0:0:0:
278,132,129575,1,0,0:0:0:0:
162,265,129736,1,10,0:0:0:0:
101,74,129897,1,0,0:0:0:0:
101,74,129978,1,0,0:0:0:0:
101,74,130059,1,10,0:0:0:0:
307,245,130220,6,0,P|310:285|302:327,3,61.7499971733095,4|0|10|0,0:0|0:0|0:0|0:0,0:0:0:0:
211,144,130542,2,0,P|208:104|216:62,3,61.7499971733095,0|0|10|0,0:0|0:0|0:0|0:0,0:0:0:0:
131,340,130865,5,4,0:0:0:0:
96,316,130946,1,0,0:0:0:0:
73,280,131026,1,10,0:0:0:0:
62,239,131107,1,0,0:0:0:0:
58,196,131188,1,0,0:0:0:0:
75,157,131268,1,0,0:0:0:0:
108,129,131349,1,10,0:0:0:0:
149,115,131430,1,0,0:0:0:0:
192,119,131510,5,8,0:0:0:0:
234,132,131591,1,0,0:0:0:0:
276,145,131672,1,8,0:0:0:0:
319,152,131752,1,0,0:0:0:0:
363,151,131833,1,8,0:0:0:0:
403,135,131913,1,8,0:0:0:0:
430,101,131994,1,8,0:0:0:0:
432,58,132075,1,8,0:0:0:0:
411,21,132155,6,0,P|377:20|341:31,1,61.7499971733095
220,93,132317,1,0,0:0:0:0:
220,93,132397,1,0,0:0:0:0:
220,93,132478,2,8,P|219:142|223:171,1,61.7499971733095
237,297,132639,2,8,P|215:319|191:337,1,61.7499971733095
49,296,132801,5,8,0:0:0:0:
49,296,132881,1,0,0:0:0:0:
49,296,132962,2,0,P|57:253|71:225,1,61.7499971733095
162,140,133123,2,0,P|192:170|206:197,1,61.7499971733095,4|0,0:0|0:0,0:0:0:0:
251,312,133284,2,0,P|297:319|328:317,1,61.7499971733095,8|0,0:0|0:0,0:0:0:0:
482,231,133446,5,8,0:0:0:0:
466,193,133526,1,0,0:0:0:0:
436,163,133607,1,0,0:0:0:0:
398,144,133688,1,0,0:0:0:0:
356,140,133768,1,4,0:0:0:0:
316,155,133849,1,0,0:0:0:0:
282,181,133930,1,0,0:0:0:0:
250,209,134010,1,0,0:0:0:0:
212,229,134091,5,8,0:0:0:0:
171,240,134172,1,0,0:0:0:0:
130,234,134252,1,0,0:0:0:0:
93,213,134333,1,0,0:0:0:0:
64,183,134413,1,4,0:0:0:0:
48,144,134494,1,0,0:0:0:0:
45,102,134575,1,4,0:0:0:0:
55,61,134655,1,0,0:0:0:0:
78,25,134736,5,4,0:0:0:0:
97,64,134817,1,0,0:0:0:0:
100,107,134897,1,8,0:0:0:0:
89,149,134978,1,0,0:0:0:0:
75,190,135059,1,0,0:0:0:0:
68,232,135139,1,0,0:0:0:0:
74,275,135220,1,8,0:0:0:0:
90,316,135301,1,0,0:0:0:0:
119,347,135381,1,8,0:0:0:0:
158,366,135462,1,0,0:0:0:0:
201,364,135542,6,0,P|232:345|250:321,1,47.5
256,207,135704,2,0,P|280:178|300:162,1,47.5
435,146,135865,2,0,P|441:106|438:88,1,47.5
303,26,136026,6,8,P|291:88|296:145,1,95,4|0,0:0|0:0,0:0:0:0:
335,286,136349,1,0,0:0:0:0:
375,95,136510,1,0,0:0:0:0:
222,358,136672,2,0,B|210:324|210:324|214:248,1,95,8|0,0:0|0:0,0:0:0:0:
286,84,136994,1,0,0:0:0:0:
150,179,137155,6,0,P|110:162|75:116,1,95,8|0,0:0|0:0,0:0:0:0:
256,288,137478,2,0,P|221:333|176:357,1,95,8|0,0:0|0:0,0:0:0:0:
362,162,137801,2,0,P|418:182|448:214,1,95,0|8,0:0|0:0,0:0:0:0:
57,228,138123,6,0,L|76:286,1,47.5,0|8,0:0|0:0,0:0:0:0:
175,356,138284,2,12,L|156:298,1,47.5
196,196,138446,2,12,L|215:254,1,47.5
314,324,138607,1,0,0:0:0:0:
314,324,138688,1,0,0:0:0:0:
314,324,138768,1,8,0:0:0:0:
407,68,138930,1,0,0:0:0:0:
215,267,139091,1,0,0:0:0:0:
430,336,139252,2,0,P|437:281|420:231,1,95,10|0,0:0|0:0,0:0:0:0:
202,70,139575,5,0,0:0:0:0:
202,70,139736,2,0,P|141:68|89:49,2,95,10|0|10,0:0|0:0|0:0,0:0:0:0:
314,309,140220,1,0,0:0:0:0:
211,119,140381,1,0,0:0:0:0:
185,261,140542,1,10,0:0:0:0:
436,174,140704,6,0,P|439:136|436:109,1,47.5,10|0,0:0|0:0,0:0:0:0:
331,40,140865,1,0,0:0:0:0:
331,40,140946,1,0,0:0:0:0:
331,40,141026,2,0,P|328:78|331:105,1,47.5,10|0,0:0|0:0,0:0:0:0:
243,258,141188,6,0,P|279:308|333:328,2,95,2|10|0,0:0|0:0|0:0,0:0:0:0:
105,95,141672,2,0,P|101:57|105:36,4,47.5,8|0|10|0|0,0:0|0:0|0:0|0:0|0:0,0:0:0:0:
59,218,142155,1,0,0:0:0:0:
191,327,142317,5,10,0:0:0:0:
233,320,142397,1,8,0:0:0:0:
273,303,142478,2,0,P|304:271|312:246,1,47.5,8|0,0:0|0:0,0:0:0:0:
359,117,142639,5,8,0:0:0:0:
407,125,142720,1,8,0:0:0:0:
445,154,142801,2,0,P|467:195|472:220,1,47.5,8|0,0:0|0:0,0:0:0:0:
445,327,142962,5,8,0:0:0:0:
376,338,143042,1,8,0:0:0:0:
306,326,143123,1,0,0:0:0:0:
252,280,143204,1,0,0:0:0:0:
210,224,143284,2,8,P|173:211|139:212,1,47.5
37,139,143446,2,0,P|38:110|47:75,1,47.5,8|0,0:0|0:0,0:0:0:0:
194,30,143607,2,0,P|193:59|184:94,1,47.5,8|0,0:0|0:0,0:0:0:0:
165,211,143768,5,0,0:0:0:0:
256,192,143930,12,0,144897,0:0:0:0:
256,85,145059,6,0,B|194:116|189:181|241:222|237:287|174:335|120:321|72:323|42:254,1,380,6|0,0:0|0:0,0:0:0:0:
256,192,146510,12,0,147478,0:0:0:0:
298,51,147639,6,0,B|351:78|354:155|354:155|238:177|208:257|233:321|276:345,1,380,6|0,0:0|0:0,0:0:0:0:
116,83,149575,5,4,0:0:0:0:
360,191,150220,5,4,0:0:0:0:
86,304,150865,5,4,0:0:0:0:
156,88,151510,6,2,P|141:104|122:114,2,31.6666666666667
221,158,151833,2,0,P|236:174|255:184,2,31.6666666666667
133,207,152155,5,10,0:0:0:0:
118,248,152263,1,8,0:0:0:0:
124,288,152370,1,10,0:0:0:0:
154,323,152478,1,8,0:0:0:0:
199,326,152586,1,10,0:0:0:0:
236,305,152693,1,8,0:0:0:0:
269,269,152801,6,0,L|295:269,3,23.75,4|0|8|0,0:0|0:0|0:0|0:0,0:0:0:0:
278,176,153123,6,0,P|290:160|306:150,3,38,0|0|8|8,0:0|0:0|0:0|0:0,0:0:0:0:
183,156,153446,6,0,B|179:185|179:185|185:216,3,52.2500015945435,4|0|8|8,0:0|0:0|0:0|0:0,0:0:0:0:
241,72,153768,6,2,P|279:60|331:69,3,66.4999979705811,10|10|10|10,0:0|0:0|0:0|0:0,0:0:0:0:
286,153,154091,5,12,0:0:0:0:
278,196,154198,1,0,0:0:0:0:
249,229,154306,1,0,0:0:0:0:
206,239,154413,1,2,0:0:0:0:
162,231,154521,1,0,0:0:0:0:
130,199,154629,1,2,0:0:0:0:
121,155,154736,5,10,0:0:0:0:
137,113,154844,1,0,0:0:0:0:
133,69,154951,1,0,0:0:0:0:
107,32,155059,1,2,0:0:0:0:
65,16,155166,1,0,0:0:0:0:
23,33,155274,1,0,0:0:0:0:
6,73,155381,5,10,0:0:0:0:
17,115,155489,1,0,0:0:0:0:
53,139,155596,1,0,0:0:0:0:
93,156,155704,1,2,0:0:0:0:
124,186,155811,1,0,0:0:0:0:
145,224,155919,1,0,0:0:0:0:
150,267,156026,5,10,0:0:0:0:
140,310,156134,1,0,0:0:0:0:
109,341,156241,1,0,0:0:0:0:
64,339,156349,1,2,0:0:0:0:
30,310,156456,1,0,0:0:0:0:
18,267,156564,1,0,0:0:0:0:
36,226,156672,5,10,0:0:0:0:
75,206,156779,1,0,0:0:0:0:
119,205,156887,1,0,0:0:0:0:
154,230,156994,1,2,0:0:0:0:
180,265,157102,1,0,0:0:0:0:
214,292,157209,1,0,0:0:0:0:
256,304,157317,5,10,0:0:0:0:
299,300,157424,1,0,0:0:0:0:
340,283,157532,1,0,0:0:0:0:
370,251,157639,1,2,0:0:0:0:
383,208,157747,1,0,0:0:0:0:
373,164,157854,1,0,0:0:0:0:
347,127,157962,5,10,0:0:0:0:
331,85,158069,1,0,0:0:0:0:
338,41,158177,1,2,0:0:0:0:
372,14,158284,1,8,0:0:0:0:
416,15,158392,1,0,0:0:0:0:
451,41,158499,1,0,0:0:0:0:
470,80,158607,6,0,P|476:128|470:157,1,63.3333333333333,8|2,0:0|0:0,0:0:0:0:
246,197,158822,2,0,P|243:165|249:134,1,63.3333333333333,0|2,0:0|0:0,0:0:0:0:
367,46,159037,2,0,P|373:76|370:108,1,63.3333333333333
336,367,159252,5,4,0:0:0:0:
300,340,159360,1,0,0:0:0:0:
280,300,159467,1,4,0:0:0:0:
284,255,159575,1,8,0:0:0:0:
301,214,159682,1,6,0:0:0:0:
311,170,159790,1,4,0:0:0:0:
307,126,159897,5,4,0:0:0:0:
285,86,160005,1,0,0:0:0:0:
248,60,160112,1,4,0:0:0:0:
204,49,160220,1,12,0:0:0:0:
160,57,160327,1,4,0:0:0:0:
134,93,160435,1,6,0:0:0:0:
123,135,160542,5,0,0:0:0:0:
137,177,160650,1,4,0:0:0:0:
147,220,160758,1,4,0:0:0:0:
143,263,160865,1,14,0:0:0:0:
115,298,160973,1,4,0:0:0:0:
72,309,161080,1,6,0:0:0:0:
28,299,161188,5,4,0:0:0:0:
0,264,161295,1,0,0:0:0:0:
2,219,161403,1,6,0:0:0:0:
28,183,161510,1,8,0:0:0:0:
70,168,161618,1,0,0:0:0:0:
106,143,161725,1,2,0:0:0:0:
133,107,161833,6,0,P|140:59|141:33,3,47.5,12|0|0|0,0:0|0:0|0:0|0:0,0:0:0:0:
234,85,162155,6,0,P|270:76|305:83,3,56.9999982604981,12|0|0|0,0:0|0:0|0:0|0:0,0:0:0:0:
261,186,162478,6,0,P|246:235|246:268,3,66.4999979705811,12|0|0|0,0:0|0:0|0:0|0:0,0:0:0:0:
354,257,162801,6,0,P|352:316|343:349,3,76,12|0|4|0,0:0|0:0|0:0|0:0,0:0:0:0:
354,111,163123,5,0,0:0:0:0:
293,78,163204,1,0,0:0:0:0:
226,89,163284,1,0,0:0:0:0:
180,140,163365,1,0,0:0:0:0:
166,207,163446,1,0,0:0:0:0:
187,271,163526,1,0,0:0:0:0:
226,327,163607,1,0,0:0:0:0:
255,264,163688,1,0,0:0:0:0:
252,196,163768,1,0,0:0:0:0:
221,134,163849,1,0,0:0:0:0:
167,90,163930,1,0,0:0:0:0:
99,87,164010,1,0,0:0:0:0:
41,124,164091,1,0,0:0:0:0:
15,187,164172,1,0,0:0:0:0:
20,254,164252,1,0,0:0:0:0:
57,311,164333,1,0,0:0:0:0:
114,345,164413,6,0,P|182:350|239:325,1,123.499994346619,6|10,0:0|0:0,0:0:0:0:
456,154,164736,1,0,0:0:0:0:
456,154,164817,1,0,0:0:0:0:
456,154,164897,2,0,B|420:148|420:148|377:154|377:154|303:132,1,123.499994346619,10|0,0:0|0:0,0:0:0:0:
145,35,165220,1,10,0:0:0:0:
183,273,165381,1,0,0:0:0:0:
183,273,165462,1,0,0:0:0:0:
183,273,165542,1,10,0:0:0:0:
234,91,165704,1,0,0:0:0:0:
81,352,165865,6,0,P|67:288|76:220,1,123.499994346619,10|0,0:0|0:0,0:0:0:0:
166,183,166107,1,0,0:0:0:0:
166,183,166188,2,0,P|163:147|148:109,1,61.7499971733095,8|0,0:0|0:0,0:0:0:0:
61,48,166349,1,0,0:0:0:0:
269,189,166510,1,10,0:0:0:0:
207,48,166672,1,0,0:0:0:0:
191,289,166833,1,10,0:0:0:0:
371,46,166994,6,0,P|396:104|389:170,1,123.499994346619,0|10,0:0|0:0,0:0:0:0:
291,332,167317,1,0,0:0:0:0:
291,332,167397,1,0,0:0:0:0:
291,332,167478,1,10,0:0:0:0:
204,162,167639,1,0,0:0:0:0:
119,296,167801,1,10,0:0:0:0:
331,199,167962,1,0,0:0:0:0:
331,199,168042,1,0,0:0:0:0:
331,199,168123,1,10,0:0:0:0:
63,208,168284,5,4,0:0:0:0:
48,167,168365,1,0,0:0:0:0:
54,124,168446,1,10,0:0:0:0:
78,89,168526,1,8,0:0:0:0:
116,69,168607,1,2,0:0:0:0:
159,65,168688,1,0,0:0:0:0:
198,81,168768,1,8,0:0:0:0:
226,113,168849,1,0,0:0:0:0:
267,124,168930,5,2,0:0:0:0:
309,125,169010,1,0,0:0:0:0:
348,106,169091,1,8,0:0:0:0:
390,95,169172,1,0,0:0:0:0:
432,101,169252,1,0,0:0:0:0:
465,129,169333,1,0,0:0:0:0:
483,167,169413,2,0,P|484:209|474:249,1,61.7499971733095,10|0,0:0|0:0,0:0:0:0:
366,344,169576,5,0,0:0:0:0:
260,153,169736,1,10,0:0:0:0:
165,291,169897,1,0,0:0:0:0:
260,57,170060,1,10,0:0:0:0:
89,181,170221,1,0,0:0:0:0:
327,235,170382,1,10,0:0:0:0:
149,66,170543,1,0,0:0:0:0:
203,329,170705,1,10,0:0:0:0:
373,94,170865,6,0,P|416:98|447:108,5,61.7499971733095,0|0|10|0|0|0,0:0|0:0|0:0|0:0|0:0|0:0,0:0:0:0:
254,150,171349,1,10,0:0:0:0:
254,150,171431,1,0,0:0:0:0:
254,150,171511,1,0,0:0:0:0:
183,273,171672,1,10,0:0:0:0:
234,39,171834,1,0,0:0:0:0:
299,343,171995,1,0,0:0:0:0:
111,36,172155,2,0,B|97:74|97:74|108:110|108:110|84:148|84:148|108:189|108:189|74:242|74:242|55:333|159:361,1,370.499983039857,0|10,0:0|0:0,0:0:0:0:
369,340,172801,6,0,P|402:336|434:318,3,52.2500015945435,0|0|10|0,0:0|0:0|0:0|0:0,0:0:0:0:
262,278,173123,2,0,P|262:237|268:203,1,52.2500015945435
371,217,173284,2,0,P|373:174|367:140,1,52.2500015945435,10|0,0:0|0:0,0:0:0:0:
270,98,173446,2,0,P|269:70|271:39,7,52.2500015945435,0|0|10|0|0|0|10|0,0:0|0:0|0:0|0:0|0:0|0:0|0:0|0:0,0:0:0:0:
314,223,174091,5,12,0:0:0:0:
291,280,174171,1,12,0:0:0:0:
244,319,174252,1,12,0:0:0:0:
185,332,174332,1,12,0:0:0:0:
126,316,174413,1,12,0:0:0:0:
82,273,174494,1,12,0:0:0:0:
63,215,174574,1,12,0:0:0:0:
73,155,174655,1,12,0:0:0:0:
103,108,174736,6,0,L|88:34,1,61.7499971733095
226,18,174897,2,0,L|213:78,1,61.7499971733095,10|0,0:0|0:0,0:0:0:0:
312,163,175059,2,0,L|324:102,1,61.7499971733095
427,46,175220,2,0,L|440:107,1,61.7499971733095
299,223,175381,2,0,L|311:162,1,61.7499971733095
428,269,175542,2,0,L|415:329,1,61.7499971733095,10|0,0:0|0:0,0:0:0:0:
288,369,175704,2,0,L|275:308,1,61.7499971733095,0|2,0:0|0:0,0:0:0:0:
127,254,175865,2,0,L|139:314,1,61.7499971733095,10|0,0:0|0:0,0:0:0:0:
107,135,176026,5,4,0:0:0:0:
139,89,176107,1,0,0:0:0:0:
193,77,176188,1,10,0:0:0:0:
240,104,176268,1,0,0:0:0:0:
274,148,176349,1,4,0:0:0:0:
323,173,176430,1,0,0:0:0:0:
378,173,176510,1,10,0:0:0:0:
424,141,176591,1,0,0:0:0:0:
444,89,176672,1,4,0:0:0:0:
435,34,176752,1,0,0:0:0:0:
383,11,176833,1,10,0:0:0:0:
332,33,176913,1,0,0:0:0:0:
318,87,176994,1,4,0:0:0:0:
344,136,177075,1,0,0:0:0:0:
377,179,177155,1,10,0:0:0:0:
388,233,177236,1,0,0:0:0:0:
381,288,177317,6,0,P|354:321|322:338,1,61.7499971733095
175,342,177478,1,8,0:0:0:0:
175,342,177559,1,0,0:0:0:0:
175,342,177639,2,0,P|156:286|152:258,1,61.7499971733095
184,159,177801,2,0,P|184:123|178:96,1,61.7499971733095,12|0,0:0|0:0,0:0:0:0:
51,34,177962,2,0,P|51:70|57:97,1,61.7499971733095
102,237,178123,5,10,0:0:0:0:
102,237,178204,1,0,0:0:0:0:
102,237,178284,2,0,P|149:245|180:243,1,61.7499971733095,4|6,0:0|0:0,0:0:0:0:
295,229,178446,2,0,P|309:191|312:154,1,61.7499971733095,10|0,0:0|0:0,0:0:0:0:
313,39,178607,5,4,0:0:0:0:
313,39,178688,1,0,0:0:0:0:
313,39,178768,2,0,P|282:70|268:98,1,61.7499971733095,10|0,0:0|0:0,0:0:0:0:
334,182,178930,2,0,P|317:207|294:228,1,61.7499971733095
156,243,179091,2,0,P|157:297|170:324,1,61.7499971733095,14|0,0:0|0:0,0:0:0:0:
295,358,179252,5,0,0:0:0:0:
310,304,179333,1,0,0:0:0:0:
302,249,179413,1,10,0:0:0:0:
272,201,179494,1,0,0:0:0:0:
220,179,179575,1,4,0:0:0:0:
176,144,179655,1,0,0:0:0:0:
155,92,179736,1,10,0:0:0:0:
167,37,179817,1,0,0:0:0:0:
218,13,179897,6,0,L|287:49,1,47.5,4|0,0:0|0:0,0:0:0:0:
397,195,180059,2,0,L|328:159,1,47.5,10|0,0:0|0:0,0:0:0:0:
138,55,180220,6,0,L|207:91,1,47.5,4|0,0:0|0:0,0:0:0:0:
317,237,180382,2,0,L|248:201,1,47.5,12|0,0:0|0:0,0:0:0:0:
68,101,180542,6,0,L|137:137,1,47.5
247,283,180704,2,0,L|178:247,1,47.5,8|0,0:0|0:0,0:0:0:0:
111,76,180865,6,0,L|152:141,1,47.5,4|0,0:0|0:0,0:0:0:0:
175,323,181027,2,0,L|133:257,1,47.5,8|0,0:0|0:0,0:0:0:0:
165,88,181188,6,0,L|168:165,1,47.5,6|0,0:0|0:0,0:0:0:0:
96,333,181350,2,0,L|92:255,1,47.5,8|0,0:0|0:0,0:0:0:0:
221,46,181510,6,0,L|224:123,1,47.5,4|0,0:0|0:0,0:0:0:0:
152,291,181672,2,0,L|148:213,1,47.5,8|0,0:0|0:0,0:0:0:0:
150,15,181833,6,0,L|147:92,1,47.5,4|0,0:0|0:0,0:0:0:0:
219,260,181995,2,0,L|223:182,1,47.5,8|0,0:0|0:0,0:0:0:0:
69,73,182155,6,0,L|129:120,1,47.5,4|0,0:0|0:0,0:0:0:0:
300,166,182317,2,0,L|237:118,1,47.5,8|0,0:0|0:0,0:0:0:0:
53,157,182478,5,4,0:0:0:0:
74,209,182559,1,0,0:0:0:0:
113,249,182639,1,10,0:0:0:0:
167,261,182720,1,0,0:0:0:0:
222,245,182801,1,10,0:0:0:0:
278,253,182881,1,0,0:0:0:0:
317,293,182962,1,10,0:0:0:0:
321,349,183042,1,0,0:0:0:0:
269,376,183123,5,10,0:0:0:0:
225,340,183204,1,0,0:0:0:0:
214,284,183284,1,10,0:0:0:0:
220,227,183365,1,0,0:0:0:0:
238,172,183446,1,10,0:0:0:0:
238,116,183526,1,8,0:0:0:0:
220,63,183607,1,10,0:0:0:0:
179,26,183688,1,0,0:0:0:0:
127,23,183768,5,14,0:0:0:0:
49,234,183930,1,0,0:0:0:0:
281,155,184091,1,10,0:0:0:0:
88,99,184252,1,0,0:0:0:0:
225,292,184413,1,10,0:0:0:0:
338,62,184575,1,0,0:0:0:0:
159,169,184736,1,10,0:0:0:0:
417,295,184897,1,0,0:0:0:0:
258,93,185059,5,10,0:0:0:0:
243,340,185220,1,0,0:0:0:0:
422,91,185381,1,2,0:0:0:0:
96,87,185542,1,10,0:0:0:0:
424,229,185704,1,0,0:0:0:0:
76,330,185865,1,0,0:0:0:0:
269,25,186026,1,10,0:0:0:0:
240,352,186188,1,0,0:0:0:0:
34,136,186349,5,14,0:0:0:0:
56,88,186430,1,0,0:0:0:0:
96,55,186510,1,0,0:0:0:0:
145,37,186591,1,0,0:0:0:0:
197,34,186672,1,0,0:0:0:0:
248,41,186752,1,0,0:0:0:0:
293,67,186833,1,10,0:0:0:0:
324,107,186913,1,0,0:0:0:0:
324,159,186994,5,8,0:0:0:0:
307,208,187075,1,0,0:0:0:0:
304,259,187155,1,0,0:0:0:0:
321,308,187236,1,0,0:0:0:0:
360,343,187317,1,10,0:0:0:0:
410,354,187397,1,0,0:0:0:0:
459,337,187478,1,0,0:0:0:0:
489,294,187559,1,0,0:0:0:0:
501,243,187639,5,2,0:0:0:0:
493,220,187720,1,0,0:0:0:0:
479,200,187801,1,0,0:0:0:0:
461,183,187881,1,0,0:0:0:0:
440,171,187962,1,10,0:0:0:0:
417,164,188042,1,0,0:0:0:0:
393,162,188123,1,4,0:0:0:0:
369,167,188204,1,0,0:0:0:0:
346,174,188284,5,8,0:0:0:0:
325,186,188365,1,0,0:0:0:0:
303,197,188446,1,0,0:0:0:0:
279,201,188526,1,0,0:0:0:0:
255,200,188607,1,10,0:0:0:0:
231,195,188688,1,10,0:0:0:0:
209,185,188768,1,10,0:0:0:0:
190,169,188849,1,10,0:0:0:0:
177,151,188930,6,0,P|136:131|87:136,1,71.2500027179719,4|0,0:0|0:0,0:0:0:0:
17,221,189252,2,0,P|58:241|107:236,1,71.2500027179719
324,237,189575,2,0,L|331:289,1,42.7499986953736,14|0,0:0|0:0,0:0:0:0:
336,104,189897,5,0,0:0:0:0:
364,89,189978,1,0,0:0:0:0:
396,89,190059,1,0,0:0:0:0:
425,101,190139,1,0,0:0:0:0:
446,124,190220,2,0,B|475:150|481:178|481:178|479:283|367:272|367:272|307:311,1,285.000010871888,4|0,0:0|0:0,0:0:0:0:
192,330,190945,5,0,0:0:0:0:
176,296,191026,1,0,0:0:0:0:
176,260,191107,1,0,0:0:0:0:
191,228,191187,1,0,0:0:0:0:
195,192,191268,1,0,0:0:0:0:
189,156,191349,1,0,0:0:0:0:
165,129,191430,1,0,0:0:0:0:
145,99,191510,2,0,L|160:13,1,71.2500027179719
66,308,191833,2,0,L|81:222,1,71.2500027179719
381,146,192155,5,12,0:0:0:0:
381,146,192236,1,0,0:0:0:0:
381,146,192317,1,0,0:0:0:0:
204,337,192478,1,0,0:0:0:0:
204,337,192559,1,0,0:0:0:0:
204,337,192639,1,0,0:0:0:0:
324,23,192801,2,0,P|384:12|474:192,1,285.000010871888,4|8,0:0|0:0,0:0:0:0:
409,250,193526,5,0,0:0:0:0:
374,260,193607,1,0,0:0:0:0:
338,255,193688,1,0,0:0:0:0:
305,240,193768,1,0,0:0:0:0:
271,227,193849,1,0,0:0:0:0:
235,221,193930,1,0,0:0:0:0:
200,226,194010,1,0,0:0:0:0:
165,236,194091,2,0,P|98:227|75:204,1,71.2500027179719
38,111,194413,2,0,P|71:78|120:59,1,71.2500027179719
240,62,194736,5,8,0:0:0:0:
264,88,194817,1,0,0:0:0:0:
271,122,194897,1,0,0:0:0:0:
254,153,194978,1,0,0:0:0:0:
223,170,195059,1,0,0:0:0:0:
187,171,195139,1,0,0:0:0:0:
156,152,195220,1,0,0:0:0:0:
145,117,195301,1,0,0:0:0:0:
152,82,195381,2,12,B|199:41|199:41|268:81|343:22|343:22|414:69,1,285.000010871888
474,260,196188,5,0,0:0:0:0:
438,256,196268,1,0,0:0:0:0:
402,261,196349,1,0,0:0:0:0:
369,276,196430,1,0,0:0:0:0:
341,298,196510,1,0,0:0:0:0:
308,313,196591,1,0,0:0:0:0:
272,321,196672,2,0,P|208:323|175:313,1,71.2500027179719
45,291,196994,2,0,P|36:241|44:203,1,71.2500027179719
205,133,197317,5,12,0:0:0:0:
199,101,197397,1,0,0:0:0:0:
183,72,197478,1,0,0:0:0:0:
158,51,197559,1,0,0:0:0:0:
128,38,197639,2,0,P|100:38|67:46,3,35.625001358986
89,164,197962,2,0,P|80:225|86:251,1,71.2500027179719,4|0,0:0|0:0,0:0:0:0:
302,197,198284,2,0,P|266:191|231:196,1,71.2500027179719,12|0,0:0|0:0,0:0:0:0:
388,45,198607,5,8,0:0:0:0:
340,61,198688,1,8,0:0:0:0:
309,100,198768,1,8,0:0:0:0:
297,148,198849,1,8,0:0:0:0:
302,197,198930,1,12,0:0:0:0:
296,246,199010,1,8,0:0:0:0:
274,291,199091,1,8,0:0:0:0:
230,315,199172,1,8,0:0:0:0:
182,327,199252,2,0,P|136:311|109:267,1,85.4999973907472,4|0,0:0|0:0,0:0:0:0:
250,63,199575,6,0,P|261:122|252:170,1,85.4999973907472,10|0,0:0|0:0,0:0:0:0:
113,161,199897,2,0,P|102:220|111:268,1,85.4999973907472,6|0,0:0|0:0,0:0:0:0:
110,275,200139,1,0,0:0:0:0:
127,307,200220,1,8,0:0:0:0:
154,327,200301,1,0,0:0:0:0:
184,341,200381,1,0,0:0:0:0:
217,346,200462,1,0,0:0:0:0:
250,343,200542,2,0,B|267:320|267:320|257:238,1,85.4999973907472,4|0,0:0|0:0,0:0:0:0:
156,70,200865,6,0,B|186:51|186:51|258:60,1,85.4999973907472
460,150,201188,2,0,P|462:192|452:234,1,85.4999973907472,2|0,0:0|0:0,0:0:0:0:
422,264,201430,1,0,0:0:0:0:
385,285,201510,1,10,0:0:0:0:
342,289,201591,1,0,0:0:0:0:
299,282,201672,1,0,0:0:0:0:
260,263,201752,1,0,0:0:0:0:
230,231,201833,2,0,P|215:187|219:144,1,85.4999973907472,2|0,0:0|0:0,0:0:0:0:
322,31,202155,6,0,P|337:75|333:118,1,85.4999973907472,10|0,0:0|0:0,0:0:0:0:
229,246,202478,1,0,0:0:0:0:
195,254,202559,1,0,0:0:0:0:
161,248,202639,1,0,0:0:0:0:
129,234,202720,1,0,0:0:0:0:
104,209,202801,2,0,P|95:137|112:93,1,85.4999973907472,10|0,0:0|0:0,0:0:0:0:
239,34,203123,2,0,L|250:135,1,85.4999973907472,2|0,0:0|0:0,0:0:0:0:
381,74,203446,2,0,L|392:175,1,85.4999973907472,10|0,0:0|0:0,0:0:0:0:
302,347,203768,5,2,0:0:0:0:
100,318,203930,1,0,0:0:0:0:
100,318,204010,1,0,0:0:0:0:
100,318,204091,2,0,P|100:264|116:226,1,85.4999973907472,10|0,0:0|0:0,0:0:0:0:
235,131,204413,5,6,0:0:0:0:
173,282,204575,1,0,0:0:0:0:
53,83,204736,2,0,P|100:68|151:75,1,85.4999973907472,10|0,0:0|0:0,0:0:0:0:
342,278,205059,1,2,0:0:0:0:
351,241,205139,1,0,0:0:0:0:
348,202,205220,2,0,P|342:177|329:155,1,42.7499986953736
145,104,205381,1,2,0:0:0:0:
123,136,205462,1,0,0:0:0:0:
113,172,205542,1,0,0:0:0:0:
119,210,205623,1,0,0:0:0:0:
123,248,205704,6,0,B|130:308|119:350|119:350|172:332|249:351|249:351|331:324|350:273,1,341.999989562989
357,261,206430,1,0,0:0:0:0:
346,239,206510,1,0,0:0:0:0:
330,224,206591,1,0,0:0:0:0:
314,210,206672,1,10,0:0:0:0:
295,198,206752,1,0,0:0:0:0:
275,189,206833,1,0,0:0:0:0:
253,183,206913,1,0,0:0:0:0:
213,189,206994,5,6,0:0:0:0:
176,212,207075,1,0,0:0:0:0:
152,248,207155,1,0,0:0:0:0:
134,286,207236,1,0,0:0:0:0:
101,314,207317,1,10,0:0:0:0:
59,316,207397,1,0,0:0:0:0:
25,289,207478,1,0,0:0:0:0:
16,247,207559,1,0,0:0:0:0:
38,209,207639,1,2,0:0:0:0:
78,196,207720,1,0,0:0:0:0:
119,210,207801,1,0,0:0:0:0:
138,247,207881,1,0,0:0:0:0:
170,275,207962,1,10,0:0:0:0:
211,283,208042,1,0,0:0:0:0:
251,264,208123,1,0,0:0:0:0:
273,227,208204,1,0,0:0:0:0:
284,180,208284,6,0,P|313:131|443:143,1,190,14|8,0:0|0:0,0:0:0:0:
140,36,208930,5,10,0:0:0:0:
156,85,209010,1,10,0:0:0:0:
154,137,209091,1,8,0:0:0:0:
145,188,209172,1,14,0:0:0:0:
145,239,209252,1,12,0:0:0:0:
154,290,209333,1,10,0:0:0:0:
176,337,209413,1,12,0:0:0:0:
222,363,209494,1,14,0:0:0:0:
272,346,209575,6,0,P|270:284|255:237,1,95,4|0,0:0|0:0,0:0:0:0:
64,199,209898,1,4,0:0:0:0:
278,80,210059,1,0,0:0:0:0:
60,63,210381,5,4,0:0:0:0:
418,147,210704,5,4,0:0:0:0:
74,226,211027,5,12,0:0:0:0:
400,282,211188,1,12,0:0:0:0:
157,337,211349,1,12,0:0:0:0:
229,65,211511,1,12,0:0:0:0:
280,287,211672,1,12,0:0:0:0:
363,60,211833,1,12,0:0:0:0:
76,200,211994,1,12,0:0:0:0:
431,173,212155,5,8,0:0:0:0:
428,125,212236,1,0,0:0:0:0:
402,84,212317,1,0,0:0:0:0:
366,52,212397,1,0,0:0:0:0:
324,28,212478,1,0,0:0:0:0:
277,18,212559,1,0,0:0:0:0:
229,19,212639,1,0,0:0:0:0:
183,32,212720,1,0,0:0:0:0:
140,53,212801,2,8,B|121:103|121:103|146:162|146:162|94:306|224:334,1,332.5,12|8,0:0|0:0,0:0:0:0:
304,271,213446,5,10,0:0:0:0:
310,224,213526,1,0,0:0:0:0:
300,177,213607,1,2,0:0:0:0:
270,139,213688,1,0,0:0:0:0:
230,113,213768,1,2,0:0:0:0:
183,102,213849,1,0,0:0:0:0:
135,105,213930,1,2,0:0:0:0:
89,118,214010,1,0,0:0:0:0:
53,149,214091,5,2,0:0:0:0:
44,181,214172,1,0,0:0:0:0:
49,213,214252,1,2,0:0:0:0:
74,234,214333,1,0,0:0:0:0:
92,261,214413,1,8,0:0:0:0:
103,292,214494,1,8,0:0:0:0:
102,325,214575,1,8,0:0:0:0:
85,353,214655,1,8,0:0:0:0:
53,364,214736,5,4,0:0:0:0:
239,76,215059,1,0,0:0:0:0:
333,276,215220,1,4,0:0:0:0:
107,53,215542,5,4,0:0:0:0:
411,123,215865,5,4,0:0:0:0:
159,311,216188,5,12,0:0:0:0:
298,55,216349,1,12,0:0:0:0:
96,129,216510,1,12,0:0:0:0:
324,314,216672,1,12,0:0:0:0:
206,42,216833,1,12,0:0:0:0:
98,287,216994,1,12,0:0:0:0:
378,116,217155,1,12,0:0:0:0:
75,203,217317,5,10,0:0:0:0:
40,170,217397,1,0,0:0:0:0:
38,122,217478,1,2,0:0:0:0:
59,79,217559,1,0,0:0:0:0:
100,56,217639,1,2,0:0:0:0:
147,51,217720,1,0,0:0:0:0:
189,72,217801,1,2,0:0:0:0:
218,109,217881,1,0,0:0:0:0:
247,146,217962,1,10,0:0:0:0:
283,175,218042,1,0,0:0:0:0:
327,193,218123,6,0,P|367:179|386:164,1,47.5
471,90,218284,1,10,0:0:0:0:
314,86,218446,2,0,P|306:52|306:30,1,47.5,10|0,0:0|0:0,0:0:0:0:
437,166,218607,6,8,P|445:200|445:222,1,47.5,12|8,0:0|0:0,0:0:0:0:
354,343,218768,1,0,0:0:0:0:
354,343,218849,1,0,0:0:0:0:
354,343,218930,2,0,P|322:334|295:315,1,47.5,2|0,0:0|0:0,0:0:0:0:
131,189,219091,5,8,0:0:0:0:
131,189,219172,1,8,0:0:0:0:
131,189,219252,2,0,P|163:198|190:217,1,47.5,2|0,0:0|0:0,0:0:0:0:
100,353,219413,2,0,P|94:322|96:293,1,47.5,2|0,0:0|0:0,0:0:0:0:
181,83,219575,5,12,0:0:0:0:
181,83,219655,1,12,0:0:0:0:
181,83,219736,2,0,P|187:114|182:160,1,47.5,4|0,0:0|0:0,0:0:0:0:
29,259,219897,2,0,P|69:256|99:261,1,47.5,4|0,0:0|0:0,0:0:0:0:
307,348,220059,5,12,0:0:0:0:
307,348,220139,1,12,0:0:0:0:
307,348,220220,2,8,P|310:319|307:279,1,47.5
421,226,220381,2,8,P|424:197|421:157,1,47.5
199,23,220542,2,8,P|196:52|199:92,1,47.5
257,241,220704,5,14,0:0:0:0:
298,318,220784,1,14,0:0:0:0:
381,347,220865,1,14,0:0:0:0:
461,310,220945,1,14,0:0:0:0:
494,228,221026,1,14,0:0:0:0:
462,147,221107,1,14,0:0:0:0:
396,90,221188,6,0,P|325:82|258:104,1,123.499994346619,4|10,0:0|0:0,0:0:0:0:
173,287,221510,1,0,0:0:0:0:
173,287,221591,1,0,0:0:0:0:
173,287,221672,1,10,0:0:0:0:
111,50,221833,1,0,0:0:0:0:
285,182,221994,1,10,0:0:0:0:
43,150,222155,1,0,0:0:0:0:
43,150,222236,1,0,0:0:0:0:
43,150,222317,1,10,0:0:0:0:
236,319,222478,5,0,0:0:0:0:
179,69,222639,1,10,0:0:0:0:
142,253,222801,1,0,0:0:0:0:
142,253,222881,1,0,0:0:0:0:
142,253,222962,1,10,0:0:0:0:
275,104,223123,6,0,P|274:68|277:32,1,61.7499971733095
381,182,223284,2,0,P|382:218|379:254,1,61.7499971733095,10|0,0:0|0:0,0:0:0:0:
228,287,223446,2,0,P|191:283|159:294,3,61.7499971733095,0|0|10|0,0:0|0:0|0:0|0:0,0:0:0:0:
311,350,223768,5,4,0:0:0:0:
333,312,223849,1,0,0:0:0:0:
340,269,223930,1,10,0:0:0:0:
334,226,224010,1,0,0:0:0:0:
314,187,224091,1,0,0:0:0:0:
296,147,224172,1,0,0:0:0:0:
293,104,224252,1,10,0:0:0:0:
310,64,224333,1,0,0:0:0:0:
342,36,224413,5,0,0:0:0:0:
385,40,224494,1,0,0:0:0:0:
419,66,224575,1,10,0:0:0:0:
433,106,224655,1,0,0:0:0:0:
424,148,224736,1,0,0:0:0:0:
397,182,224817,1,0,0:0:0:0:
356,194,224897,1,10,0:0:0:0:
312,192,224978,1,0,0:0:0:0:
272,174,225059,5,4,0:0:0:0:
240,144,225139,1,0,0:0:0:0:
198,130,225220,1,10,0:0:0:0:
154,133,225301,1,0,0:0:0:0:
115,150,225381,1,0,0:0:0:0:
84,180,225462,1,0,0:0:0:0:
68,219,225542,1,10,0:0:0:0:
73,262,225623,1,0,0:0:0:0:
90,301,225704,5,0,0:0:0:0:
120,270,225784,1,0,0:0:0:0:
135,229,225865,1,10,0:0:0:0:
130,185,225946,1,0,0:0:0:0:
112,145,226026,1,0,0:0:0:0:
105,102,226107,1,0,0:0:0:0:
122,62,226188,1,10,0:0:0:0:
156,36,226268,1,0,0:0:0:0:
199,39,226349,6,0,B|231:51|259:81|259:81|287:75|327:98,1,123.499994346619,4|10,0:0|0:0,0:0:0:0:
470,157,226672,1,0,0:0:0:0:
470,157,226752,1,0,0:0:0:0:
470,157,226833,2,0,P|486:222|467:296,1,123.499994346619,10|0,0:0|0:0,0:0:0:0:
291,54,227155,5,10,0:0:0:0:
255,350,227317,1,0,0:0:0:0:
237,310,227397,1,0,0:0:0:0:
238,266,227478,1,10,0:0:0:0:
359,83,227639,2,0,P|287:56|231:64,1,123.499994346619,0|10,0:0|0:0,0:0:0:0:
57,202,227962,5,0,0:0:0:0:
39,240,228042,1,0,0:0:0:0:
39,283,228123,1,10,0:0:0:0:
58,322,228204,1,0,0:0:0:0:
93,346,228284,2,0,P|120:353|155:346,1,61.7499971733095
275,276,228446,5,10,0:0:0:0:
275,276,228526,1,0,0:0:0:0:
275,276,228607,2,0,P|269:239|270:204,1,61.7499971733095
382,35,228768,5,10,0:0:0:0:
408,69,228849,1,0,0:0:0:0:
416,111,228930,1,4,0:0:0:0:
408,153,229010,1,0,0:0:0:0:
378,184,229091,1,10,0:0:0:0:
337,198,229172,1,0,0:0:0:0:
294,195,229252,1,0,0:0:0:0:
255,175,229333,1,0,0:0:0:0:
214,159,229413,1,10,0:0:0:0:
170,154,229494,1,0,0:0:0:0:
127,161,229575,1,0,0:0:0:0:
89,181,229655,1,0,0:0:0:0:
60,214,229736,1,10,0:0:0:0:
48,255,229817,1,0,0:0:0:0:
60,296,229897,6,0,P|91:323|120:329,1,61.7499971733095,14|0,0:0|0:0,0:0:0:0:
298,289,230059,2,0,P|308:332|304:364,1,61.7499971733095,10|0,0:0|0:0,0:0:0:0:
170,154,230220,2,0,L|199:87,1,61.7499971733095,10|0,0:0|0:0,0:0:0:0:
381,43,230381,2,0,L|356:99,1,61.7499971733095,10|0,0:0|0:0,0:0:0:0:
166,256,230542,2,0,L|233:262,1,61.7499971733095,10|0,0:0|0:0,0:0:0:0:
464,337,230704,2,0,L|391:347,1,61.7499971733095,10|0,0:0|0:0,0:0:0:0:
106,305,230865,5,8,0:0:0:0:
92,244,230946,1,8,0:0:0:0:
99,183,231026,1,8,0:0:0:0:
131,130,231107,1,8,0:0:0:0:
184,98,231188,1,8,0:0:0:0:
244,89,231268,1,8,0:0:0:0:
304,103,231349,1,8,0:0:0:0:
356,136,231430,1,8,0:0:0:0:
395,183,231510,6,0,P|439:103|431:54,1,123.499994346619,4|10,0:0|0:0,0:0:0:0:
176,144,231833,1,0,0:0:0:0:
176,144,231913,1,0,0:0:0:0:
176,144,231994,1,12,0:0:0:0:
303,313,232155,1,0,0:0:0:0:
295,49,232317,5,10,0:0:0:0:
140,267,232478,1,0,0:0:0:0:
140,267,232559,1,0,0:0:0:0:
140,267,232639,1,8,0:0:0:0:
399,232,232801,1,0,0:0:0:0:
120,92,232962,1,10,0:0:0:0:
305,338,233123,1,0,0:0:0:0:
305,338,233204,1,0,0:0:0:0:
305,338,233284,1,10,0:0:0:0:
271,79,233446,5,0,0:0:0:0:
154,322,233607,1,10,0:0:0:0:
75,169,233768,1,0,0:0:0:0:
75,169,233849,1,0,0:0:0:0:
75,169,233930,1,12,0:0:0:0:
394,157,234091,5,4,0:0:0:0:
423,188,234172,1,0,0:0:0:0:
433,229,234252,1,10,0:0:0:0:
426,271,234333,1,0,0:0:0:0:
400,305,234413,1,0,0:0:0:0:
360,323,234494,1,0,0:0:0:0:
316,323,234575,1,10,0:0:0:0:
276,307,234655,1,0,0:0:0:0:
237,287,234736,5,0,0:0:0:0:
194,278,234817,1,0,0:0:0:0:
151,280,234897,1,10,0:0:0:0:
111,297,234978,1,0,0:0:0:0:
68,305,235059,1,0,0:0:0:0:
27,290,235139,1,0,0:0:0:0:
3,253,235220,1,10,0:0:0:0:
5,209,235301,1,0,0:0:0:0:
35,178,235381,5,0,0:0:0:0:
78,172,235462,1,0,0:0:0:0:
118,185,235542,1,10,0:0:0:0:
160,192,235623,1,0,0:0:0:0:
200,176,235704,1,0,0:0:0:0:
226,142,235784,1,0,0:0:0:0:
240,100,235865,1,10,0:0:0:0:
237,56,235946,1,0,0:0:0:0:
212,20,236026,5,0,0:0:0:0:
201,62,236107,1,0,0:0:0:0:
213,103,236188,1,10,0:0:0:0:
244,131,236268,1,0,0:0:0:0:
284,146,236349,1,0,0:0:0:0:
319,170,236430,1,0,0:0:0:0:
342,205,236510,1,10,0:0:0:0:
355,246,236591,1,0,0:0:0:0:
346,288,236672,6,0,B|300:310|300:310|231:263,1,123.499994346619,4|10,0:0|0:0,0:0:0:0:
101,41,236994,1,0,0:0:0:0:
101,41,237075,1,0,0:0:0:0:
101,41,237155,2,0,B|72:82|72:82|69:172,1,123.499994346619
267,331,237478,5,10,0:0:0:0:
165,136,237639,1,0,0:0:0:0:
165,136,237720,1,0,0:0:0:0:
165,136,237801,1,10,0:0:0:0:
132,328,237962,1,0,0:0:0:0:
265,55,238123,1,10,0:0:0:0:
339,258,238284,1,0,0:0:0:0:
339,258,238365,1,0,0:0:0:0:
339,258,238446,1,10,0:0:0:0:
177,32,238607,6,0,P|153:51|134:75,3,61.7499971733095,0|0|10|0,0:0|0:0|0:0|0:0,0:0:0:0:
199,152,238930,2,0,P|179:176|156:195,3,61.7499971733095,0|0|10|0,0:0|0:0|0:0|0:0,0:0:0:0:
67,152,239252,5,4,0:0:0:0:
45,196,239333,1,0,0:0:0:0:
47,244,239413,1,10,0:0:0:0:
72,286,239494,1,0,0:0:0:0:
114,312,239575,1,0,0:0:0:0:
162,314,239655,1,0,0:0:0:0:
206,291,239736,1,10,0:0:0:0:
234,250,239817,1,0,0:0:0:0:
235,201,239897,5,0,0:0:0:0:
230,151,239978,1,0,0:0:0:0:
251,106,240059,1,10,0:0:0:0:
290,76,240139,1,0,0:0:0:0:
339,70,240220,1,0,0:0:0:0:
385,87,240301,1,0,0:0:0:0:
416,124,240381,1,10,0:0:0:0:
424,172,240462,1,0,0:0:0:0:
410,219,240542,6,8,P|394:252|354:288,1,61.7499971733095
244,329,240704,1,10,0:0:0:0:
244,329,240784,1,10,0:0:0:0:
244,329,240865,2,12,P|226:271|230:241,1,61.7499971733095
272,163,241026,2,12,P|246:132|220:114,1,61.7499971733095
109,77,241188,5,10,0:0:0:0:
72,109,241268,1,10,0:0:0:0:
53,154,241349,1,10,0:0:0:0:
48,203,241430,1,10,0:0:0:0:
56,251,241510,2,8,P|71:288|96:322,1,61.7499971733095
211,337,241672,2,8,P|196:300|171:266,1,61.7499971733095
45,93,241833,5,14,0:0:0:0:
76,64,241913,1,10,0:0:0:0:
117,53,241994,1,10,0:0:0:0:
159,54,242075,1,10,0:0:0:0:
199,66,242155,1,10,0:0:0:0:
230,95,242236,1,0,0:0:0:0:
247,134,242317,1,0,0:0:0:0:
250,176,242397,1,0,0:0:0:0:
246,219,242478,5,8,0:0:0:0:
271,254,242559,1,0,0:0:0:0:
311,264,242639,1,0,0:0:0:0:
352,254,242720,1,0,0:0:0:0:
388,231,242801,1,0,0:0:0:0:
411,197,242881,1,0,0:0:0:0:
422,155,242962,1,0,0:0:0:0:
423,113,243042,1,0,0:0:0:0:
413,71,243123,5,0,0:0:0:0:
388,106,243204,1,0,0:0:0:0:
386,148,243284,1,0,0:0:0:0:
401,188,243365,1,0,0:0:0:0:
409,230,243446,1,0,0:0:0:0:
409,272,243526,1,0,0:0:0:0:
397,313,243607,1,0,0:0:0:0:
364,340,243688,1,0,0:0:0:0:
322,334,243768,5,8,0:0:0:0:
294,301,243849,1,0,0:0:0:0:
253,286,243930,1,0,0:0:0:0:
211,292,244010,1,0,0:0:0:0:
172,311,244091,1,0,0:0:0:0:
130,323,244172,1,0,0:0:0:0:
88,315,244252,1,0,0:0:0:0:
54,287,244333,1,0,0:0:0:0:
55,244,244413,5,4,0:0:0:0:
91,221,244494,1,0,0:0:0:0:
124,194,244575,1,0,0:0:0:0:
141,155,244655,1,0,0:0:0:0:
144,112,244736,1,0,0:0:0:0:
133,70,244817,1,0,0:0:0:0:
108,35,244897,1,0,0:0:0:0:
70,13,244978,1,0,0:0:0:0:
29,27,245059,5,8,0:0:0:0:
31,69,245139,1,0,0:0:0:0:
33,111,245220,1,0,0:0:0:0:
35,153,245301,1,0,0:0:0:0:
37,195,245381,1,0,0:0:0:0:
39,237,245462,1,0,0:0:0:0:
41,279,245542,1,0,0:0:0:0:
43,321,245623,1,0,0:0:0:0:
46,363,245704,5,4,0:0:0:0:
73,330,245784,1,0,0:0:0:0:
113,316,245865,1,0,0:0:0:0:
155,316,245946,1,0,0:0:0:0:
195,302,246026,1,0,0:0:0:0:
223,270,246107,1,0,0:0:0:0:
239,230,246188,1,0,0:0:0:0:
236,187,246268,1,0,0:0:0:0:
205,156,246349,6,8,P|181:159|159:166,3,47.5
210,276,246672,2,0,P|233:272|256:265,3,47.5,8|8|8|0,0:0|0:0|0:0|0:0,0:0:0:0:
326,332,246994,5,4,0:0:0:0:
357,304,247075,1,0,0:0:0:0:
369,263,247155,1,0,0:0:0:0:
361,220,247236,1,0,0:0:0:0:
332,187,247317,1,0,0:0:0:0:
293,170,247397,1,0,0:0:0:0:
261,141,247478,1,0,0:0:0:0:
236,105,247559,1,0,0:0:0:0:
240,62,247639,5,14,0:0:0:0:
276,38,247720,1,0,0:0:0:0:
318,42,247801,1,0,0:0:0:0:
347,72,247881,1,0,0:0:0:0:
354,114,247962,1,0,0:0:0:0:
341,154,248042,1,0,0:0:0:0:
312,186,248123,1,0,0:0:0:0:
273,204,248204,1,0,0:0:0:0:
231,195,248284,5,4,0:0:0:0:
207,159,248365,1,0,0:0:0:0:
168,140,248446,1,0,0:0:0:0:
125,138,248526,1,0,0:0:0:0:
84,152,248607,1,0,0:0:0:0:
58,186,248688,1,0,0:0:0:0:
52,227,248768,1,0,0:0:0:0:
58,269,248849,1,0,0:0:0:0:
72,309,248930,5,8,0:0:0:0:
98,276,249010,1,0,0:0:0:0:
105,233,249091,1,0,0:0:0:0:
94,191,249172,1,0,0:0:0:0:
71,155,249252,1,0,0:0:0:0:
75,112,249333,1,0,0:0:0:0:
97,75,249413,1,0,0:0:0:0:
134,53,249494,1,0,0:0:0:0:
176,54,249575,5,4,0:0:0:0:
203,86,249655,1,0,0:0:0:0:
207,128,249736,1,0,0:0:0:0:
192,168,249817,1,0,0:0:0:0:
188,210,249897,1,0,0:0:0:0:
204,249,249978,1,0,0:0:0:0:
237,275,250059,1,0,0:0:0:0:
279,274,250139,1,0,0:0:0:0:
306,240,250220,5,8,0:0:0:0:
313,197,250301,1,0,0:0:0:0:
306,155,250381,1,0,0:0:0:0:
287,116,250462,1,0,0:0:0:0:
257,85,250542,1,0,0:0:0:0:
216,71,250623,1,0,0:0:0:0:
174,82,250704,1,0,0:0:0:0:
145,113,250784,1,0,0:0:0:0:
145,155,250865,5,12,0:0:0:0:
182,204,250946,1,10,0:0:0:0:
243,201,251026,1,10,0:0:0:0:
278,150,251107,1,10,0:0:0:0:
276,87,251188,1,4,0:0:0:0:
221,59,251268,1,4,0:0:0:0:
161,75,251349,1,4,0:0:0:0:
131,129,251430,1,4,0:0:0:0:
156,184,251510,5,8,0:0:0:0:
189,131,251591,1,12,0:0:0:0:
173,70,251672,1,8,0:0:0:0:
119,39,251752,1,8,0:0:0:0:
62,64,251833,1,14,0:0:0:0:
33,117,251913,1,10,0:0:0:0:
56,174,251994,1,6,0:0:0:0:
111,201,252075,1,2,0:0:0:0:
168,180,252155,5,12,0:0:0:0:
197,148,252236,1,0,0:0:0:0:
238,135,252317,1,0,0:0:0:0:
279,144,252397,1,0,0:0:0:0:
309,174,252478,1,4,0:0:0:0:
350,183,252559,1,0,0:0:0:0:
389,167,252639,1,0,0:0:0:0:
407,128,252720,1,0,0:0:0:0:
394,86,252801,5,12,0:0:0:0:
359,60,252881,1,0,0:0:0:0:
316,64,252962,1,0,0:0:0:0:
286,93,253042,1,0,0:0:0:0:
286,135,253123,1,0,0:0:0:0:
275,176,253204,1,0,0:0:0:0:
250,210,253284,1,0,0:0:0:0:
209,222,253365,1,0,0:0:0:0:
171,200,253446,5,6,0:0:0:0:
161,158,253526,1,0,0:0:0:0:
184,120,253607,1,0,0:0:0:0:
225,110,253688,1,0,0:0:0:0:
260,131,253768,1,4,0:0:0:0:
302,137,253849,1,0,0:0:0:0:
341,120,253930,1,0,0:0:0:0:
367,86,254010,1,0,0:0:0:0:
370,43,254091,5,12,0:0:0:0:
343,76,254172,1,0,0:0:0:0:
347,118,254252,1,0,0:0:0:0:
358,159,254333,1,0,0:0:0:0:
352,201,254413,1,4,0:0:0:0:
333,239,254494,1,0,0:0:0:0:
300,267,254575,1,0,0:0:0:0:
260,283,254655,1,0,0:0:0:0:
217,277,254736,5,4,0:0:0:0:
189,244,254817,1,0,0:0:0:0:
197,202,254897,1,0,0:0:0:0:
199,159,254978,1,0,0:0:0:0:
191,116,255059,1,4,0:0:0:0:
162,84,255139,1,0,0:0:0:0:
119,76,255220,1,0,0:0:0:0:
82,98,255301,1,0,0:0:0:0:
72,139,255381,5,12,0:0:0:0:
85,179,255462,1,0,0:0:0:0:
117,205,255542,1,0,0:0:0:0:
159,200,255623,1,0,0:0:0:0:
195,177,255704,1,4,0:0:0:0:
234,161,255784,1,0,0:0:0:0:
276,168,255865,1,0,0:0:0:0:
307,196,255946,1,0,0:0:0:0:
313,237,256026,5,4,0:0:0:0:
333,274,256107,1,0,0:0:0:0:
373,287,256188,1,0,0:0:0:0:
410,266,256268,1,0,0:0:0:0:
422,224,256349,1,4,0:0:0:0:
415,181,256430,1,0,0:0:0:0:
392,145,256510,1,0,0:0:0:0:
363,113,256591,1,0,0:0:0:0:
335,80,256672,6,8,P|327:47|327:11,3,47.5,12|8|8|8,0:0|0:0|0:0|0:0,0:0:0:0:
385,201,256994,2,8,L|405:158,3,47.5
272,217,257317,5,4,0:0:0:0:
266,258,257397,1,0,0:0:0:0:
276,300,257478,1,0,0:0:0:0:
307,329,257559,1,0,0:0:0:0:
346,342,257639,1,4,0:0:0:0:
387,333,257720,1,0,0:0:0:0:
422,307,257801,1,0,0:0:0:0:
438,267,257881,1,0,0:0:0:0:
435,224,257962,5,12,0:0:0:0:
405,194,258042,1,0,0:0:0:0:
364,180,258123,1,0,0:0:0:0:
330,153,258204,1,0,0:0:0:0:
303,120,258284,1,4,0:0:0:0:
289,78,258365,1,0,0:0:0:0:
300,36,258446,1,0,0:0:0:0:
335,11,258526,1,0,0:0:0:0:
376,4,258607,5,4,0:0:0:0:
367,47,258688,1,0,0:0:0:0:
329,67,258768,1,0,0:0:0:0:
287,77,258849,1,0,0:0:0:0:
244,75,258930,1,4,0:0:0:0:
201,70,259010,1,0,0:0:0:0:
159,80,259091,1,0,0:0:0:0:
121,101,259172,1,0,0:0:0:0:
98,137,259252,5,12,0:0:0:0:
91,179,259333,1,0,0:0:0:0:
99,221,259413,1,0,0:0:0:0:
121,257,259494,1,0,0:0:0:0:
151,286,259575,1,4,0:0:0:0:
189,303,259655,1,0,0:0:0:0:
232,303,259736,1,0,0:0:0:0:
271,289,259817,1,0,0:0:0:0:
306,265,259897,5,12,0:0:0:0:
289,225,259978,1,0,0:0:0:0:
251,204,260059,1,0,0:0:0:0:
209,196,260139,1,0,0:0:0:0:
167,203,260220,1,4,0:0:0:0:
128,223,260301,1,0,0:0:0:0:
99,254,260381,1,0,0:0:0:0:
89,295,260462,1,0,0:0:0:0:
102,335,260542,5,12,0:0:0:0:
144,362,260623,1,0,0:0:0:0:
193,360,260704,1,0,0:0:0:0:
235,332,260784,1,0,0:0:0:0:
253,285,260865,5,12,0:0:0:0:
293,255,260946,1,0,0:0:0:0:
341,245,261026,1,0,0:0:0:0:
390,253,261107,1,0,0:0:0:0:
419,293,261188,5,12,0:0:0:0:
362,335,261268,1,8,0:0:0:0:
296,362,261348,1,8,0:0:0:0:
228,345,261429,1,8,0:0:0:0:
182,293,261510,1,12,0:0:0:0:
176,223,261590,1,8,0:0:0:0:
212,163,261671,1,8,0:0:0:0:
276,135,261751,1,8,0:0:0:0:
345,150,261833,5,12,0:0:0:0:
323,215,261913,1,8,0:0:0:0:
260,246,261994,1,8,0:0:0:0:
195,223,262074,1,8,0:0:0:0:
166,160,262155,1,12,0:0:0:0:
192,95,262236,1,8,0:0:0:0:
255,68,262316,1,8,0:0:0:0:
319,94,262397,1,8,0:0:0:0:
348,159,262478,5,14,0:0:0:0:
73,43,262639,1,0,0:0:0:0:
418,257,262801,5,10,0:0:0:0:
206,32,262962,1,0,0:0:0:0:
252,337,263123,5,10,0:0:0:0:
337,38,263284,1,0,0:0:0:0:
110,232,263446,5,10,0:0:0:0:
437,100,263607,1,0,0:0:0:0:
183,335,263768,5,10,0:0:0:0:
260,27,263930,1,0,0:0:0:0:
352,357,264091,5,10,0:0:0:0:
409,57,264252,1,0,0:0:0:0:
191,369,264413,5,10,0:0:0:0:
98,70,264575,1,0,0:0:0:0:
54,340,264736,5,10,0:0:0:0:
208,65,264897,1,0,0:0:0:0:
14,236,265059,5,10,0:0:0:0:
338,146,265220,1,0,0:0:0:0:
44,127,265381,5,10,0:0:0:0:
317,344,265542,1,0,0:0:0:0:
183,24,265704,5,10,0:0:0:0:
113,328,265865,1,0,0:0:0:0:
311,53,266026,5,10,0:0:0:0:
399,317,266188,1,0,0:0:0:0:
247,20,266349,5,10,0:0:0:0:
174,329,266510,1,0,0:0:0:0:
167,25,266672,5,10,0:0:0:0:
254,362,266833,1,0,0:0:0:0:
324,26,266994,5,10,0:0:0:0:
37,198,267155,1,0,0:0:0:0:
437,89,267317,5,10,0:0:0:0:
62,40,267478,1,0,0:0:0:0:
395,175,267639,5,8,0:0:0:0:
381,245,267720,1,2,0:0:0:0:
340,303,267801,1,2,0:0:0:0:
274,329,267881,1,2,0:0:0:0:
202,331,267962,1,8,0:0:0:0:
135,307,268042,1,2,0:0:0:0:
85,255,268123,1,2,0:0:0:0:
73,184,268204,1,2,0:0:0:0:
89,115,268284,1,8,0:0:0:0:
138,63,268365,1,2,0:0:0:0:
205,39,268446,1,2,0:0:0:0:
274,49,268526,1,2,0:0:0:0:
324,99,268607,1,8,0:0:0:0:
346,166,268688,1,2,0:0:0:0:
340,236,268768,1,2,0:0:0:0:
302,296,268849,1,2,0:0:0:0:
247,342,268930,5,8,0:0:0:0:
247,271,269010,1,2,0:0:0:0:
281,208,269091,1,2,0:0:0:0:
346,179,269172,1,2,0:0:0:0:
376,115,269252,1,8,0:0:0:0:
360,45,269333,1,2,0:0:0:0:
300,6,269413,1,2,0:0:0:0:
230,22,269494,1,2,0:0:0:0:
190,81,269575,1,8,0:0:0:0:
196,151,269655,1,2,0:0:0:0:
234,211,269736,1,2,0:0:0:0:
289,256,269817,1,2,0:0:0:0:
358,269,269897,1,8,0:0:0:0:
429,260,269978,1,2,0:0:0:0:
477,207,270059,1,2,0:0:0:0:
488,137,270139,1,2,0:0:0:0:
471,67,270220,5,8,0:0:0:0:
401,48,270301,1,2,0:0:0:0:
333,69,270381,1,2,0:0:0:0:
288,124,270462,1,2,0:0:0:0:
283,194,270542,1,8,0:0:0:0:
269,264,270623,1,2,0:0:0:0:
223,319,270704,1,2,0:0:0:0:
154,337,270784,1,2,0:0:0:0:
85,316,270865,1,8,0:0:0:0:
41,259,270946,1,2,0:0:0:0:
21,191,271026,1,2,0:0:0:0:
38,121,271107,1,2,0:0:0:0:
81,64,271188,1,8,0:0:0:0:
144,32,271268,1,2,0:0:0:0:
215,28,271349,1,2,0:0:0:0:
282,50,271430,1,2,0:0:0:0:
318,110,271510,6,8,B|328:157|328:157|251:258,1,142.500005435944,2|8,0:0|0:0,0:0:0:0:
174,84,271833,1,2,0:0:0:0:
72,354,271994,6,0,B|56:303|56:303|67:194,1,142.500005435944,10|0,0:0|0:0,0:0:0:0:
331,329,272317,1,2,0:0:0:0:
457,69,272478,6,0,B|416:54|416:54|283:87,1,142.500005435944,10|0,0:0|0:0,0:0:0:0:
215,263,272801,1,4,0:0:0:0:
390,169,272961,1,8,0:0:0:0:
390,169,273042,1,8,0:0:0:0:
390,169,273123,1,2,0:0:0:0:
116,72,273284,2,0,P|107:183|130:264,2,142.500005435944
336,155,273768,5,0,0:0:0:0:
349,188,273849,1,0,0:0:0:0:
352,223,273930,1,12,0:0:0:0:
349,258,274010,1,12,0:0:0:0:
339,292,274091,2,0,P|232:365|160:356,1,142.500005435944,4|12,0:0|0:0,0:0:0:0:
52,297,274413,2,0,P|68:227|125:163,1,142.500005435944,4|10,0:0|0:0,0:0:0:0:
143,157,274655,1,8,0:0:0:0:
178,150,274736,1,0,0:0:0:0:
372,146,274897,5,8,0:0:0:0:
135,309,275059,1,8,0:0:0:0:
172,48,275220,1,8,0:0:0:0:
352,298,275381,1,4,0:0:0:0:
256,192,275542,12,4,276672,0:0:0:0:
