osu file format v14

[General]
AudioFilename: audio.mp3
AudioLeadIn: 0
PreviewTime: 296444
Countdown: 0
SampleSet: None
StackLeniency: 0.4
Mode: 0
LetterboxInBreaks: 0
WidescreenStoryboard: 1

[Editor]
Bookmarks: 11298,23961,39742,69097,69742,70387
DistanceSpacing: 1.7
BeatDivisor: 6
GridSize: 32
TimelineZoom: 2.400001

[Metadata]
Title:Black Pentagram
TitleUnicode:Black Pentagram
Artist:Unlucky Morpheus
ArtistUnicode:Unlucky Morpheus
Creator:Ayzer
Version:pussy dif
Source:
Tags:satan 666 touhou demetori introduction double dealing drums above all
BeatmapID:1624494
BeatmapSetID:656734

[Difficulty]
HPDrainRate:6.6
CircleSize:4
OverallDifficulty:9.2
ApproachRate:9.6
SliderMultiplier:2.2
SliderTickRate:2

[Events]
//Background and Video events
0,0,"bg.jpg",0,0
//Break Periods
//Storyboard Layer 0 (Background)
//Storyboard Layer 1 (Fail)
//Storyboard Layer 2 (Pass)
//Storyboard Layer 3 (Foreground)
//Storyboard Sound Samples

[TimingPoints]
8447,652.173913043478,3,2,1,5,1,0
9437,621.76,3,2,1,5,1,0
11298,631.578947368421,3,2,1,5,1,0
11298,-200,3,2,1,5,0,0
11337,-200,3,2,1,5,0,0
12254,689.655172413793,3,2,1,10,1,0
12254,-200,3,2,1,10,0,0
13295,628.272251308901,3,2,1,10,1,0
13295,-142.857142857143,3,2,1,10,0,0
14237,666.666666666667,3,2,1,10,1,0
14237,-200,3,2,1,10,0,0
15263,631.578947368421,3,2,1,10,1,0
15263,-142.857142857143,3,2,1,10,0,0
16206,681.818181818182,3,2,1,10,1,0
16206,-142.857142857143,3,2,1,10,0,0
17198,659.340659340659,3,2,1,10,1,0
17198,-142.857142857143,3,2,1,10,0,0
18196,634.920634920635,3,2,1,10,1,0
18196,-125,3,2,1,10,0,0
19170,645.161290322581,3,2,1,10,1,0
19170,-200,3,2,1,10,0,0
20139,634.920634920635,3,2,1,10,1,0
20139,-200,3,2,1,10,0,0
21091,-166.666666666667,3,2,1,10,0,0
22020,655.737704918033,3,2,1,10,1,0
22020,-166.666666666667,3,2,1,10,0,0
23961,659.340659340659,3,2,1,10,1,0
23961,-200,3,2,1,10,0,0
25936,659.340659340659,3,2,1,10,1,0
25936,-200,3,2,1,10,0,0
27914,662.983425414365,3,2,1,10,1,0
27914,-125,3,2,1,10,0,0
28932,666.666666666667,3,2,1,10,1,0
28932,-125,3,2,1,10,0,0
29962,662.983425414365,3,2,1,5,1,0
29962,-125,3,2,1,5,0,0
30956,-142.857142857143,3,2,1,5,0,0
31971,662.983425414365,3,2,1,5,1,0
31971,-142.857142857143,3,2,1,5,0,0
32965,-125,3,2,1,5,0,0
33978,674.157303370787,3,2,1,5,1,0
33978,-142.857142857143,3,2,1,5,0,0
37685,685.714285714286,3,2,1,5,1,0
37685,-200,3,2,1,5,0,0
40747,689.655172413793,3,2,1,5,1,0
41799,659.340659340659,3,2,1,5,1,0
42805,659.340659340659,3,2,1,5,1,0
43823,659.340659340659,3,2,1,5,1,0
44729,659.340659340659,3,2,1,5,1,0
55146,322.58064516129,4,3,1,80,1,0
55791,-133.333333333333,4,3,12,80,0,0
55952,-133.333333333333,4,3,3,80,0,0
56033,-133.333333333333,4,3,12,80,0,0
56275,-133.333333333333,4,3,1,80,0,0
56355,-133.333333333333,4,3,12,80,0,0
56436,-133.333333333333,4,3,1,80,0,0
57242,-133.333333333333,4,3,3,80,0,0
57404,-133.333333333333,4,3,1,80,0,0
57565,-133.333333333333,4,3,1,60,0,0
57726,-133.333333333333,4,3,1,80,0,1
57807,-133.333333333333,4,3,7,80,0,1
60307,-133.333333333333,4,3,1,80,0,1
60387,-133.333333333333,4,3,7,80,0,1
62887,-133.333333333333,4,3,1,80,0,1
62968,-133.333333333333,4,3,7,80,0,1
65468,-133.333333333333,4,3,1,80,0,1
65549,-133.333333333333,4,3,7,80,0,1
66275,-100,4,3,7,80,0,1
66597,-100,4,3,16,80,0,1
66678,-100,4,3,7,80,0,1
67081,-100,4,3,12,75,0,1
67242,-117.647058823529,4,3,1,70,0,1
67404,-117.647058823529,4,3,12,65,0,1
67565,-117.647058823529,4,3,1,60,0,1
67887,-100,4,3,1,80,0,1
68049,-100,4,3,1,60,0,0
68210,-100,4,3,7,60,0,0
70629,-100,4,3,1,60,0,0
70791,-100,4,3,7,60,0,0
72565,-100,4,3,15,60,0,0
72645,-100,4,3,7,60,0,0
73210,-100,4,3,1,60,0,0
73371,-100,4,3,7,60,0,0
75791,-100,4,3,1,60,0,0
75952,-100,4,3,7,60,0,0
76597,-125,4,3,7,60,0,0
76920,-100,4,3,16,80,0,0
77000,-100,4,3,1,80,0,0
77404,-100,4,3,12,80,0,0
77565,-100,4,3,1,80,0,0
77726,-100,4,3,8,80,0,0
77887,-100,4,3,1,80,0,0
78371,-100,4,3,14,80,0,0
80952,-133.333333333333,4,3,1,50,0,0
81113,-133.333333333333,4,3,12,50,0,0
81758,-133.333333333333,4,3,10,50,0,0
82081,-133.333333333333,4,3,15,50,0,0
82242,-133.333333333333,4,3,1,70,0,0
82565,-133.333333333333,4,3,14,50,0,0
83371,-133.333333333333,4,3,1,70,0,0
83533,-100,4,3,1,60,0,0
83694,-100,4,3,7,60,0,0
88694,-100,4,3,2,60,0,0
88855,-100,4,3,7,60,0,0
90952,-95.2380952380951,4,3,7,60,0,0
91113,-100,4,3,7,60,0,0
93533,-100,4,3,4,60,0,0
93694,-100,4,3,7,60,0,0
93855,-100,4,3,3,60,0,0
94016,-100,4,3,7,60,0,0
97887,-125,4,3,7,60,0,0
98210,-100,4,3,7,60,0,0
98371,-100,4,3,4,80,0,0
98533,-100,4,3,1,60,0,0
98694,-100,4,3,4,80,0,0
98855,-100,4,3,1,60,0,0
99016,-100,4,3,4,80,0,0
99178,-100,4,3,7,60,0,0
101597,-100,4,3,7,70,0,0
101758,-100,4,3,4,70,0,0
103210,-100,4,3,7,70,0,0
103694,-100,4,3,7,50,0,0
103775,-100,4,3,7,53,0,0
103855,-100,4,3,7,57,0,0
103936,-100,4,3,7,65,0,0
104016,-100,4,3,7,70,0,0
104178,-74.0740740740741,4,3,1,80,0,0
104218,-111.111111111111,4,3,1,5,0,0
104500,-83.3333333333333,4,3,2,80,0,0
104581,-117.647058823529,4,3,1,5,0,0
104662,-83.3333333333333,4,3,16,80,0,0
104702,-100,4,3,1,5,0,0
104984,-96.1538461538461,4,3,1,80,0,0
105025,-96.1538461538461,4,3,1,5,0,0
105307,-74.0740740740741,4,3,3,80,0,0
105347,-74.0740740740741,4,3,1,5,0,0
105629,-74.0740740740741,4,3,1,90,0,0
106436,-74.0740740740741,4,3,3,90,0,0
106758,-200,4,3,1,40,0,0
107081,-200,4,3,7,40,0,0
107162,-200,4,3,1,40,0,0
107726,-200,4,3,7,40,0,0
108049,-200,4,3,3,40,0,0
108371,-200,4,3,7,40,0,0
108452,-200,4,3,3,40,0,0
108694,-200,4,3,7,40,0,0
109339,-90.9090909090909,4,3,16,80,0,0
109379,-90.9090909090909,4,3,1,5,0,0
109662,-90.9090909090909,4,3,1,80,0,0
109742,-90.9090909090909,4,3,1,5,0,0
109823,-151.515151515152,4,3,3,80,0,0
109863,-151.515151515152,4,3,1,5,0,0
110145,-151.515151515152,4,3,1,80,0,0
110186,-100,4,3,1,5,0,0
110468,-200,4,3,1,80,0,0
110508,-200,4,3,1,5,0,0
110791,-200,4,3,1,90,0,0
111597,-200,4,3,3,90,0,0
111920,-200,4,3,1,40,0,0
112242,-200,4,3,7,40,0,0
112323,-200,4,3,1,40,0,0
112565,-135.135135135135,4,3,7,40,0,0
112726,-135.135135135135,4,3,15,40,0,0
112807,-135.135135135135,4,3,7,40,0,0
112887,-133.333333333333,4,3,16,50,0,0
113210,-133.333333333333,4,3,1,50,0,0
113533,-133.333333333333,4,3,12,60,0,0
113694,-133.333333333333,4,3,1,60,0,0
113855,-133.333333333333,4,3,12,70,0,0
114016,-133.333333333333,4,3,1,70,0,0
114178,-133.333333333333,4,3,8,70,0,0
114500,-83.3333333333333,4,3,22,80,0,1
114662,-83.3333333333333,4,3,7,80,0,1
117081,-71.4285714285714,4,3,18,80,0,1
117242,-83.3333333333333,4,3,20,80,0,1
117404,-83.3333333333333,4,3,15,80,0,1
117484,-83.3333333333333,4,3,7,80,0,1
118371,-86.9565217391304,4,3,7,80,0,1
118533,-84.0336134453781,4,3,20,80,0,1
118694,-84.0336134453781,4,3,15,80,0,1
118775,-84.0336134453781,4,3,7,80,0,1
118855,-83.3333333333333,4,3,7,80,0,1
119662,-83.3333333333333,4,3,18,80,0,1
119823,-83.3333333333333,4,3,7,80,0,1
122242,-67.1140939597315,4,3,18,80,0,1
122404,-84.0336134453781,4,3,20,80,0,1
122565,-84.0336134453781,4,3,15,80,0,1
122645,-84.0336134453781,4,3,7,80,0,1
123533,-100,4,3,1,55,0,0
124178,-100,4,3,1,60,0,0
124258,-100,4,3,1,62,0,0
124339,-100,4,3,1,65,0,0
124420,-100,4,3,1,67,0,0
124500,-100,4,3,1,70,0,0
124581,-100,4,3,1,72,0,0
124662,-100,4,3,1,75,0,0
124742,-100,4,3,1,77,0,0
124823,-83.3333333333333,4,3,22,80,0,1
124984,-83.3333333333333,4,3,7,80,0,1
127404,-74.0740740740741,4,3,18,80,0,1
127565,-80,4,3,20,80,0,1
127726,-90.9090909090909,4,3,15,80,0,1
127807,-90.9090909090909,4,3,7,80,0,1
128694,-83.3333333333333,4,3,7,80,0,1
128855,-100,4,3,20,80,0,1
129016,-90.9090909090909,4,3,15,80,0,1
129097,-90.9090909090909,4,3,7,80,0,1
129984,-83.3333333333333,4,3,18,80,0,1
130145,-83.3333333333333,4,3,7,80,0,1
132565,-100,4,3,18,80,0,1
132645,-100,4,3,7,80,0,1
133855,-90.9090909090909,4,3,16,80,0,1
134016,-90.9090909090909,4,3,1,80,0,1
134500,-90.9090909090909,4,3,12,80,0,1
134662,-90.9090909090909,4,3,1,80,0,1
135145,-90.9090909090909,4,3,4,60,0,1
135307,-90.9090909090909,4,3,12,60,0,1
135468,-90.9090909090909,4,3,12,55,0,1
135791,-90.9090909090909,4,3,12,50,0,1
136113,-90.9090909090909,4,3,1,80,0,1
136436,-100,4,3,1,60,0,0
136597,-100,4,3,7,60,0,0
141597,-100,4,3,3,60,0,0
141758,-100,4,3,7,60,0,0
145791,-100,4,3,4,60,0,0
145952,-100,4,3,7,60,0,0
146436,-100,4,3,4,60,0,0
146597,-100,4,3,7,60,0,0
146758,-100,4,3,1,60,0,0
146920,-100,4,3,7,60,0,0
150952,-100,4,3,4,60,0,0
151113,-100,4,3,7,60,0,0
151275,-100,4,3,16,60,0,0
151436,-100,4,3,7,60,0,0
151597,-100,4,3,3,60,0,0
151920,-100,4,3,1,60,0,0
152081,-100,4,3,7,60,0,0
154016,-100,4,3,4,60,0,0
154500,-166.666666666667,4,3,17,80,0,0
154984,-166.666666666667,4,3,4,80,0,0
155468,-166.666666666667,4,3,4,80,0,0
155791,-166.666666666667,4,3,8,80,0,0
155952,-100,4,3,1,60,0,0
156113,-100,4,3,12,60,0,0
156275,-100,4,3,1,60,0,0
156436,-100,4,3,12,60,0,0
156597,-100,4,3,1,60,0,0
157081,-66.6666666666667,4,3,1,80,0,0
157121,-66.6666666666667,4,3,1,5,0,0
157404,-76.9230769230769,4,3,2,80,0,0
157484,-76.9230769230769,4,3,1,5,0,0
157565,-100,4,3,3,80,0,0
157605,-100,4,3,1,5,0,0
157887,-133.333333333333,4,3,1,80,0,0
157928,-133.333333333333,4,3,1,5,0,0
158210,-68.0272108843537,4,3,16,80,0,0
158250,-68.0272108843537,4,3,1,5,0,0
158533,-68.0272108843537,4,3,1,90,0,0
159016,-68.0272108843537,4,3,1,90,0,0
159178,-68.0272108843537,4,3,3,90,0,0
159339,-68.0272108843537,4,3,1,90,0,0
159662,-200,4,3,1,40,0,0
162242,-100,4,3,2,80,0,0
162283,-100,4,3,1,5,0,0
162565,-181.818181818181,4,3,1,80,0,0
162645,-181.818181818181,4,3,1,5,0,0
162726,-76.9230769230769,4,3,3,80,0,0
162766,-76.9230769230769,4,3,1,5,0,0
163049,-83.3333333333333,4,3,16,80,0,0
163089,-83.3333333333333,4,3,1,5,0,0
163371,-108.695652173913,4,3,1,80,0,0
163412,-108.695652173913,4,3,1,5,0,0
163694,-108.695652173913,4,3,1,90,0,0
164178,-108.695652173913,4,3,8,90,0,0
164339,-108.695652173913,4,3,3,90,0,0
164500,-108.695652173913,4,3,1,90,0,0
164823,-200,4,3,1,40,0,0
165145,-200,4,3,7,40,0,0
165791,-133.333333333333,4,3,16,50,0,0
166113,-133.333333333333,4,3,1,60,0,0
166436,-133.333333333333,4,3,19,70,0,0
166516,-133.333333333333,4,3,6,70,0,0
166597,-133.333333333333,4,3,19,70,0,0
166678,-133.333333333333,4,3,6,70,0,0
166758,-133.333333333333,4,3,1,80,0,0
167081,-90.9090909090909,4,3,1,50,0,0
167242,-90.9090909090909,4,3,21,50,0,0
167323,-90.9090909090909,4,3,1,50,0,0
167404,-100,4,3,22,80,0,1
167565,-100,4,3,7,80,0,1
169339,-90.9090909090909,4,3,7,80,0,1
169904,-90.9090909090909,4,3,7,5,0,1
169984,-68.9655172413793,4,3,18,80,0,1
170145,-83.3333333333333,4,3,20,80,0,1
170307,-83.3333333333333,4,3,15,80,0,1
170387,-83.3333333333333,4,3,7,80,0,1
171275,-71.4285714285714,4,3,7,80,0,1
171436,-83.3333333333333,4,3,20,80,0,1
171597,-83.3333333333333,4,3,15,80,0,1
171678,-83.3333333333333,4,3,7,80,0,1
172565,-90.9090909090909,4,3,18,80,0,1
172726,-90.9090909090909,4,3,7,80,0,1
174500,-76.9230769230769,4,3,7,80,0,1
174984,-100,4,3,7,80,0,1
175145,-100,4,3,18,80,0,1
175307,-100,4,3,7,80,0,1
175468,-133.333333333333,4,3,7,80,0,1
176436,-100,4,3,16,80,0,0
177726,-83.3333333333333,4,3,22,80,0,1
177887,-83.3333333333333,4,3,7,80,0,1
180145,-111.111111111111,4,3,2,60,0,1
180226,-111.111111111111,4,3,2,5,0,1
180307,-71.4285714285714,4,3,18,80,0,1
180468,-83.3333333333333,4,3,20,80,0,1
180629,-83.3333333333333,4,3,15,80,0,1
180710,-83.3333333333333,4,3,7,80,0,1
181597,-76.9230769230769,4,3,7,80,0,1
181758,-83.3333333333333,4,3,20,80,0,1
181920,-83.3333333333333,4,3,15,80,0,1
182000,-83.3333333333333,4,3,7,80,0,1
182887,-83.3333333333333,4,3,18,80,0,1
183049,-83.3333333333333,4,3,7,80,0,1
186758,-100,4,3,16,80,0,1
186839,-100,4,3,1,80,0,1
187000,-100,4,3,1,55,0,1
187081,-100,4,3,1,80,0,1
187484,-100,4,3,1,55,0,1
187565,-100,4,3,1,80,0,1
188049,-133.333333333333,4,3,2,60,0,0
188371,-133.333333333333,4,3,16,60,0,0
188452,-133.333333333333,4,3,2,60,0,0
188694,-133.333333333333,4,3,16,60,0,0
189097,-133.333333333333,4,3,1,60,0,0
189339,-133.333333333333,4,3,15,60,0,0
189420,-133.333333333333,4,3,16,60,0,0
189984,-133.333333333333,4,3,20,60,0,0
190065,-133.333333333333,4,3,16,60,0,0
190629,-133.333333333333,4,3,1,60,0,0
190710,-133.333333333333,4,3,16,60,0,0
191275,-133.333333333333,4,3,20,60,0,0
191355,-133.333333333333,4,3,16,60,0,0
191758,-133.333333333333,4,3,3,60,0,0
191839,-133.333333333333,4,3,16,60,0,0
192565,-133.333333333333,4,3,20,60,0,0
192645,-133.333333333333,4,3,16,60,0,0
193049,-133.333333333333,4,3,4,60,0,0
193129,-133.333333333333,4,3,16,60,0,0
193210,-133.333333333333,4,3,1,60,0,0
193291,-133.333333333333,4,3,16,60,0,0
193855,-133.333333333333,4,3,20,60,0,0
193936,-133.333333333333,4,3,16,60,0,0
195145,-133.333333333333,4,3,24,60,0,0
195226,-133.333333333333,4,3,16,60,0,0
195791,-133.333333333333,4,3,19,60,0,0
195871,-133.333333333333,4,3,16,60,0,0
196436,-133.333333333333,4,3,20,60,0,0
196516,-133.333333333333,4,3,16,60,0,0
198371,-133.333333333333,4,3,14,60,0,0
199662,-200,4,3,1,40,0,0
199715,-200,4,3,1,5,0,0
200952,-200,4,3,14,40,0,0
202242,-153.846153846153,4,3,1,40,0,0
202296,-153.846153846153,4,3,1,5,0,0
202780,-153.846153846153,4,3,1,40,0,0
202887,-133.333333333333,4,3,25,40,0,0
202995,-133.333333333333,4,3,25,47,0,0
203102,-133.333333333333,4,3,25,54,0,0
203210,-133.333333333333,4,3,25,60,0,0
203533,-133.333333333333,4,3,1,60,0,0
203586,-133.333333333333,4,3,1,5,0,0
204178,-133.333333333333,4,3,1,60,0,0
204232,-133.333333333333,4,3,1,5,0,0
204823,-185.185185185185,4,3,1,40,0,0
204877,-185.185185185185,4,3,1,5,0,0
205468,-172.413793103448,4,3,2,40,0,0
205522,-172.413793103448,4,3,2,5,0,0
206113,-172.413793103448,4,3,3,40,0,0
206167,-172.413793103448,4,3,3,5,0,0
206436,-133.333333333333,4,3,4,40,0,0
206490,-133.333333333333,4,3,4,5,0,0
206758,-133.333333333333,4,3,1,35,0,0
206866,-133.333333333333,4,3,1,39,0,0
206973,-133.333333333333,4,3,1,43,0,0
207081,-117.647058823529,4,3,1,47,0,0
207189,-117.647058823529,4,3,1,51,0,0
207296,-117.647058823529,4,3,1,55,0,0
207404,-100,4,3,1,40,0,0
207511,-100,4,3,20,40,0,0
207834,-133.333333333333,4,3,12,40,0,0
208049,-133.333333333333,4,3,4,40,0,0
208156,-133.333333333333,4,3,1,40,0,0
208479,-133.333333333333,4,3,12,40,0,0
208694,-100,4,3,2,60,0,0
208801,-100,4,3,4,60,0,0
211275,-100,4,3,19,60,0,0
211382,-100,4,3,4,60,0,0
212565,-200,4,3,4,60,0,0
212780,-200,4,3,7,60,0,0
213210,-100,4,3,4,60,0,0
213855,-200,4,3,1,60,0,0
214070,-200,4,3,19,60,0,0
215038,-100,4,3,6,60,0,0
215145,-100,4,3,19,60,0,0
215253,-100,4,3,6,60,0,0
215361,-100,4,3,19,60,0,0
215468,-100,4,3,6,60,0,0
215576,-100,4,3,19,60,0,0
215683,-100,4,3,6,60,0,0
215791,-153.846153846153,4,3,19,60,0,0
215898,-100,4,3,6,60,0,0
216006,-100,4,3,19,60,0,0
216113,-200,4,3,1,60,0,0
216167,-133.333333333333,4,3,1,5,0,0
216221,-133.333333333333,4,3,19,60,0,0
216275,-133.333333333333,4,3,19,5,0,0
216328,-133.333333333333,4,3,19,60,0,0
216382,-133.333333333333,4,3,19,5,0,0
216436,-100,4,3,26,60,0,0
217738,322.58064516129,4,3,13,50,1,0
217738,-133.333333333333,4,3,13,50,0,0
218069,322.58064516129,4,3,1,50,1,0
218069,-111.111111111111,4,3,1,50,0,0
218407,322.58064516129,4,3,1,50,1,0
218407,-95.2380952380952,4,3,1,50,0,0
218741,294.117647058824,4,3,1,50,1,0
218741,-83.3333333333333,4,3,1,50,0,0
219016,322.58064516129,4,3,1,50,1,0
219016,-100,4,3,1,50,0,0
219177,-100,4,3,20,50,0,0
219257,-100,4,3,1,50,0,0
219338,-133.333333333333,4,3,1,50,0,0
219499,-80,4,3,7,50,0,0
219661,-80,4,3,15,50,0,0
219822,-100,4,3,7,50,0,0
220306,-66.6666666666667,4,3,7,50,0,0
222080,-100,4,3,7,50,0,0
222483,-111.111111111111,4,3,7,50,0,0
222725,-125,4,3,7,50,0,0
222886,-153.846153846153,4,3,7,50,0,0
223048,-153.846153846153,4,3,20,50,0,0
223128,-153.846153846153,4,3,7,50,0,0
223854,-153.846153846154,4,3,7,50,0,0
224016,-153.846153846154,4,3,4,50,0,0
224177,-166.666666666667,4,3,1,50,0,0
224499,-142.857142857143,4,3,7,50,0,0
224822,-125,4,3,7,50,0,0
225145,-100,4,3,7,50,0,0
225225,-100,4,3,7,5,0,0
225306,-100,4,3,7,50,0,0
225386,-100,4,3,7,5,0,0
225467,-102.040816326531,4,3,1,50,0,0
225628,-102.040816326531,4,3,20,50,0,0
225790,-102.040816326531,4,3,15,50,0,0
225951,-89.2857142857143,4,3,7,50,0,0
226757,-100,4,3,2,50,0,0
226919,-100,4,3,20,50,0,0
227080,-100,4,3,15,50,0,0
227241,-133.333333333333,4,3,7,50,0,0
227886,-90.9090909090909,4,3,7,50,0,0
228048,-83.3333333333333,4,3,7,50,0,0
228209,-83.3333333333333,4,3,20,50,0,0
228370,-100,4,3,7,50,0,0
229016,-133.333333333333,4,3,12,50,0,0
229338,-100,4,3,2,60,0,1
229419,-100,4,3,19,60,0,1
230386,-100,4,3,6,60,0,1
230467,-100,4,3,19,60,0,1
230628,-100,4,3,4,60,0,1
230709,-100,4,3,19,60,0,1
231112,-100,4,3,13,60,0,1
231193,-100,4,3,19,60,0,1
231596,-100,4,3,4,60,0,1
231919,-100,4,3,16,60,0,1
232403,-100,4,3,19,60,0,1
232967,-100,4,3,6,60,0,1
233048,-100,4,3,13,60,0,1
233209,-100,4,3,14,60,0,1
233693,-100,4,3,16,60,0,1
234016,-100,4,3,4,60,0,1
234177,-100,4,3,1,60,0,1
234338,-66.6666666666667,4,3,3,60,0,1
234499,-133.333333333333,4,3,2,60,0,1
234580,-133.333333333333,4,3,7,60,0,1
237080,-100,4,3,1,70,0,1
237241,-100,4,3,16,70,0,1
237725,-83.3333333333333,4,3,1,60,0,1
237886,-83.3333333333333,4,3,15,60,0,1
238048,-100,4,3,12,60,0,1
238209,-100,4,3,15,60,0,1
238370,-76.9230769230769,4,3,1,60,0,1
238532,-76.9230769230769,4,3,15,60,0,1
238854,-76.9230769230769,4,3,2,60,0,1
239015,-100,4,3,1,60,0,1
239338,-80,4,3,3,60,0,1
239378,-80,4,3,8,60,0,1
239419,-80,4,3,3,5,0,1
239459,-80,4,3,3,60,0,1
239499,-80,4,3,3,5,0,1
239540,-80,4,3,3,60,0,1
239580,-80,4,3,3,5,0,1
239620,-80,4,3,3,60,0,1
239661,-68.9655172413793,4,3,1,5,0,1
239822,-68.9655172413793,4,3,15,5,0,1
239903,-68.9655172413793,4,3,1,5,0,1
239983,-74.0740740740741,4,3,1,60,0,1
240145,-74.0740740740741,4,3,20,60,0,1
240306,-74.0740740740741,4,3,1,60,0,1
240366,-86.9565217391306,4,3,1,60,0,1
240649,-105.263157894737,4,3,1,60,0,1
240951,322.58064516129,4,3,1,55,1,1
240951,-100,4,3,1,55,0,1
241273,-100,4,3,1,60,0,1
241596,-100,4,3,1,65,0,1
241918,-100,4,3,1,70,0,1
242241,-100,4,3,16,75,0,1
242725,-100,4,3,14,80,0,1
243209,-100,4,3,12,80,0,1
243531,-100,4,3,8,50,0,0
244821,-133.333333333333,4,3,8,50,0,0
246112,-100,4,3,8,50,0,0
247402,-133.333333333333,4,3,8,50,0,0
248692,-100,4,3,8,50,0,0
249983,-133.333333333333,4,3,8,50,0,0
251273,-100,4,3,8,50,0,0
252563,-83.3333333333333,4,3,15,50,0,0
252725,-83.3333333333333,4,3,7,50,0,0
253209,-83.3333333333333,4,3,7,65,0,0
253289,-83.3333333333333,4,3,7,45,0,0
253370,-83.3333333333333,4,3,7,40,0,0
253531,-83.3333333333333,4,3,7,60,0,0
253854,-100,4,3,1,40,0,0
254015,-100,4,3,7,40,0,0
255144,-133.333333333333,4,3,7,40,0,0
256434,-100,4,3,7,40,0,0
259015,-100,4,3,1,40,0,0
259217,-100,4,3,7,40,0,0
261596,-90.9090909090909,4,3,7,50,0,0
262241,-111.111111111111,4,3,7,50,0,0
262886,-111.111111111111,4,3,7,60,0,0
263531,-100,4,3,1,70,0,0
263612,-100,4,3,12,70,0,0
263692,-100,4,3,1,70,0,0
264176,-85.4700854700855,4,3,1,80,0,0
264217,-85.4700854700855,4,3,1,5,0,0
264418,-85.4700854700855,4,3,1,5,0,0
264499,-66.6666666666667,4,3,2,80,0,0
264580,-66.6666666666667,4,3,1,5,0,0
264660,-86.2068965517241,4,3,16,80,0,0
264701,-86.2068965517241,4,3,16,5,0,0
264902,-86.2068965517241,4,3,1,5,0,0
264983,-74.6268656716418,4,3,1,80,0,0
265023,-74.6268656716418,4,3,1,5,0,0
265225,-74.6268656716418,4,3,1,5,0,0
265305,-90.9090909090909,4,3,3,80,0,0
265346,-90.9090909090909,4,3,3,5,0,0
265547,-90.9090909090909,4,3,1,5,0,0
265628,-90.9090909090909,4,3,1,90,0,0
266434,-90.9090909090909,4,3,2,90,0,0
266757,-200,4,3,7,40,0,0
268692,-158.730158730159,4,3,1,40,0,0
268854,-158.730158730159,4,3,1,46,0,0
268934,-158.730158730159,4,3,1,52,0,0
269015,-158.730158730159,4,3,12,58,0,0
269096,-158.730158730159,4,3,12,64,0,0
269176,-158.730158730159,4,3,12,70,0,0
269257,-158.730158730159,4,3,12,76,0,0
269338,-142.857142857143,4,3,1,80,0,0
269378,-142.857142857143,4,3,1,5,0,0
269580,-100,4,3,1,5,0,0
269660,-47.6190476190476,4,3,2,80,0,0
269741,-40,4,3,1,5,0,0
269821,-300,4,3,16,80,0,0
269862,-300,4,3,1,5,0,0
270063,-100,4,3,1,5,0,0
270144,-200,4,3,1,80,0,0
270184,-200,4,3,1,5,0,0
270386,-100,4,3,1,5,0,0
270467,-66.6666666666667,4,3,3,80,0,0
270507,-66.6666666666667,4,3,1,5,0,0
270709,-100,4,3,1,5,0,0
270789,-66.6666666666667,4,3,1,90,0,0
271273,-66.6666666666667,4,3,2,90,0,0
271434,-66.6666666666667,4,3,3,90,0,0
271596,-66.6666666666667,4,3,1,90,0,0
271918,-200,4,3,1,40,0,0
271999,-200,4,3,7,40,0,0
272725,-200,4,3,1,45,0,0
272886,-200,4,3,3,45,0,0
273047,-200,4,3,1,45,0,0
273209,-100,4,3,1,50,0,0
273370,-100,4,3,14,50,0,0
273692,-100,4,3,1,55,0,0
273854,-100,4,3,16,55,0,0
274015,-100,4,3,1,55,0,0
274176,-100,4,3,1,60,0,0
274338,-100,4,3,19,60,0,0
274418,-100,4,3,6,60,0,0
274499,-100,4,3,19,60,0,0
274580,-100,4,3,6,60,0,0
274660,-100,4,3,16,65,0,0
275144,-100,4,3,1,70,0,0
275225,-100,4,3,1,72,0,0
275305,-100,4,3,1,74,0,0
275386,-100,4,3,1,76,0,0
275467,-100,4,3,4,78,0,0
275628,-100,4,3,1,55,0,0
275789,-83.3333333333333,4,3,22,80,0,1
275951,-83.3333333333333,4,3,7,80,0,1
278370,-80,4,3,18,80,0,1
278531,-100,4,3,21,80,0,1
278692,-83.3333333333333,4,3,15,80,0,1
278773,-83.3333333333333,4,3,7,80,0,1
279660,-80,4,3,7,80,0,1
279821,-89.2857142857143,4,3,20,80,0,1
279983,-83.3333333333333,4,3,7,80,0,1
280950,-83.3333333333333,4,3,18,80,0,1
281112,-83.3333333333333,4,3,7,80,0,1
283370,-80.6451612903226,4,3,7,80,0,1
283531,-90.9090909090909,4,3,18,80,0,1
283692,-90.9090909090909,4,3,7,80,0,1
284821,-100,4,3,7,40,0,0
284902,-100,4,3,7,43,0,0
284983,-100,4,3,7,45,0,0
285063,-100,4,3,7,48,0,0
285144,-100,4,3,7,50,0,0
285225,-100,4,3,7,54,0,0
285305,-100,4,3,7,57,0,0
285386,-100,4,3,7,61,0,0
285467,-100,4,3,7,64,0,0
285547,-100,4,3,7,67,0,0
285628,-100,4,3,7,70,0,0
285709,-100,4,3,7,72,0,0
285789,-100,4,3,7,74,0,0
285870,-100,4,3,7,76,0,0
285950,-100,4,3,7,79,0,0
286031,-100,4,3,7,82,0,0
286112,-83.3333333333333,4,3,22,84,0,1
286273,-83.3333333333333,4,3,7,84,0,1
286434,-90.9090909090909,4,3,7,82,0,1
286596,-83.3333333333333,4,3,7,80,0,1
288692,-80,4,3,18,80,0,1
288854,-83.3333333333333,4,3,21,80,0,1
289015,-83.3333333333333,4,3,15,80,0,1
289096,-83.3333333333333,4,3,7,80,0,1
289983,-74.0740740740741,4,3,7,80,0,1
290144,-83.3333333333333,4,3,20,80,0,1
290305,-83.3333333333333,4,3,15,80,0,1
290386,-83.3333333333333,4,3,7,80,0,1
290628,-83.3333333333333,4,3,7,55,0,1
290789,-83.3333333333333,4,3,7,80,0,1
291273,-83.3333333333333,4,3,18,80,0,1
291434,-83.3333333333333,4,3,7,80,0,1
293209,-83.3333333333333,4,3,7,80,0,1
293854,-133.333333333333,4,3,18,80,0,0
294015,-133.333333333333,4,3,7,80,0,0
295144,-100,4,3,16,80,0,0
296112,-100,4,3,26,80,0,0
296434,-83.3333333333333,4,3,9,70,0,1
296515,-83.3333333333333,4,3,1,70,0,1
297080,-83.3333333333333,4,3,2,70,0,1
297160,-83.3333333333333,4,3,1,70,0,1
298370,-83.3333333333333,4,3,2,70,0,1
298450,-83.3333333333333,4,3,1,70,0,1
299660,-83.3333333333333,4,3,2,70,0,1
299741,-83.3333333333333,4,3,1,70,0,1
301434,-83.3333333333333,4,3,12,70,0,1
301515,-83.3333333333333,4,3,1,70,0,1
302241,-83.3333333333333,4,3,2,70,0,1
302321,-83.3333333333333,4,3,1,70,0,1
303531,-83.3333333333333,4,3,2,70,0,1
303612,-83.3333333333333,4,3,1,70,0,1
304821,-83.3333333333333,4,3,2,70,0,1
304902,-83.3333333333333,4,3,1,70,0,1
305467,-100,4,3,2,70,0,0
305789,-100,4,3,19,70,0,0
305870,-100,4,3,6,70,0,0
305950,-100,4,3,19,70,0,0
306031,-100,4,3,6,70,0,0
306112,-100,4,3,1,70,0,0
306434,-100,4,3,19,70,0,0
306515,-100,4,3,6,70,0,0
306596,-100,4,3,19,70,0,0
306676,-100,4,3,6,70,0,0
306757,-83.3333333333333,4,3,9,70,0,1
306838,-83.3333333333333,4,3,1,70,0,1
307402,-83.3333333333333,4,3,2,70,0,1
307483,-83.3333333333333,4,3,1,70,0,1
308692,-83.3333333333333,4,3,2,70,0,1
308773,-83.3333333333333,4,3,1,70,0,1
309983,-83.3333333333333,4,3,2,70,0,1
310063,-83.3333333333333,4,3,1,70,0,1
311757,-83.3333333333333,4,3,12,70,0,1
311838,-83.3333333333333,4,3,1,70,0,1
312563,-83.3333333333333,4,3,2,70,0,1
312644,-83.3333333333333,4,3,1,70,0,1
313854,-83.3333333333333,4,3,2,70,0,1
313934,-83.3333333333333,4,3,1,70,0,1
315144,-83.3333333333333,4,3,2,70,0,1
315225,-83.3333333333333,4,3,1,70,0,1
315870,-83.3333333333333,4,3,12,70,0,1
316031,-83.3333333333333,4,3,1,70,0,1
316273,-83.3333333333333,4,3,10,70,0,1
316354,-83.3333333333333,4,3,1,70,0,1
316757,-83.3333333333333,4,3,11,70,0,1
316918,-83.3333333333333,4,3,10,70,0,1
317080,-83.3333333333333,4,3,1,60,0,0
317241,-83.3333333333333,4,3,4,60,0,0
319660,-83.3333333333333,4,3,1,70,0,0
319821,-83.3333333333333,4,3,4,70,0,0
321918,-83.3333333333333,4,3,16,70,0,0
321999,-83.3333333333333,4,3,4,70,0,0
322080,-83.3333333333333,4,3,12,70,0,0
322241,-83.3333333333333,4,3,7,80,0,0
322886,-83.3333333333333,4,3,16,80,0,0
322967,-83.3333333333333,4,3,7,80,0,0
324176,-83.3333333333333,4,3,16,80,0,0
324257,-83.3333333333333,4,3,7,80,0,0
324821,-133.333333333334,4,3,16,80,0,0
325144,-117.64705882353,4,3,16,80,0,0
325467,-105.263157894737,4,3,16,80,0,0
325789,-95.2380952380954,4,3,16,80,0,0
326112,-86.9565217391306,4,3,7,80,0,0
326192,-86.9565217391306,4,3,12,80,0,0
326273,-86.9565217391306,4,3,10,80,0,0
326515,-86.9565217391306,4,3,7,80,0,0
326676,-86.9565217391306,4,3,12,80,0,0
326757,-86.9565217391306,4,3,10,80,0,0
326918,-86.9565217391306,4,3,7,80,0,0
327241,-95.2380952380952,4,3,7,80,0,0
327402,-86.9565217391306,4,3,13,90,0,0
327886,-86.9565217391306,4,3,14,90,0,0
328047,-86.9565217391306,4,3,13,90,0,0
328209,-86.9565217391306,4,3,20,90,0,0
328531,-86.9565217391306,4,3,12,90,0,0
328692,-86.9565217391306,4,3,13,90,0,0
328854,-86.9565217391306,4,3,12,90,0,0
329015,-86.9565217391306,4,3,13,90,0,0
329499,-86.9565217391306,4,3,1,100,0,0
329983,-86.9565217391306,4,3,22,100,0,0

[Colours]
Combo1 : 240,186,0
Combo2 : 75,67,109
Combo3 : 148,12,43
Combo4 : 207,207,207
Combo5 : 232,92,0
Combo6 : 130,155,255

[HitObjects]
381,287,55146,22,0,L|395:171,1,110,6|8,0:0|0:0,0:0:0:0:
290,17,55468,1,4,0:0:0:0:
133,230,55629,1,4,0:0:0:0:
99,19,55791,5,8,0:0:0:0:
84,57,55871,1,8,0:0:0:0:
57,85,55952,5,6,0:0:0:0:
75,126,56033,1,8,0:0:0:0:
90,164,56113,1,4,0:0:0:0:
105,203,56194,1,4,0:0:0:0:
133,230,56275,53,6,0:0:0:0:
118,268,56355,1,4,0:0:0:0:
103,306,56436,2,0,L|82:353,1,41.2500015735627,0|4,0:0|0:0,0:0:0:0:
258,68,56597,1,8,0:0:0:0:
309,384,56758,1,8,0:0:0:0:
453,98,56920,1,8,0:0:0:0:
168,244,57081,5,8,0:0:0:0:
484,293,57242,1,6,0:0:0:0:
258,68,57404,1,10,0:0:0:0:
309,384,57565,1,4,0:0:0:0:
309,384,57646,1,4,0:0:0:0:
309,384,57726,5,14,0:0:0:0:
319,379,57806,1,4,0:0:0:0:
328,374,57887,1,14,0:0:0:0:
335,367,57968,1,4,0:0:0:0:
342,360,58049,1,14,0:0:0:0:
349,352,58129,1,4,0:0:0:0:
356,344,58210,2,0,P|370:322|378:303,3,41.2500015735627,14|4|14|4,0:0|0:0|0:0|0:0,0:0:0:0:
250,71,58533,53,14,0:0:0:0:
240,74,58613,1,4,0:0:0:0:
230,78,58694,1,14,0:0:0:0:
221,83,58774,1,4,0:0:0:0:
212,88,58855,2,0,P|190:103|177:118,3,41.2500015735627,14|4|14|4,0:0|0:0|0:0|0:0,0:0:0:0:
274,278,59178,2,0,P|271:252|264:232,3,41.2500015735627,14|4|14|4,0:0|0:0|0:0|0:0,0:0:0:0:
78,236,59500,6,0,P|101:246|121:250,3,41.2500015735627,14|4|14|4,0:0|0:0|0:0|0:0,0:0:0:0:
130,159,59823,5,14,0:0:0:0:
182,160,59903,1,4,0:0:0:0:
233,176,59984,1,14,0:0:0:0:
277,207,60064,1,4,0:0:0:0:
324,231,60145,1,14,0:0:0:0:
377,240,60226,1,4,0:0:0:0:
417,243,60307,53,14,0:0:0:0:
427,243,60387,1,4,0:0:0:0:
437,243,60468,1,14,0:0:0:0:
447,242,60548,1,4,0:0:0:0:
458,240,60629,1,14,0:0:0:0:
468,236,60710,1,4,0:0:0:0:
477,231,60791,2,0,P|504:217|523:201,3,41.2500015735627,14|4|14|4,0:0|0:0|0:0|0:0,0:0:0:0:
322,49,61113,5,14,0:0:0:0:
311,49,61193,1,4,0:0:0:0:
301,52,61274,1,14,0:0:0:0:
291,55,61354,1,4,0:0:0:0:
281,59,61436,2,0,P|253:72|234:88,3,41.2500015735627,14|4|14|4,0:0|0:0|0:0|0:0,0:0:0:0:
247,229,61758,2,0,P|272:246|295:254,3,41.2500015735627,14|4|14|4,0:0|0:0|0:0|0:0,0:0:0:0:
412,173,62081,6,0,P|414:142|409:118,3,41.2500015735627,14|4|14|4,0:0|0:0|0:0|0:0,0:0:0:0:
313,154,62404,53,14,0:0:0:0:
273,144,62484,1,4,0:0:0:0:
211,155,62565,1,14,0:0:0:0:
171,145,62645,1,4,0:0:0:0:
109,156,62726,1,14,0:0:0:0:
69,146,62806,1,4,0:0:0:0:
7,157,62887,5,14,0:0:0:0:
3,166,62968,1,4,0:0:0:0:
1,176,63049,1,14,0:0:0:0:
0,187,63129,1,4,0:0:0:0:
0,197,63210,1,14,0:0:0:0:
1,207,63291,1,4,0:0:0:0:
3,217,63371,2,0,P|7:247|17:269,3,41.2500015735627,14|4|14|4,0:0|0:0|0:0|0:0,0:0:0:0:
222,94,63694,5,14,0:0:0:0:
224,84,63774,1,4,0:0:0:0:
228,73,63855,1,14,0:0:0:0:
232,64,63935,1,4,0:0:0:0:
236,54,64016,2,0,L|254:7,3,41.2500015735627,14|4|14|4,0:0|0:0|0:0|0:0,0:0:0:0:
335,169,64339,2,0,L|353:122,3,41.2500015735627,14|4|14|4,0:0|0:0|0:0|0:0,0:0:0:0:
434,284,64662,54,0,L|452:237,3,41.2500015735627,14|4|14|4,0:0|0:0|0:0|0:0,0:0:0:0:
454,384,64984,1,14,0:0:0:0:
398,373,65064,1,4,0:0:0:0:
344,364,65145,1,14,0:0:0:0:
290,354,65225,1,4,0:0:0:0:
236,345,65306,1,14,0:0:0:0:
182,335,65387,1,4,0:0:0:0:
128,326,65467,5,14,0:0:0:0:
117,323,65549,1,4,0:0:0:0:
107,322,65630,1,14,0:0:0:0:
97,320,65710,1,4,0:0:0:0:
87,318,65791,1,14,0:0:0:0:
76,316,65872,1,4,0:0:0:0:
66,315,65952,2,4,L|51:262,3,41.2500015735627,14|4|14|0,0:0|0:0|0:0|0:0,0:0:0:0:
384,256,66275,5,14,0:0:0:0:
390,210,66355,1,4,0:0:0:0:
397,164,66436,1,14,0:0:0:0:
405,117,66516,1,4,0:0:0:0:
412,72,66597,2,0,L|425:-5,3,55,14|4|14|4,0:0|0:0|0:0|0:0,0:0:0:0:
152,33,66920,53,8,0:0:0:0:
152,33,67000,1,8,0:0:0:0:
152,33,67081,2,0,L|156:88,1,55,8|8,0:0|0:0,0:0:0:0:
272,176,67242,2,0,L|267:118,1,46.7500008916855,4|4,0:0|0:0,0:0:0:0:
52,174,67404,2,0,L|100:200,1,46.7500008916855,4|4,0:0|0:0,0:0:0:0:
290,267,67565,2,0,L|233:271,1,46.7500008916855,4|4,0:0|0:0,0:0:0:0:
67,354,67726,2,0,L|128:348,1,46.7500008916855,8|0,0:0|0:0,0:0:0:0:
349,360,67887,1,8,0:0:0:0:
358,348,67968,1,8,0:0:0:0:
368,338,68049,6,0,L|385:216,1,110,6|10,0:0|0:0,0:0:0:0:
475,43,68371,1,4,0:0:0:0:
485,53,68451,1,4,0:0:0:0:
494,65,68533,2,0,L|477:187,1,110,10|4,0:0|0:0,0:0:0:0:
299,32,68855,5,10,0:0:0:0:
192,229,69016,1,4,0:0:0:0:
181,250,69096,1,4,0:0:0:0:
169,270,69177,1,10,0:0:0:0:
400,166,69339,1,4,0:0:0:0:
133,47,69500,2,0,P|77:99|69:148,1,110,10|4,0:0|0:0,0:0:0:0:
68,146,69742,1,4,0:0:0:0:
68,162,69823,53,10,0:0:0:0:
262,39,69984,1,4,0:0:0:0:
192,229,70145,1,10,0:0:0:0:
133,47,70307,1,4,0:0:0:0:
124,24,70387,1,4,0:0:0:0:
118,3,70468,1,10,0:0:0:0:
192,229,70629,6,0,L|170:359,1,110,4|10,0:0|0:0,0:0:0:0:
299,233,70952,1,4,0:0:0:0:
311,213,71033,1,4,0:0:0:0:
325,195,71113,2,0,L|347:65,1,110,10|4,0:0|0:0,0:0:0:0:
474,240,71436,1,10,0:0:0:0:
313,63,71597,1,4,0:0:0:0:
290,47,71678,1,4,0:0:0:0:
267,31,71758,5,10,0:0:0:0:
154,164,71920,1,4,0:0:0:0:
325,195,72081,1,10,0:0:0:0:
48,29,72242,1,4,0:0:0:0:
41,56,72323,1,4,0:0:0:0:
37,84,72404,2,0,B|53:146|53:146|42:180|42:180|62:250,1,165,10|0,0:0|0:0,0:0:0:0:
69,269,72726,1,10,0:0:0:0:
172,335,72887,1,4,0:0:0:0:
199,332,72967,1,4,0:0:0:0:
228,328,73048,1,14,0:0:0:0:
320,249,73210,54,0,P|342:181|318:130,1,110,2|10,0:0|0:0,0:0:0:0:
330,146,73452,1,4,0:0:0:0:
330,146,73533,1,4,0:0:0:0:
167,131,73694,2,0,P|214:184|271:188,1,110,10|4,0:0|0:0,0:0:0:0:
302,59,74016,1,10,0:0:0:0:
273,75,74097,1,4,0:0:0:0:
251,98,74178,1,4,0:0:0:0:
216,269,74339,5,10,0:0:0:0:
330,146,74500,1,4,0:0:0:0:
207,32,74662,1,10,0:0:0:0:
93,155,74823,1,4,0:0:0:0:
91,182,74904,1,4,0:0:0:0:
95,209,74984,1,10,0:0:0:0:
108,233,75064,1,0,0:0:0:0:
127,251,75145,1,4,0:0:0:0:
359,251,75307,1,10,0:0:0:0:
345,56,75468,1,4,0:0:0:0:
180,177,75629,1,10,0:0:0:0:
359,251,75791,5,6,0:0:0:0:
432,74,75952,1,0,0:0:0:0:
442,48,76032,1,0,0:0:0:0:
453,23,76113,1,0,0:0:0:0:
273,23,76275,2,0,P|220:40|180:91,1,110,10|4,0:0|0:0,0:0:0:0:
105,280,76597,2,0,L|95:236,3,44,14|4|4|4,0:0|0:0|0:0|0:0,0:0:0:0:
156,352,76920,53,10,0:0:0:0:
169,322,77000,1,4,0:0:0:0:
183,293,77081,1,4,0:0:0:0:
198,264,77162,1,4,0:0:0:0:
244,233,77242,5,8,0:0:0:0:
229,196,77323,1,8,0:0:0:0:
214,159,77404,1,4,0:0:0:0:
200,124,77484,1,8,0:0:0:0:
151,98,77565,5,4,0:0:0:0:
173,56,77645,1,4,0:0:0:0:
201,7,77726,1,0,0:0:0:0:
329,288,77887,1,4,0:0:0:0:
471,39,78049,1,8,0:0:0:0:
214,159,78210,1,8,0:0:0:0:
512,214,78371,1,6,0:0:0:0:
108,222,80952,54,0,L|98:122,1,82.5000031471254,6|8,0:0|0:0,0:0:0:0:
96,98,81194,1,8,0:0:0:0:
94,56,81275,1,8,0:0:0:0:
227,145,81436,5,4,0:0:0:0:
234,115,81516,1,4,0:0:0:0:
242,85,81597,1,4,0:0:0:0:
348,193,81758,5,4,0:0:0:0:
357,180,81839,1,4,0:0:0:0:
366,166,81920,1,4,0:0:0:0:
445,344,82081,1,2,0:0:0:0:
467,138,82242,1,8,0:0:0:0:
449,100,82323,1,8,0:0:0:0:
418,73,82404,1,8,0:0:0:0:
380,60,82484,1,8,0:0:0:0:
339,62,82565,53,6,0:0:0:0:
261,307,82887,5,6,0:0:0:0:
0,340,83210,5,6,0:0:0:0:
51,207,83371,1,8,0:0:0:0:
53,188,83452,1,8,0:0:0:0:
54,169,83533,6,0,L|64:57,1,110,6|10,0:0|0:0,0:0:0:0:
331,9,83855,1,4,0:0:0:0:
341,41,83936,1,4,0:0:0:0:
341,74,84016,2,0,P|306:141|271:163,1,110,10|4,0:0|0:0,0:0:0:0:
64,60,84339,1,10,0:0:0:0:
239,64,84500,1,4,0:0:0:0:
249,90,84581,1,4,0:0:0:0:
260,116,84662,2,0,B|257:232,1,110,10|4,0:0|0:0,0:0:0:0:
403,314,84984,6,0,B|416:278|404:247|404:247|411:217|411:217|397:177|409:141,1,165,10|4,0:0|0:0,0:0:0:0:
409,121,85307,1,10,0:0:0:0:
152,109,85468,1,4,0:0:0:0:
319,279,85629,1,10,0:0:0:0:
268,80,85791,1,4,0:0:0:0:
259,53,85871,1,4,0:0:0:0:
243,31,85952,1,10,0:0:0:0:
51,77,86113,6,0,P|46:130|71:180,1,110,4|10,0:0|0:0,0:0:0:0:
279,262,86436,1,0,0:0:0:0:
290,237,86516,1,4,0:0:0:0:
301,212,86597,2,0,B|344:109,1,110,10|4,0:0|0:0,0:0:0:0:
152,109,86920,1,10,0:0:0:0:
199,319,87081,1,4,0:0:0:0:
220,341,87162,1,4,0:0:0:0:
247,356,87242,2,0,P|316:355|355:324,1,110,10|4,0:0|0:0,0:0:0:0:
465,194,87565,54,0,B|412:132|373:183|322:121,1,165,10|4,0:0|0:0,0:0:0:0:
300,96,87887,1,10,0:0:0:0:
237,308,88049,1,4,0:0:0:0:
418,123,88210,1,10,0:0:0:0:
161,170,88371,1,4,0:0:0:0:
169,198,88452,1,4,0:0:0:0:
177,227,88533,1,10,0:0:0:0:
61,161,88694,6,0,P|83:105|145:71,1,110,6|10,0:0|0:0,0:0:0:0:
309,118,89016,1,0,0:0:0:0:
330,136,89097,1,4,0:0:0:0:
344,157,89178,2,0,P|356:215|337:269,1,110,10|4,0:0|0:0,0:0:0:0:
161,170,89500,1,10,0:0:0:0:
264,47,89662,1,4,0:0:0:0:
291,46,89742,1,4,0:0:0:0:
318,45,89823,2,0,L|431:43,1,110,10|4,0:0|0:0,0:0:0:0:
264,191,90145,6,0,P|247:116|267:71,1,110,10|0,0:0|0:0,0:0:0:0:
271,64,90387,1,4,0:0:0:0:
291,46,90468,1,10,0:0:0:0:
162,238,90629,1,4,0:0:0:0:
352,114,90791,1,10,0:0:0:0:
147,225,90952,2,0,L|205:196,1,57.7499982376099,4|4,0:0|0:0,0:0:0:0:
368,127,91113,1,10,0:0:0:0:
131,211,91275,53,4,0:0:0:0:
385,141,91436,2,0,B|418:215|418:215|403:303,1,165,0|0,0:0|0:0,0:0:0:0:
399,324,91758,1,0,0:0:0:0:
182,254,91920,1,4,0:0:0:0:
288,149,92081,2,0,L|367:63,1,110,10|4,0:0|0:0,0:0:0:0:
379,49,92323,1,4,0:0:0:0:
396,30,92404,1,10,0:0:0:0:
429,338,92565,5,4,0:0:0:0:
305,263,92726,2,0,B|271:251|258:220|258:220|221:206|221:206|203:166|159:150,1,165,10|4,0:0|0:0,0:0:0:0:
159,146,93049,1,10,0:0:0:0:
192,336,93210,1,4,0:0:0:0:
331,187,93371,1,10,0:0:0:0:
134,242,93533,1,6,0:0:0:0:
310,324,93694,1,8,0:0:0:0:
335,316,93775,1,8,0:0:0:0:
360,308,93855,5,6,0:0:0:0:
424,177,94016,2,0,P|389:113|289:102,1,165,10|4,0:0|0:0,0:0:0:0:
277,106,94339,1,10,0:0:0:0:
81,148,94500,1,4,0:0:0:0:
267,230,94662,1,10,0:0:0:0:
178,100,94823,1,4,0:0:0:0:
164,79,94904,1,4,0:0:0:0:
149,58,94984,1,10,0:0:0:0:
144,257,95145,53,4,0:0:0:0:
272,148,95307,2,0,B|321:138|343:101|343:101|367:55|419:43,1,165,10|4,0:0|0:0,0:0:0:0:
424,39,95629,1,10,0:0:0:0:
431,142,95791,2,0,L|444:252,1,110,4|10,0:0|0:0,0:0:0:0:
370,381,96113,1,4,0:0:0:0:
366,353,96193,1,4,0:0:0:0:
363,326,96275,1,10,0:0:0:0:
339,143,96436,5,4,0:0:0:0:
256,286,96597,2,0,B|263:249|243:218|243:218|249:188|249:188|230:153|245:115,1,165,10|4,0:0|0:0,0:0:0:0:
246,99,96920,1,10,0:0:0:0:
192,14,97081,2,0,P|154:58|148:123,1,110,4|10,0:0|0:0,0:0:0:0:
174,369,97404,1,4,0:0:0:0:
193,352,97484,1,4,0:0:0:0:
207,331,97565,2,0,P|222:284|214:222,1,110,10|4,0:0|0:0,0:0:0:0:
308,104,97887,6,0,P|362:128|384:198,1,132,10|4,0:0|0:0,0:0:0:0:
304,185,98210,1,10,0:0:0:0:
71,210,98371,1,6,0:0:0:0:
191,20,98533,2,0,L|161:68,1,55,8|8,0:0|0:0,0:0:0:0:
117,137,98694,1,6,0:0:0:0:
245,105,98855,2,0,L|233:160,1,55,8|8,0:0|0:0,0:0:0:0:
215,240,99016,53,6,0:0:0:0:
376,114,99178,1,10,0:0:0:0:
359,314,99339,1,4,0:0:0:0:
331,307,99420,1,4,0:0:0:0:
304,300,99500,2,0,B|253:278|253:278|212:236,1,110,10|4,0:0|0:0,0:0:0:0:
128,86,99823,1,10,0:0:0:0:
93,238,99984,2,0,B|113:289|113:289|151:328,1,110,4|10,0:0|0:0,0:0:0:0:
332,384,100307,5,4,0:0:0:0:
472,251,100468,2,0,B|456:181|397:201|372:116,1,165,10|4,0:0|0:0,0:0:0:0:
361,88,100791,1,10,0:0:0:0:
241,230,100952,1,4,0:0:0:0:
219,13,101113,1,10,0:0:0:0:
100,173,101275,1,4,0:0:0:0:
92,198,101355,1,4,0:0:0:0:
91,225,101436,1,10,0:0:0:0:
221,322,101597,5,4,0:0:0:0:
381,258,101758,2,0,B|415:182|415:182|371:102,1,165,10|4,0:0|0:0,0:0:0:0:
361,88,102081,1,10,0:0:0:0:
95,59,102242,2,0,P|59:94|51:154,1,110,4|10,0:0|0:0,0:0:0:0:
111,337,102565,1,4,0:0:0:0:
138,338,102645,1,4,0:0:0:0:
163,329,102726,2,0,P|203:298|219:240,1,110,10|4,0:0|0:0,0:0:0:0:
134,135,103049,54,0,L|130:245,1,110,10|10,0:0|0:0,0:0:0:0:
28,159,103371,1,4,0:0:0:0:
27,128,103452,1,4,0:0:0:0:
27,97,103532,1,10,0:0:0:0:
161,4,103694,1,8,0:0:0:0:
178,22,103775,1,8,0:0:0:0:
186,67,103855,1,8,0:0:0:0:
204,86,103936,1,8,0:0:0:0:
213,130,104016,1,8,0:0:0:0:
231,150,104097,1,8,0:0:0:0:
240,196,104178,6,0,B|222:241|222:241|214:250|214:250|201:282|201:282|201:293|201:293|177:350|177:350|201:338|201:338|229:335,1,222.750000849724,6|0,0:0|0:0,0:0:0:0:
296,384,104500,6,0,P|310:354|311:321,1,65.9999979858399,6|0,0:0|0:0,0:0:0:0:
394,322,104662,54,0,B|398:285|362:253|362:253|368:203|368:203|359:168|359:168|364:128,1,197.99999395752,6|0,0:0|0:0,0:0:0:0:
299,83,104984,6,0,P|360:53|440:112,1,171.599998952637,6|0,0:0|0:0,0:0:0:0:
467,102,105307,6,0,P|406:35|287:59,1,222.750000849724,6|0,0:0|0:0,0:0:0:0:
267,76,105629,53,8,0:0:0:0:
8,157,105791,1,8,0:0:0:0:
288,253,105952,1,8,0:0:0:0:
109,0,106113,1,6,0:0:0:0:
36,309,106275,1,4,0:0:0:0:
288,58,106436,1,6,0:0:0:0:
94,225,106758,5,6,0:0:0:0:
108,231,106839,1,4,0:0:0:0:
123,235,106920,1,4,0:0:0:0:
138,237,107000,1,4,0:0:0:0:
153,236,107081,1,6,0:0:0:0:
168,233,107162,1,4,0:0:0:0:
184,231,107242,1,4,0:0:0:0:
199,233,107323,1,4,0:0:0:0:
229,208,107404,6,0,P|260:209|293:214,1,55,8|0,0:0|0:0,0:0:0:0:
338,215,107726,2,0,P|310:215|283:211,1,55,2|0,0:0|0:0,0:0:0:0:
417,159,108049,53,6,0:0:0:0:
403,153,108129,1,4,0:0:0:0:
388,149,108210,1,4,0:0:0:0:
373,147,108291,1,4,0:0:0:0:
358,148,108371,1,4,0:0:0:0:
343,151,108452,1,4,0:0:0:0:
327,153,108533,1,4,0:0:0:0:
312,151,108613,1,4,0:0:0:0:
282,176,108694,6,0,P|251:175|218:170,1,55,8|0,0:0|0:0,0:0:0:0:
172,168,109016,2,0,P|200:168|227:172,1,55,2|0,0:0|0:0,0:0:0:0:
213,342,109339,6,0,B|204:274|204:274|181:234|181:234|169:148,1,181.500005538941,6|0,0:0|0:0,0:0:0:0:
158,88,109662,2,0,L|168:152,1,60.5000018463135,6|0,0:0|0:0,0:0:0:0:
108,230,109823,54,0,B|113:262|113:262|134:298|134:298|140:343,1,108.899999667664,6|0,0:0|0:0,0:0:0:0:
277,280,110145,6,0,B|273:247|273:247|252:211|252:211|246:166,1,108.899999667664,6|0,0:0|0:0,0:0:0:0:
244,142,110468,2,0,P|244:173|248:142,1,82.5,6|0,0:0|0:0,0:0:0:0:
146,46,110791,5,8,0:0:0:0:
114,259,110952,1,8,0:0:0:0:
366,46,111113,53,8,0:0:0:0:
398,259,111275,1,6,0:0:0:0:
256,30,111436,5,4,0:0:0:0:
256,337,111597,1,6,0:0:0:0:
198,271,111920,5,6,0:0:0:0:
210,261,112000,1,4,0:0:0:0:
224,255,112081,1,4,0:0:0:0:
239,250,112162,1,4,0:0:0:0:
254,249,112242,1,6,0:0:0:0:
269,250,112323,1,4,0:0:0:0:
284,253,112404,1,4,0:0:0:0:
298,260,112484,1,4,0:0:0:0:
311,268,112565,54,0,P|368:288|424:266,1,122.100002980957,6|0,0:0|0:0,0:0:0:0:
367,200,112887,1,10,0:0:0:0:
406,42,113049,1,10,0:0:0:0:
226,207,113210,6,0,L|241:260,2,41.2500015735627,4|4|8,0:0|0:0|0:0,0:0:0:0:
130,117,113533,1,8,0:0:0:0:
126,132,113614,1,8,0:0:0:0:
125,147,113694,1,4,0:0:0:0:
128,162,113775,1,4,0:0:0:0:
135,177,113855,5,4,0:0:0:0:
163,141,113936,1,4,0:0:0:0:
205,122,114016,1,4,0:0:0:0:
251,123,114097,1,4,0:0:0:0:
291,145,114178,1,10,0:0:0:0:
410,327,114339,1,8,0:0:0:0:
405,298,114420,1,8,0:0:0:0:
399,270,114500,6,0,L|376:136,1,131.99999597168,6|10,0:0|0:0,0:0:0:0:
289,39,114823,1,4,0:0:0:0:
259,43,114904,1,4,0:0:0:0:
231,49,114984,2,0,L|89:71,1,131.99999597168,10|4,0:0|0:0,0:0:0:0:
13,171,115307,1,10,0:0:0:0:
164,197,115468,2,0,L|306:219,1,131.99999597168,4|10,0:0|0:0,0:0:0:0:
392,320,115791,5,4,0:0:0:0:
243,342,115952,2,0,L|112:362,1,131.99999597168,10|4,0:0|0:0,0:0:0:0:
84,368,116194,1,4,0:0:0:0:
54,371,116275,1,10,0:0:0:0:
62,163,116436,2,0,P|95:107|169:92,1,131.99999597168,4|10,0:0|0:0,0:0:0:0:
237,197,116678,2,0,P|204:253|130:268,1,131.99999597168,4|4,0:0|0:0,0:0:0:0:
150,180,116920,1,10,0:0:0:0:
343,88,117081,6,0,B|373:61|394:12|394:12|331:249,1,307.999990600586,4|4,0:0|0:0,0:0:0:0:
331,245,117484,1,4,0:0:0:0:
325,268,117565,1,10,0:0:0:0:
178,16,117726,1,4,0:0:0:0:
149,306,117887,1,10,0:0:0:0:
343,88,118049,1,4,0:0:0:0:
57,149,118210,1,10,0:0:0:0:
258,305,118371,54,0,B|355:305|355:305|378:286|378:286|421:325|421:325|445:325|445:325|485:289|485:289,1,253.000004825592,4|4,0:0|0:0,0:0:0:0:
494,278,118775,1,4,0:0:0:0:
512,262,118855,1,10,0:0:0:0:
279,172,119016,1,4,0:0:0:0:
512,175,119178,1,10,0:0:0:0:
279,85,119339,1,4,0:0:0:0:
246,89,119419,1,4,0:0:0:0:
219,107,119500,1,10,0:0:0:0:
99,361,119662,6,0,P|100:295|131:238,1,131.99999597168,6|10,0:0|0:0,0:0:0:0:
331,162,119984,1,4,0:0:0:0:
347,190,120064,1,4,0:0:0:0:
354,222,120145,2,0,P|352:287|321:344,1,131.99999597168,10|4,0:0|0:0,0:0:0:0:
144,342,120468,1,10,0:0:0:0:
77,148,120629,2,0,P|141:137|203:158,1,131.99999597168,4|10,0:0|0:0,0:0:0:0:
360,297,120952,5,4,0:0:0:0:
436,140,121113,2,0,P|385:98|321:85,1,131.99999597168,10|4,0:0|0:0,0:0:0:0:
291,89,121355,1,4,0:0:0:0:
261,99,121436,1,10,0:0:0:0:
114,212,121597,2,0,P|201:224|248:182,1,131.99999597168,4|10,0:0|0:0,0:0:0:0:
354,191,121839,2,0,P|267:179|220:221,1,131.99999597168,4|4,0:0|0:0,0:0:0:0:
156,303,122081,1,10,0:0:0:0:
402,273,122242,54,0,P|448:179|280:133,1,327.24999350853,6|4,0:0|0:0,0:0:0:0:
264,149,122645,1,4,0:0:0:0:
245,171,122726,1,10,0:0:0:0:
120,324,122887,1,4,0:0:0:0:
124,53,123049,1,10,0:0:0:0:
140,200,123210,2,0,B|179:250|179:250|241:278,1,130.899997403412,4|10,0:0|0:0,0:0:0:0:
393,346,123533,5,4,0:0:0:0:
402,311,123613,1,4,0:0:0:0:
404,275,123694,1,12,0:0:0:0:
397,240,123775,1,4,0:0:0:0:
382,208,123855,1,4,0:0:0:0:
364,176,123936,1,4,0:0:0:0:
354,142,124016,1,12,0:0:0:0:
351,106,124097,1,4,0:0:0:0:
358,71,124178,5,4,0:0:0:0:
344,132,124258,1,4,0:0:0:0:
307,184,124339,1,12,0:0:0:0:
254,219,124420,1,4,0:0:0:0:
192,231,124500,1,4,0:0:0:0:
130,218,124581,1,4,0:0:0:0:
78,182,124662,1,12,0:0:0:0:
43,130,124742,1,4,0:0:0:0:
31,67,124823,54,0,L|20:200,1,131.99999597168,6|10,0:0|0:0,0:0:0:0:
129,382,125145,1,4,0:0:0:0:
127,355,125226,1,4,0:0:0:0:
124,328,125307,2,0,L|111:193,1,131.99999597168,10|4,0:0|0:0,0:0:0:0:
284,34,125629,1,10,0:0:0:0:
245,238,125791,2,0,P|240:303|276:357,1,131.99999597168,4|10,0:0|0:0,0:0:0:0:
400,379,126113,5,4,0:0:0:0:
487,166,126275,1,10,0:0:0:0:
245,238,126436,1,4,0:0:0:0:
219,246,126516,1,4,0:0:0:0:
192,254,126597,2,0,L|127:272,1,65.9999979858399,10|0,0:0|0:0,0:0:0:0:
146,93,126758,2,0,P|178:37|241:16,1,131.99999597168,4|10,0:0|0:0,0:0:0:0:
315,110,127000,2,0,P|282:165|219:186,1,131.99999597168,4|4,0:0|0:0,0:0:0:0:
230,102,127242,1,10,0:0:0:0:
139,243,127404,6,0,B|99:277|108:327|137:367|201:365|230:330|242:293|222:257|222:257|248:257|272:249,1,297.000001132965,6|4,0:0|0:0,0:0:0:0:
282,245,127807,1,4,0:0:0:0:
304,235,127887,1,10,0:0:0:0:
141,104,128049,1,4,0:0:0:0:
406,243,128210,1,10,0:0:0:0:
139,243,128371,1,4,0:0:0:0:
391,83,128533,1,10,0:0:0:0:
287,241,128694,54,0,B|225:202|161:235|161:235|90:269|24:218,1,263.99999194336,4|4,0:0|0:0,0:0:0:0:
18,214,129097,1,4,0:0:0:0:
0,199,129178,1,10,0:0:0:0:
107,133,129339,1,4,0:0:0:0:
219,336,129500,1,10,0:0:0:0:
347,126,129662,1,4,0:0:0:0:
365,94,129742,1,4,0:0:0:0:
385,62,129823,1,10,0:0:0:0:
436,215,129984,6,0,L|412:349,1,131.99999597168,6|10,0:0|0:0,0:0:0:0:
219,336,130307,1,4,0:0:0:0:
213,303,130387,1,4,0:0:0:0:
207,270,130468,2,0,L|185:140,1,131.99999597168,10|4,0:0|0:0,0:0:0:0:
138,45,130791,1,10,0:0:0:0:
448,160,130952,2,0,B|459:167|474:174|474:174|371:209,1,131.99999597168,4|10,0:0|0:0,0:0:0:0:
207,270,131275,5,4,0:0:0:0:
298,39,131436,1,10,0:0:0:0:
379,208,131597,1,4,0:0:0:0:
390,236,131678,1,4,0:0:0:0:
404,262,131758,2,0,L|433:328,1,65.9999979858399,10|0,0:0|0:0,0:0:0:0:
300,357,131920,54,0,P|246:311|172:304,1,131.99999597168,4|10,0:0|0:0,0:0:0:0:
54,253,132162,2,0,B|119:253|119:253|185:212,1,131.99999597168,0|4,0:0|0:0,0:0:0:0:
230,92,132404,1,10,0:0:0:0:
374,363,132565,5,4,0:0:0:0:
388,333,132645,1,4,0:0:0:0:
395,300,132726,1,14,0:0:0:0:
395,266,132807,1,4,0:0:0:0:
389,232,132887,1,4,0:0:0:0:
383,199,132968,1,4,0:0:0:0:
384,165,133049,1,14,0:0:0:0:
393,132,133129,1,4,0:0:0:0:
409,102,133210,5,4,0:0:0:0:
463,134,133291,1,4,0:0:0:0:
484,193,133371,1,14,0:0:0:0:
469,254,133452,1,4,0:0:0:0:
420,294,133533,1,4,0:0:0:0:
358,298,133613,1,4,0:0:0:0:
305,264,133694,1,14,0:0:0:0:
282,205,133775,1,4,0:0:0:0:
298,144,133855,53,6,0:0:0:0:
182,79,134016,2,0,L|141:194,1,121.000003692627,8|8,0:0|0:0,0:0:0:0:
6,304,134339,2,0,L|69:285,1,60.5000018463135,4|4,0:0|0:0,0:0:0:0:
200,211,134500,2,0,L|137:192,1,60.5000018463135,4|4,0:0|0:0,0:0:0:0:
22,101,134662,2,0,L|84:81,1,60.5000018463135,4|4,0:0|0:0,0:0:0:0:
207,39,134823,1,8,0:0:0:0:
248,220,134984,1,8,0:0:0:0:
255,249,135066,1,8,0:0:0:0:
262,278,135146,1,6,0:0:0:0:
89,284,135307,1,8,0:0:0:0:
128,278,135388,1,8,0:0:0:0:
141,234,135468,5,8,0:0:0:0:
173,225,135549,1,8,0:0:0:0:
199,203,135630,1,8,0:0:0:0:
216,174,135710,1,8,0:0:0:0:
211,137,135791,5,4,0:0:0:0:
226,118,135871,1,4,0:0:0:0:
233,94,135952,1,4,0:0:0:0:
231,69,136033,1,4,0:0:0:0:
273,42,136113,53,8,0:0:0:0:
294,106,136194,1,8,0:0:0:0:
314,170,136275,1,8,0:0:0:0:
336,235,136355,1,8,0:0:0:0:
356,299,136436,37,6,0:0:0:0:
469,150,136597,2,0,B|407:101|407:101|305:106,1,165,10|4,0:0|0:0,0:0:0:0:
294,106,136920,1,10,0:0:0:0:
159,249,137081,2,0,P|213:294|273:288,1,110,4|10,0:0|0:0,0:0:0:0:
401,199,137404,1,4,0:0:0:0:
397,174,137484,1,4,0:0:0:0:
385,152,137565,2,0,P|331:107|271:113,1,110,10|4,0:0|0:0,0:0:0:0:
85,210,137887,6,0,B|111:227|123:260|123:260|152:279|152:279|163:317|192:332,1,165,10|4,0:0|0:0,0:0:0:0:
217,342,138210,1,10,0:0:0:0:
388,356,138371,1,4,0:0:0:0:
250,163,138533,1,10,0:0:0:0:
239,315,138694,1,4,0:0:0:0:
391,179,138855,1,10,0:0:0:0:
266,65,139016,6,0,P|202:74|157:123,1,110,4|10,0:0|0:0,0:0:0:0:
174,239,139339,1,4,0:0:0:0:
198,257,139420,1,4,0:0:0:0:
225,266,139500,2,0,P|279:261|322:229,1,110,10|4,0:0|0:0,0:0:0:0:
386,71,139823,1,10,0:0:0:0:
250,163,139984,2,0,P|194:176|134:151,1,110,4|10,0:0|0:0,0:0:0:0:
217,19,140307,53,4,0:0:0:0:
377,98,140468,2,0,B|386:182|386:182|370:262,1,165,10|4,0:0|0:0,0:0:0:0:
364,289,140791,1,10,0:0:0:0:
250,163,140952,1,4,0:0:0:0:
488,202,141113,1,10,0:0:0:0:
277,347,141275,1,4,0:0:0:0:
243,338,141356,1,4,0:0:0:0:
208,330,141436,1,10,0:0:0:0:
93,164,141597,6,0,P|123:201|186:214,1,110,6|10,0:0|0:0,0:0:0:0:
306,96,141920,1,0,0:0:0:0:
284,83,142000,1,4,0:0:0:0:
260,77,142081,2,0,P|211:83|168:132,1,110,10|4,0:0|0:0,0:0:0:0:
77,277,142404,1,10,0:0:0:0:
250,265,142565,2,0,P|266:219|246:158,1,110,4|10,0:0|0:0,0:0:0:0:
162,26,142887,5,4,0:0:0:0:
105,165,143049,2,0,L|124:333,1,165,10|4,0:0|0:0,0:0:0:0:
127,356,143371,1,10,0:0:0:0:
297,186,143533,2,0,L|285:77,1,110,4|10,0:0|0:0,0:0:0:0:
206,222,143855,1,4,0:0:0:0:
211,263,143936,1,4,0:0:0:0:
216,304,144016,1,10,0:0:0:0:
105,165,144178,53,4,0:0:0:0:
332,71,144339,2,0,B|365:144|365:144|332:229,1,165,10|4,0:0|0:0,0:0:0:0:
325,244,144662,1,10,0:0:0:0:
91,64,144823,1,4,0:0:0:0:
82,275,144984,1,10,0:0:0:0:
303,71,145145,1,4,0:0:0:0:
322,51,145225,1,4,0:0:0:0:
341,32,145306,1,10,0:0:0:0:
382,226,145468,6,0,L|286:127,1,110,4|10,0:0|0:0,0:0:0:0:
140,39,145791,1,6,0:0:0:0:
165,290,145952,1,10,0:0:0:0:
301,114,146113,1,4,0:0:0:0:
123,134,146275,2,0,P|64:96|45:35,1,110,10|6,0:0|0:0,0:0:0:0:
232,93,146597,1,8,0:0:0:0:
267,99,146678,1,8,0:0:0:0:
301,114,146758,5,6,0:0:0:0:
379,272,146920,2,0,P|340:216|214:219,1,165,8|4,0:0|0:0,0:0:0:0:
221,209,147242,1,10,0:0:0:0:
260,344,147404,1,4,0:0:0:0:
404,139,147565,1,10,0:0:0:0:
217,125,147726,1,4,0:0:0:0:
198,142,147806,1,4,0:0:0:0:
177,163,147887,1,10,0:0:0:0:
128,324,148049,53,4,0:0:0:0:
0,231,148210,2,0,B|55:241|55:241|110:226|110:226|182:237,1,165,10|4,0:0|0:0,0:0:0:0:
179,238,148533,1,10,0:0:0:0:
273,380,148694,1,4,0:0:0:0:
391,168,148855,1,10,0:0:0:0:
177,163,149016,1,4,0:0:0:0:
154,147,149097,1,4,0:0:0:0:
131,131,149177,1,10,0:0:0:0:
176,12,149339,6,0,B|226:-4|226:-4|280:12,1,110,4|10,0:0|0:0,0:0:0:0:
375,116,149662,1,4,0:0:0:0:
383,142,149742,1,4,0:0:0:0:
391,168,149823,2,0,L|333:274,1,110,10|4,0:0|0:0,0:0:0:0:
313,353,150145,1,10,0:0:0:0:
462,243,150307,1,4,0:0:0:0:
473,217,150388,1,4,0:0:0:0:
477,191,150468,1,10,0:0:0:0:
295,98,150629,5,4,0:0:0:0:
234,290,150791,2,0,B|286:305|286:305|343:293,1,110,10|6,0:0|0:0,0:0:0:0:
177,202,151113,1,8,0:0:0:0:
151,200,151193,1,8,0:0:0:0:
125,205,151275,2,0,P|79:236|61:295,1,110,6|8,0:0|0:0,0:0:0:0:
256,206,151597,1,6,0:0:0:0:
256,179,151678,1,8,0:0:0:0:
256,152,151758,1,8,0:0:0:0:
256,125,151839,1,8,0:0:0:0:
256,98,151920,53,6,0:0:0:0:
146,46,152081,2,0,B|146:110|146:110|125:149|125:149|125:213,1,165,10|4,0:0|0:0,0:0:0:0:
140,233,152404,1,10,0:0:0:0:
256,98,152565,1,4,0:0:0:0:
237,310,152726,1,10,0:0:0:0:
127,127,152887,1,4,0:0:0:0:
113,103,152967,1,4,0:0:0:0:
99,79,153048,1,10,0:0:0:0:
323,210,153210,5,4,0:0:0:0:
140,233,153371,2,0,B|11:255|11:255|44:273,1,165,10|4,0:0|0:0,0:0:0:0:
60,308,153694,1,10,0:0:0:0:
260,262,153855,1,4,0:0:0:0:
82,174,154016,1,10,0:0:0:0:
270,146,154178,2,0,L|203:112,1,55,4|4,0:0|0:0,0:0:0:0:
93,56,154339,1,10,0:0:0:0:
377,77,154500,5,6,0:0:0:0:
359,178,154662,2,0,L|352:210,1,32.99999899292,8|8,0:0|0:0,0:0:0:0:
331,324,154823,2,0,L|324:356,1,32.99999899292,8|8,0:0|0:0,0:0:0:0:
331,65,154984,53,6,0:0:0:0:
287,157,155146,2,0,L|271:186,1,32.99999899292,8|8,0:0|0:0,0:0:0:0:
222,291,155307,2,0,L|206:320,1,32.99999899292,8|8,0:0|0:0,0:0:0:0:
290,42,155468,5,6,0:0:0:0:
224,119,155629,2,0,L|192:153,2,32.99999899292,8|8|6,0:0|0:0|0:0,0:0:0:0:
145,38,155952,5,8,0:0:0:0:
104,40,156032,1,8,0:0:0:0:
66,56,156113,1,8,0:0:0:0:
224,119,156275,53,4,0:0:0:0:
257,120,156355,1,4,0:0:0:0:
288,133,156436,1,4,0:0:0:0:
138,203,156597,5,4,0:0:0:0:
118,208,156677,1,4,0:0:0:0:
104,220,156758,1,8,0:0:0:0:
143,226,156839,1,8,0:0:0:0:
183,238,156920,1,8,0:0:0:0:
297,327,157081,6,0,B|362:368|423:310|495:349|495:349|465:310|457:290,1,247.500009441376,6|0,0:0|0:0,0:0:0:0:
461,297,157404,54,0,B|429:288|422:302|389:293,1,71.4999967269899,6|0,0:0|0:0,0:0:0:0:
314,258,157565,6,0,B|330:261|344:268|344:268|333:221|346:128,1,165,6|0,0:0|0:0,0:0:0:0:
372,85,157887,6,0,P|359:133|346:84,1,123.750004720688,6|0,0:0|0:0,0:0:0:0:
459,123,158210,54,0,P|418:23|291:31,1,242.549988711892,6|0,0:0|0:0,0:0:0:0:
48,43,158533,5,8,0:0:0:0:
259,103,158694,1,8,0:0:0:0:
48,163,158855,1,8,0:0:0:0:
270,212,159016,1,6,0:0:0:0:
24,283,159178,1,6,0:0:0:0:
270,353,159339,1,6,0:0:0:0:
368,294,159662,5,4,0:0:0:0:
365,280,159742,1,4,0:0:0:0:
362,265,159823,1,4,0:0:0:0:
359,251,159903,1,4,0:0:0:0:
332,236,159984,53,6,0:0:0:0:
334,221,160064,1,4,0:0:0:0:
337,207,160145,1,4,0:0:0:0:
340,192,160225,1,4,0:0:0:0:
372,162,160307,6,0,L|358:105,1,55,8|0,0:0|0:0,0:0:0:0:
316,38,160629,2,0,L|329:94,1,55,2|0,0:0|0:0,0:0:0:0:
176,131,160952,5,4,0:0:0:0:
165,123,161032,1,4,0:0:0:0:
164,110,161113,1,4,0:0:0:0:
170,98,161193,1,4,0:0:0:0:
182,94,161274,1,6,0:0:0:0:
194,100,161355,1,4,0:0:0:0:
200,112,161435,1,4,0:0:0:0:
195,125,161516,1,4,0:0:0:0:
208,172,161597,54,0,P|173:176|154:171,1,55,8|0,0:0|0:0,0:0:0:0:
160,53,161920,2,0,P|195:49|214:54,1,55,2|0,0:0|0:0,0:0:0:0:
66,221,162242,6,0,B|66:278|66:278|88:328|88:328|88:394,1,165,6|0,0:0|0:0,0:0:0:0:
171,294,162565,6,0,L|156:262,1,30.2500009231568,6|0,0:0|0:0,0:0:0:0:
208,172,162726,54,0,B|158:266|158:266|208:372,1,214.49999018097,6|0,0:0|0:0,0:0:0:0:
282,358,163049,6,0,L|501:333,1,197.99999395752,6|0,0:0|0:0,0:0:0:0:
421,252,163371,6,0,L|268:234,1,151.799994904175,6|0,0:0|0:0,0:0:0:0:
410,93,163694,53,8,0:0:0:0:
203,294,163855,1,8,0:0:0:0:
253,9,164016,1,8,0:0:0:0:
381,269,164178,1,4,0:0:0:0:
124,133,164339,1,6,0:0:0:0:
410,93,164500,1,6,0:0:0:0:
410,93,164823,5,6,0:0:0:0:
396,94,164903,1,4,0:0:0:0:
382,95,164984,1,4,0:0:0:0:
369,93,165064,1,4,0:0:0:0:
340,129,165145,5,6,0:0:0:0:
327,128,165225,1,4,0:0:0:0:
313,129,165306,1,4,0:0:0:0:
300,130,165386,1,4,0:0:0:0:
279,89,165468,54,0,P|260:89|241:87,1,27.5,10|0,0:0|0:0,0:0:0:0:
135,47,165629,1,4,0:0:0:0:
146,63,165709,1,4,0:0:0:0:
154,82,165791,2,0,L|162:126,1,41.2500015735627,10|0,0:0|0:0,0:0:0:0:
258,207,165952,2,0,L|250:251,1,41.2500015735627,10|0,0:0|0:0,0:0:0:0:
139,340,166113,5,4,0:0:0:0:
161,327,166193,1,4,0:0:0:0:
184,320,166274,1,8,0:0:0:0:
209,318,166354,1,8,0:0:0:0:
254,351,166436,5,6,0:0:0:0:
279,349,166516,1,6,0:0:0:0:
303,342,166597,1,6,0:0:0:0:
325,331,166677,1,6,0:0:0:0:
354,313,166758,53,8,0:0:0:0:
305,295,166838,1,8,0:0:0:0:
267,267,166920,1,4,0:0:0:0:
241,227,166999,1,4,0:0:0:0:
228,180,167081,2,0,B|228:133|228:133|233:111|233:111|233:59|233:59|241:32|241:32|241:1,1,181.500005538941,8|8,0:0|0:0,0:0:0:0:
305,75,167404,38,0,B|305:121|305:121|301:138|301:138|301:183,1,110,6|10,0:0|0:0,0:0:0:0:
341,374,167726,1,4,0:0:0:0:
489,109,167887,2,0,B|444:123|444:123|427:124|427:124|384:138,1,110,10|4,0:0|0:0,0:0:0:0:
218,236,168210,1,10,0:0:0:0:
512,293,168371,2,0,B|484:255|484:255|477:239|477:239|451:202,1,110,4|10,0:0|0:0,0:0:0:0:
305,75,168694,1,4,0:0:0:0:
341,374,168855,2,0,B|368:336|368:336|381:325|381:325|408:288,1,110,10|4,0:0|0:0,0:0:0:0:
489,109,169178,1,10,0:0:0:0:
218,236,169339,6,0,B|267:267|267:267|333:267,1,121.000003692627,4|10,0:0|0:0,0:0:0:0:
403,159,169581,2,0,B|350:189|350:189|290:190,1,121.000003692627,0|4,0:0|0:0,0:0:0:0:
332,113,169823,2,0,L|390:76,1,60.5000018463135,10|0,0:0|0:0,0:0:0:0:
455,31,169984,6,0,B|434:1|403:-10|376:-12|345:1|345:1|294:34|294:34|283:25|283:25|265:48|231:56|231:56|194:67|174:106,1,319.000009735108,6|4,0:0|0:0,0:0:0:0:
165,115,170387,1,4,0:0:0:0:
153,140,170468,1,10,0:0:0:0:
244,352,170629,1,4,0:0:0:0:
308,109,170791,1,10,0:0:0:0:
113,268,170952,1,4,0:0:0:0:
364,253,171113,1,10,0:0:0:0:
184,159,171275,54,0,B|147:135|147:135|107:132|107:132|83:102|46:97|46:97|18:64|18:64|73:32|73:32|108:38|132:60,1,307.999990600586,4|4,0:0|0:0,0:0:0:0:
143,58,171678,1,4,0:0:0:0:
170,67,171758,1,10,0:0:0:0:
37,186,171920,1,4,0:0:0:0:
252,6,172081,1,10,0:0:0:0:
208,249,172242,1,4,0:0:0:0:
200,280,172322,1,4,0:0:0:0:
194,312,172403,1,10,0:0:0:0:
105,208,172565,6,0,P|140:159|207:138,1,121.000003692627,6|10,0:0|0:0,0:0:0:0:
398,149,172887,1,4,0:0:0:0:
401,179,172967,1,4,0:0:0:0:
394,209,173049,2,0,P|359:258|292:279,1,121.000003692627,10|4,0:0|0:0,0:0:0:0:
172,249,173371,1,10,0:0:0:0:
240,26,173533,1,4,0:0:0:0:
265,44,173613,1,4,0:0:0:0:
288,62,173694,2,0,L|303:189,1,121.000003692627,10|4,0:0|0:0,0:0:0:0:
150,274,174016,5,10,0:0:0:0:
360,283,174178,1,4,0:0:0:0:
369,254,174258,1,4,0:0:0:0:
370,224,174339,1,10,0:0:0:0:
331,120,174500,2,0,P|276:163|261:232,1,142.99999345398,4|10,0:0|0:0,0:0:0:0:
370,223,174742,2,0,P|425:180|441:112,1,142.99999345398,0|4,0:0|0:0,0:0:0:0:
248,258,174984,1,10,0:0:0:0:
331,120,175145,53,6,0:0:0:0:
71,135,175307,1,10,0:0:0:0:
254,64,175468,2,0,L|206:95,1,41.2500015735627,4|4,0:0|0:0,0:0:0:0:
34,206,175629,1,10,0:0:0:0:
157,55,175791,5,4,0:0:0:0:
38,287,175953,1,10,0:0:0:0:
68,93,176114,2,0,L|70:150,1,41.2500015735627,4|4,0:0|0:0,0:0:0:0:
80,355,176275,1,10,0:0:0:0:
177,204,176436,5,4,0:0:0:0:
189,162,176516,1,4,0:0:0:0:
225,138,176597,1,14,0:0:0:0:
268,140,176677,1,4,0:0:0:0:
300,169,176758,1,4,0:0:0:0:
308,211,176839,1,4,0:0:0:0:
288,249,176919,1,14,0:0:0:0:
249,267,177000,1,4,0:0:0:0:
207,274,177081,53,4,0:0:0:0:
256,310,177162,1,4,0:0:0:0:
317,320,177243,1,14,0:0:0:0:
378,301,177323,1,4,0:0:0:0:
423,255,177404,1,4,0:0:0:0:
442,196,177485,1,4,0:0:0:0:
432,133,177565,1,14,0:0:0:0:
394,82,177646,1,4,0:0:0:0:
337,55,177726,6,0,P|258:34|195:49,1,131.99999597168,6|10,0:0|0:0,0:0:0:0:
105,219,178049,1,4,0:0:0:0:
108,251,178129,1,4,0:0:0:0:
124,281,178210,2,4,P|187:217|207:148,1,131.99999597168,10|0,0:0|0:0,0:0:0:0:
180,0,178533,1,10,0:0:0:0:
272,130,178694,2,0,P|308:184|321:249,1,131.99999597168,4|10,0:0|0:0,0:0:0:0:
293,374,179016,5,4,0:0:0:0:
426,184,179178,1,10,0:0:0:0:
223,223,179339,1,4,0:0:0:0:
356,33,179501,1,10,0:0:0:0:
221,72,179662,2,0,B|247:133|247:133|297:179,1,131.99999597168,4|10,0:0|0:0,0:0:0:0:
297,328,179904,2,0,B|271:267|271:267|221:221,1,131.99999597168,0|4,0:0|0:0,0:0:0:0:
153,173,180145,2,0,L|153:124,1,49.4999984893799,10|0,0:0|0:0,0:0:0:0:
28,0,180307,54,0,B|28:55|28:55|40:87|40:87|40:137|40:137|52:167|52:167|52:219|52:219|64:253|64:253|64:306,1,307.999990600586,6|4,0:0|0:0,0:0:0:0:
65,327,180710,1,4,0:0:0:0:
65,353,180791,1,10,0:0:0:0:
308,211,180952,1,4,0:0:0:0:
227,379,181113,1,10,0:0:0:0:
470,174,181275,1,4,0:0:0:0:
382,317,181436,1,10,0:0:0:0:
386,173,181597,6,0,P|431:58|281:28,1,285.99998690796,4|4,0:0|0:0,0:0:0:0:
284,24,182000,1,0,0:0:0:0:
265,42,182081,1,10,0:0:0:0:
192,259,182242,1,4,0:0:0:0:
41,88,182404,1,10,0:0:0:0:
283,49,182565,1,4,0:0:0:0:
173,251,182726,1,10,0:0:0:0:
154,57,182887,6,0,P|215:40|290:51,1,131.99999597168,6|10,0:0|0:0,0:0:0:0:
399,240,183210,1,4,0:0:0:0:
402,272,183291,1,4,0:0:0:0:
389,302,183371,2,0,P|328:319|253:308,1,131.99999597168,10|4,0:0|0:0,0:0:0:0:
100,185,183694,1,10,0:0:0:0:
302,164,183855,1,4,0:0:0:0:
334,160,183935,1,4,0:0:0:0:
367,157,184016,2,0,B|436:147|436:147|499:114,1,131.99999597168,10|4,0:0|0:0,0:0:0:0:
248,57,184339,54,0,B|179:67|179:67|116:100,1,131.99999597168,10|4,0:0|0:0,0:0:0:0:
62,287,184662,1,10,0:0:0:0:
247,198,184823,2,0,B|279:152|279:152|290:129|290:129|324:81,1,131.99999597168,4|10,0:0|0:0,0:0:0:0:
452,174,185065,2,0,B|406:195|406:195|385:210|385:210|335:234,1,131.99999597168,0|4,0:0|0:0,0:0:0:0:
393,309,185307,2,0,B|420:311|420:311|433:310|433:310|462:313,1,65.9999979858399,14|4,0:0|0:0,0:0:0:0:
301,337,185468,5,4,0:0:0:0:
270,348,185548,1,4,0:0:0:0:
237,352,185629,1,14,0:0:0:0:
206,341,185709,1,4,0:0:0:0:
181,320,185790,1,4,0:0:0:0:
156,298,185871,1,4,0:0:0:0:
127,283,185951,1,14,0:0:0:0:
94,281,186032,1,4,0:0:0:0:
62,287,186113,5,4,0:0:0:0:
108,261,186193,1,4,0:0:0:0:
126,212,186274,1,14,0:0:0:0:
107,162,186354,1,4,0:0:0:0:
60,138,186436,53,4,0:0:0:0:
55,196,186516,1,4,0:0:0:0:
94,251,186597,1,14,0:0:0:0:
163,261,186677,1,4,0:0:0:0:
219,225,186758,6,0,P|248:204|264:182,1,55,14|4,0:0|0:0,0:0:0:0:
327,1,186920,2,0,P|298:22|282:44,1,55,4|12,0:0|0:0,0:0:0:0:
339,201,187081,1,4,0:0:0:0:
339,201,187162,1,4,0:0:0:0:
339,201,187242,2,0,P|335:165|324:140,1,55,14|4,0:0|0:0,0:0:0:0:
205,25,187404,2,0,P|208:60|219:85,1,55,4|12,0:0|0:0,0:0:0:0:
398,112,187565,1,4,0:0:0:0:
398,112,187645,1,4,0:0:0:0:
398,112,187726,2,0,P|374:84|351:70,1,55,14|4,0:0|0:0,0:0:0:0:
147,115,187887,1,12,0:0:0:0:
164,136,187967,1,12,0:0:0:0:
186,152,188049,6,0,L|231:179,1,41.2500015735627,6|4,0:0|0:0,0:0:0:0:
252,271,188210,1,4,0:0:0:0:
242,273,188291,1,4,0:0:0:0:
232,274,188371,1,6,0:0:0:0:
223,274,188452,1,4,0:0:0:0:
213,274,188533,2,4,P|180:270|155:261,3,41.2500015735627,4|4|14|4,0:0|0:0|0:0|0:0,0:0:0:0:
103,142,188855,53,4,0:0:0:0:
114,139,188935,1,4,0:0:0:0:
126,137,189016,1,6,0:0:0:0:
138,134,189096,1,4,0:0:0:0:
150,132,189178,2,0,L|204:121,1,41.2500015735627,12|12,0:0|0:0,0:0:0:0:
344,144,189339,2,0,L|290:155,1,41.2500015735627,6|4,0:0|0:0,0:0:0:0:
141,126,189500,2,0,L|200:116,1,41.2500015735627,12|4,0:0|0:0,0:0:0:0:
352,150,189661,2,0,L|294:159,1,41.2500015735627,6|4,0:0|0:0,0:0:0:0:
235,260,189823,5,4,0:0:0:0:
241,269,189904,1,4,0:0:0:0:
247,277,189984,1,12,0:0:0:0:
254,285,190065,1,4,0:0:0:0:
262,292,190145,2,4,P|291:311|316:314,1,41.2500015735627,0|0,0:0|0:0,0:0:0:0:
183,320,190307,2,4,P|198:351|218:366,1,41.2500015735627,6|4,0:0|0:0,0:0:0:0:
102,305,190468,2,4,P|99:339|109:362,1,41.2500015735627,0|0,0:0|0:0,0:0:0:0:
18,285,190629,6,4,P|25:266|39:251,1,41.2500015735627,6|4,0:0|0:0,0:0:0:0:
253,111,190791,1,4,0:0:0:0:
253,100,190872,1,4,0:0:0:0:
252,90,190952,1,4,0:0:0:0:
250,80,191033,1,4,0:0:0:0:
247,71,191113,2,4,P|232:40|217:25,3,41.2500015735627,4|4|12|4,0:0|0:0|0:0|0:0,0:0:0:0:
404,141,191436,53,4,0:0:0:0:
401,152,191516,1,4,0:0:0:0:
397,164,191597,1,6,0:0:0:0:
395,175,191677,1,4,0:0:0:0:
392,187,191758,2,4,B|386:213|373:240,3,41.2500015735627,12|12|4|4,0:0|0:0|0:0|0:0,0:0:0:0:
328,384,192081,2,4,B|309:365|292:340,3,41.2500015735627,12|4|6|4,0:0|0:0|0:0|0:0,0:0:0:0:
185,225,192404,2,4,B|210:218|240:215,3,41.2500015735627,4|4|12|4,0:0|0:0|0:0|0:0,0:0:0:0:
133,42,192726,6,4,P|133:67|122:99,1,41.2500015735627,6|4,0:0|0:0,0:0:0:0:
95,164,192887,2,4,P|72:151|50:125,1,41.2500015735627,6|4,0:0|0:0,0:0:0:0:
7,70,193049,2,4,P|29:57|62:50,1,41.2500015735627,6|4,0:0|0:0,0:0:0:0:
148,33,193210,6,4,P|150:58|142:91,1,41.2500015735627,6|4,0:0|0:0,0:0:0:0:
187,200,193371,1,4,0:0:0:0:
191,209,193452,1,4,0:0:0:0:
192,219,193532,1,6,0:0:0:0:
192,229,193613,1,4,0:0:0:0:
192,239,193694,2,4,P|186:273|180:287,3,41.2500015735627,4|4|14|4,0:0|0:0|0:0|0:0,0:0:0:0:
355,200,194016,53,4,0:0:0:0:
350,187,194097,1,4,0:0:0:0:
348,176,194177,1,6,0:0:0:0:
348,164,194258,1,4,0:0:0:0:
349,152,194339,2,4,P|353:117|359:103,3,41.2500015735627,4|12|4|4,0:0|0:0|0:0|0:0,0:0:0:0:
187,200,194662,2,4,P|154:213|141:222,3,41.2500015735627,12|4|6|4,0:0|0:0|0:0|0:0,0:0:0:0:
383,307,194984,5,4,0:0:0:0:
390,301,195065,1,4,0:0:0:0:
397,293,195145,1,14,0:0:0:0:
402,284,195226,1,4,0:0:0:0:
407,275,195307,2,0,P|420:246|422:223,1,41.2500015735627,4|12,0:0|0:0,0:0:0:0:
338,116,195468,2,4,P|325:145|323:168,1,41.2500015735627,12|12,0:0|0:0,0:0:0:0:
442,247,195629,2,4,P|438:215|428:194,1,41.2500015735627,6|4,0:0|0:0,0:0:0:0:
302,144,195790,6,4,P|306:175|316:196,1,41.2500015735627,6|4,0:0|0:0,0:0:0:0:
225,272,195952,1,4,0:0:0:0:
217,264,196033,1,4,0:0:0:0:
211,256,196113,1,6,0:0:0:0:
205,248,196194,1,4,0:0:0:0:
200,239,196275,2,4,P|186:205|183:184,3,41.2500015735627,4|4|14|4,0:0|0:0|0:0|0:0,0:0:0:0:
144,50,196597,53,4,0:0:0:0:
168,59,196677,1,4,0:0:0:0:
194,61,196758,1,4,0:0:0:0:
219,57,196838,1,4,0:0:0:0:
243,45,196920,2,4,P|275:33|288:22,3,41.2500015735627,12|12|12|4,0:0|0:0|0:0|0:0,0:0:0:0:
372,129,197242,2,4,P|391:140|414:147,3,41.2500015735627,12|12|12|4,0:0|0:0|0:0|0:0,0:0:0:0:
248,220,197565,2,4,P|231:231|211:237,3,41.2500015735627,12|12|4|4,0:0|0:0|0:0|0:0,0:0:0:0:
167,0,197887,2,0,P|136:16|125:30,1,41.2500015735627,10|0,0:0|0:0,0:0:0:0:
32,284,198049,2,0,P|61:300|77:303,1,41.2500015735627,10|0,0:0|0:0,0:0:0:0:
346,258,198210,2,0,P|345:223|339:207,1,41.2500015735627,10|8,0:0|0:0,0:0:0:0:
200,155,198371,37,6,0:0:0:0:
185,228,199662,6,0,P|164:99|218:229,1,403.333333333333,0|0,0:0|0:0,0:0:0:0:
185,228,200952,1,6,0:0:0:0:
272,143,202242,6,0,P|205:209|298:185,1,238.3333224233,6|0,0:0|0:0,0:0:0:0:
343,123,202887,2,0,P|324:91|292:71,2,55.0000020980836,2|2|2,0:0|0:0|0:0,0:0:0:0:
347,146,203210,1,2,0:0:0:0:
187,77,203533,54,0,B|156:125|95:158|95:158|198:129|294:146,1,302.50001153946,6|0,0:0|0:0,0:0:0:0:
271,142,204178,2,0,B|345:156|448:127|448:127|387:160|356:208,1,302.50001153946,6|0,0:0|0:0,0:0:0:0:
306,262,204823,6,0,B|235:285|235:285|176:265|176:265|81:293,1,217.800005317383,6|0,0:0|0:0,0:0:0:0:
76,335,205468,2,0,P|150:273|55:258,1,233.933340472412,6|0,0:0|0:0,0:0:0:0:
176,131,206113,6,0,B|215:119|215:119|247:122|247:122|290:108,1,106.333336578369,6|0,0:0|0:0,0:0:0:0:
302,181,206436,2,0,B|254:195|254:195|218:192|218:192|168:207,1,137.500005245209,6|0,0:0|0:0,0:0:0:0:
160,233,206758,54,0,L|140:291,2,55.0000020980836,8|8|8,0:0|0:0|0:0,0:0:0:0:
238,311,207081,6,0,L|262:381,2,62.3333345222473,8|8|8,0:0|0:0|0:0,0:0:0:0:
358,319,207404,6,0,L|383:250,1,73.3333333333333,6|8,0:0|0:0,0:0:0:0:
292,180,207834,54,0,L|315:117,1,55.0000020980836,8|8,0:0|0:0,0:0:0:0:
429,61,208049,6,0,L|374:70,1,55.0000020980836,6|8,0:0|0:0,0:0:0:0:
258,3,208264,6,0,L|301:54,1,55.0000020980836,8|8,0:0|0:0,0:0:0:0:
266,161,208479,1,8,0:0:0:0:
260,178,208586,1,8,0:0:0:0:
254,196,208694,53,6,0:0:0:0:
236,174,208801,1,4,0:0:0:0:
222,151,208909,1,4,0:0:0:0:
213,125,209016,1,6,0:0:0:0:
208,98,209124,1,4,0:0:0:0:
208,70,209232,1,4,0:0:0:0:
213,43,209339,5,14,0:0:0:0:
213,105,209447,1,4,0:0:0:0:
174,160,209554,1,4,0:0:0:0:
113,182,209662,1,6,0:0:0:0:
48,162,209769,1,4,0:0:0:0:
9,110,209877,1,4,0:0:0:0:
43,118,209984,5,6,0:0:0:0:
48,162,210092,1,4,0:0:0:0:
53,206,210199,1,4,0:0:0:0:
102,246,210307,53,6,0:0:0:0:
97,290,210415,1,4,0:0:0:0:
92,334,210522,1,4,0:0:0:0:
139,376,210629,5,14,0:0:0:0:
198,366,210736,1,4,0:0:0:0:
259,358,210844,1,4,0:0:0:0:
320,350,210951,1,6,0:0:0:0:
381,341,211059,1,4,0:0:0:0:
443,332,211166,1,4,0:0:0:0:
503,324,211275,5,6,0:0:0:0:
483,300,211382,1,4,0:0:0:0:
467,274,211490,1,4,0:0:0:0:
457,245,211597,1,6,0:0:0:0:
451,215,211705,1,4,0:0:0:0:
450,185,211812,1,4,0:0:0:0:
454,155,211920,53,14,0:0:0:0:
451,218,212027,1,4,0:0:0:0:
410,271,212135,1,4,0:0:0:0:
348,288,212242,1,6,0:0:0:0:
286,263,212350,1,4,0:0:0:0:
254,206,212457,1,4,0:0:0:0:
275,168,212565,6,0,L|257:124,1,36.6666666666667,6|4,0:0|0:0,0:0:0:0:
173,169,212780,2,0,L|155:125,1,36.6666666666667,6|4,0:0|0:0,0:0:0:0:
71,170,212995,2,0,L|53:126,1,36.6666666666667,6|4,0:0|0:0,0:0:0:0:
43,100,213210,5,12,0:0:0:0:
78,146,213318,1,6,0:0:0:0:
115,195,213426,1,4,0:0:0:0:
154,242,213533,2,4,P|243:257|308:212,1,146.666666666667,6|4,0:0|0:0,0:0:0:0:
363,142,213855,54,0,L|393:103,1,36.6666666666667,6|4,0:0|0:0,0:0:0:0:
293,111,214070,2,0,L|300:62,1,36.6666666666667,6|12,0:0|0:0,0:0:0:0:
216,119,214285,2,0,L|197:73,1,36.6666666666667,6|4,0:0|0:0,0:0:0:0:
181,219,214500,6,0,L|188:254,1,36.6666666666667,6|4,0:0|0:0,0:0:0:0:
278,222,214715,2,0,L|272:258,1,36.6666666666667,6|12,0:0|0:0,0:0:0:0:
371,240,214930,2,0,L|353:272,1,36.6666666666667,6|6,0:0|0:0,0:0:0:0:
316,358,215145,6,0,L|209:344,2,73.3333333333333,6|6|6,0:0|0:0|0:0,0:0:0:0:
27,326,215468,2,0,L|126:299,2,73.3333333333333,14|6|6,0:0|0:0|0:0,0:0:0:0:
272,258,215791,54,0,L|210:249,2,47.6666644846599,6|6|6,0:0|0:0|0:0,0:0:0:0:
96,230,216113,2,4,L|145:216,2,36.6666666666667,12|6|0,0:0|0:0|0:0,0:0:0:0:
0,183,216436,5,14,0:0:0:0:
26,174,216543,1,6,0:0:0:0:
53,167,216651,1,4,0:0:0:0:
84,126,216758,5,14,0:0:0:0:
115,116,216865,1,4,0:0:0:0:
148,107,216973,1,4,0:0:0:0:
198,120,217081,53,14,0:0:0:0:
233,107,217188,1,4,0:0:0:0:
274,96,217296,1,4,0:0:0:0:
306,57,217404,5,14,0:0:0:0:
348,41,217511,1,12,0:0:0:0:
397,29,217619,1,12,0:0:0:0:
367,0,217738,6,0,L|367:64,1,41.2500015735627,6|0,0:0|0:0,0:0:0:0:
367,144,217899,2,0,L|367:208,1,41.2500015735627,0|0,0:0|0:0,0:0:0:0:
151,8,218069,54,0,L|164:63,1,49.4999984893799
191,164,218230,2,0,L|208:233,1,49.4999984893799,0|0,0:0|0:0,0:0:0:0:
296,72,218407,6,0,L|296:152,1,57.7499982376099
298,254,218568,2,0,L|297:334,1,57.7499982376099,0|0,0:0|0:0,0:0:0:0:
93,88,218741,6,0,L|116:179,1,65.9999979858399,0|0,0:0|0:0,0:0:0:0:
146,294,218888,2,0,L|169:385,1,65.9999979858399,0|0,0:0|0:0,0:0:0:0:
298,254,219016,6,0,B|288:213|297:182|297:182|288:147|288:147|297:110|284:66,1,165,6|0,0:0|0:0,0:0:0:0:
212,21,219338,2,0,B|209:43|209:43|212:61,1,41.2500015735627,4|4,0:0|0:0,0:0:0:0:
375,215,219499,2,0,B|291:215|291:215|252:196|252:196|156:196,1,206.25,10|0,0:0|0:0,0:0:0:0:
34,235,219822,6,0,B|57:250|57:250|83:256,1,55,10|0,0:0|0:0,0:0:0:0:
69,95,219983,2,0,B|43:107|43:107|25:126,1,55,4|4,0:0|0:0,0:0:0:0:
172,195,220145,2,0,B|174:167|174:167|167:142,1,55,10|0,0:0|0:0,0:0:0:0:
34,260,220306,6,0,B|76:260|108:286|108:286|145:314|190:304,1,165.000006294251,4|10,0:0|0:0,0:0:0:0:
200,302,220548,1,0,0:0:0:0:
211,299,220628,1,4,0:0:0:0:
366,105,220790,1,10,0:0:0:0:
349,111,220871,1,0,0:0:0:0:
332,118,220951,53,4,0:0:0:0:
304,238,221112,1,10,0:0:0:0:
184,210,221274,1,4,0:0:0:0:
212,90,221435,1,10,0:0:0:0:
80,197,221596,6,0,B|90:268|90:268|97:276|97:276|93:286|93:286|105:367,1,165.000006294251,4|10,0:0|0:0,0:0:0:0:
140,375,221838,2,0,B|181:329|247:307|247:307|237:343,1,165.000006294251,0|4,0:0|0:0,0:0:0:0:
304,378,222080,2,0,L|324:314,1,55,10|0,0:0|0:0,0:0:0:0:
264,217,222241,6,0,P|294:174|351:151,1,110,4|10,0:0|0:0,0:0:0:0:
210,93,222483,2,0,P|157:88|109:50,1,98.9999969787599,0|4,0:0|0:0,0:0:0:0:
129,198,222725,2,0,P|136:217|134:244,1,44,10|0,0:0|0:0,0:0:0:0:
56,228,222886,54,0,P|53:180|86:133,1,107.249995090485,4|0,0:0|0:0,0:0:0:0:
233,45,223209,1,4,0:0:0:0:
280,150,223370,1,10,0:0:0:0:
410,118,223532,5,4,0:0:0:0:
363,223,223693,1,10,0:0:0:0:
280,150,223854,1,4,0:0:0:0:
269,124,223935,1,4,0:0:0:0:
258,98,224016,1,10,0:0:0:0:
345,341,224177,6,0,L|351:302,1,32.99999899292,6|0,0:0|0:0,0:0:0:0:
363,223,224338,2,0,L|369:184,1,32.99999899292,8|0,0:0|0:0,0:0:0:0:
179,341,224499,54,0,L|172:298,1,38.4999988250733,4|4,0:0|0:0,0:0:0:0:
158,210,224660,2,0,L|151:167,1,38.4999988250733,10|0,0:0|0:0,0:0:0:0:
20,327,224822,5,4,0:0:0:0:
17,272,224902,1,0,0:0:0:0:
16,218,224983,1,10,0:0:0:0:
15,164,225063,1,0,0:0:0:0:
13,109,225145,2,0,B|30:55,1,55,4|0,0:0|0:0,0:0:0:0:
194,57,225306,2,0,B|211:5,1,55,10|0,0:0|0:0,0:0:0:0:
364,0,225467,6,0,B|338:43|363:93|363:93|342:160|342:160|371:206|357:259,1,269.499997532654,4|4,0:0|0:0,0:0:0:0:
211,248,225951,2,0,L|273:221,1,61.6000007519531,10|0,0:0|0:0,0:0:0:0:
260,42,226112,1,4,0:0:0:0:
211,248,226274,1,10,0:0:0:0:
364,0,226435,1,4,0:0:0:0:
202,137,226596,1,10,0:0:0:0:
345,163,226757,54,0,B|344:208|320:247|273:277|273:277|179:277|179:277|211:247,1,275,6|4,0:0|0:0,0:0:0:0:
130,226,227241,6,0,L|99:254,1,41.2500015735627,10|0,0:0|0:0,0:0:0:0:
202,137,227403,6,0,L|262:80,1,82.5000031471254,4|10,0:0|0:0,0:0:0:0:
296,247,227645,2,0,L|217:223,1,82.5000031471254,0|4,0:0|0:0,0:0:0:0:
347,120,227886,2,0,L|362:185,1,60.5000018463135,10|0,0:0|0:0,0:0:0:0:
237,142,228048,54,0,B|196:126|155:137|155:137|129:121|129:121|80:143|46:127,1,197.99999395752,4|0,0:0|0:0,0:0:0:0:
16,197,228370,2,0,P|51:210|80:211,2,55,4|4|10,0:0|0:0|0:0,0:0:0:0:
154,207,228693,5,12,0:0:0:0:
157,219,228774,1,4,0:0:0:0:
160,231,228854,1,4,0:0:0:0:
163,243,228935,1,4,0:0:0:0:
166,255,229016,2,0,L|156:300,1,41.2500015735627,8|8,0:0|0:0,0:0:0:0:
46,313,229177,2,0,L|80:344,1,41.2500015735627,4|4,0:0|0:0,0:0:0:0:
238,343,229338,5,6,0:0:0:0:
255,338,229418,1,4,0:0:0:0:
273,333,229499,1,12,0:0:0:0:
290,328,229579,1,4,0:0:0:0:
308,300,229661,53,4,0:0:0:0:
325,295,229741,1,4,0:0:0:0:
343,290,229822,1,14,0:0:0:0:
360,285,229902,1,4,0:0:0:0:
376,238,229983,5,4,0:0:0:0:
363,199,230063,1,4,0:0:0:0:
329,177,230144,1,12,0:0:0:0:
289,179,230224,1,4,0:0:0:0:
258,207,230305,1,6,0:0:0:0:
227,234,230386,1,6,0:0:0:0:
187,236,230467,1,12,0:0:0:0:
153,214,230547,1,4,0:0:0:0:
141,176,230628,5,6,0:0:0:0:
137,148,230709,1,4,0:0:0:0:
128,122,230789,1,12,0:0:0:0:
113,99,230869,1,4,0:0:0:0:
72,86,230951,53,4,0:0:0:0:
56,63,231031,1,4,0:0:0:0:
48,37,231112,1,14,0:0:0:0:
45,11,231192,1,4,0:0:0:0:
81,0,231274,5,4,0:0:0:0:
83,45,231354,1,4,0:0:0:0:
82,95,231435,1,12,0:0:0:0:
68,143,231515,1,4,0:0:0:0:
55,189,231596,1,6,0:0:0:0:
38,239,231677,1,4,0:0:0:0:
31,287,231757,1,12,0:0:0:0:
30,335,231838,1,4,0:0:0:0:
33,383,231919,5,6,0:0:0:0:
54,374,231999,1,4,0:0:0:0:
78,363,232079,1,12,0:0:0:0:
97,345,232161,1,4,0:0:0:0:
126,311,232240,53,4,0:0:0:0:
134,286,232321,1,4,0:0:0:0:
149,264,232403,1,14,0:0:0:0:
171,249,232482,1,4,0:0:0:0:
195,240,232563,5,4,0:0:0:0:
183,294,232644,1,4,0:0:0:0:
221,335,232725,1,12,0:0:0:0:
278,324,232805,1,4,0:0:0:0:
299,272,232886,1,6,0:0:0:0:
322,221,232967,1,6,0:0:0:0:
378,210,233047,1,14,0:0:0:0:
416,252,233128,1,4,0:0:0:0:
404,307,233208,5,6,0:0:0:0:
385,307,233290,1,4,0:0:0:0:
367,309,233370,1,12,0:0:0:0:
348,310,233451,1,4,0:0:0:0:
328,340,233532,53,4,0:0:0:0:
309,342,233612,1,4,0:0:0:0:
290,343,233693,1,14,0:0:0:0:
272,345,233773,1,4,0:0:0:0:
252,369,233854,5,4,0:0:0:0:
262,314,233934,1,4,0:0:0:0:
271,262,234015,1,14,0:0:0:0:
279,208,234095,1,4,0:0:0:0:
289,155,234176,1,6,0:0:0:0:
298,101,234257,1,4,0:0:0:0:
306,47,234338,1,14,0:0:0:0:
142,250,234499,6,4,L|132:201,1,41.2500015735627,6|4,0:0|0:0,0:0:0:0:
186,53,234661,2,4,L|195:101,1,41.2500015735627,14|4,0:0|0:0,0:0:0:0:
134,256,234822,2,4,L|129:201,1,41.2500015735627,0|0,0:0|0:0,0:0:0:0:
216,38,234984,2,4,L|220:92,1,41.2500015735627,14|4,0:0|0:0,0:0:0:0:
125,260,235144,2,4,L|127:205,1,41.2500015735627,0|0,0:0|0:0,0:0:0:0:
243,23,235306,2,4,L|242:83,1,41.2500015735627,14|4,0:0|0:0,0:0:0:0:
115,262,235467,2,4,L|124:207,1,41.2500015735627,0|0,0:0|0:0,0:0:0:0:
274,10,235628,2,4,L|268:66,1,41.2500015735627,14|4,0:0|0:0,0:0:0:0:
257,189,235790,53,4,0:0:0:0:
256,229,235870,1,4,0:0:0:0:
254,270,235951,1,14,0:0:0:0:
254,312,236031,1,4,0:0:0:0:
238,353,236112,5,4,0:0:0:0:
273,332,236192,1,4,0:0:0:0:
310,312,236273,1,14,0:0:0:0:
346,293,236353,1,4,0:0:0:0:
390,288,236435,5,4,0:0:0:0:
355,265,236515,1,4,0:0:0:0:
319,244,236596,1,14,0:0:0:0:
284,223,236676,1,4,0:0:0:0:
240,219,236757,53,4,0:0:0:0:
285,193,236837,1,4,0:0:0:0:
330,169,236918,1,14,0:0:0:0:
375,144,236998,1,4,0:0:0:0:
420,119,237080,6,4,L|351:100,1,55,4|0,0:0|0:0,0:0:0:0:
159,72,237242,2,4,L|228:53,1,55,10|0,0:0|0:0,0:0:0:0:
371,214,237403,2,4,L|302:195,1,55,10|0,0:0|0:0,0:0:0:0:
110,167,237564,2,0,L|179:148,1,55,0|4,0:0|0:0,0:0:0:0:
317,28,237725,6,0,B|287:81|287:81|289:122|289:122|256:146|256:146|226:203,1,197.99999395752,8|0,0:0|0:0,0:0:0:0:
181,282,238048,2,0,B|264:290|264:290|334:355,1,165,4|4,0:0|0:0,0:0:0:0:
411,378,238370,54,0,B|399:333|410:290|410:290|400:253|400:253|418:208|404:160,1,214.49999018097,10|4,0:0|0:0,0:0:0:0:
348,74,238693,1,4,0:0:0:0:
326,102,238773,1,0,0:0:0:0:
296,121,238854,1,10,0:0:0:0:
262,130,238934,1,0,0:0:0:0:
226,127,239015,6,0,L|240:73,1,55,4|0,0:0|0:0,0:0:0:0:
155,303,239176,2,0,L|168:357,1,55,4|0,0:0|0:0,0:0:0:0:
76,152,239338,6,0,P|62:142|53:127,1,34.375,10|0,0:0|0:0,0:0:0:0:
76,152,239419,2,0,P|64:140|58:123,1,34.375,0|0,0:0|0:0,0:0:0:0:
76,152,239499,2,0,P|66:138|63:121,1,34.375,4|0,0:0|0:0,0:0:0:0:
76,152,239580,2,0,P|69:136|69:119,1,34.375,0|0,0:0|0:0,0:0:0:0:
108,233,239661,54,0,B|192:193|192:273|282:217|282:217|222:201,1,239.250007301331,10|0,0:0|0:0,0:0:0:0:
162,132,239983,2,0,B|164:132|164:132|159:129|159:129|165:130|165:130|165:127|165:127|159:125|159:125|164:124|164:124|159:121|159:121|164:119|164:119|159:115|159:115|165:114|165:114|158:110|158:110|165:109|165:109|160:105|160:105|192:63|241:42|302:43|302:43|289:106,1,297.000001132965,4|4,0:0|0:0,0:0:0:0:
372,123,240366,6,0,P|341:170|305:186,2,94.8750018095971,0|0|0,0:0|0:0|0:0,0:0:0:0:
347,272,240669,2,0,P|313:279|264:269,2,78.3749979071618,0|4|0,0:0|0:0|0:0,0:0:0:0:
253,362,240951,5,14,0:0:0:0:
228,353,241031,1,12,0:0:0:0:
206,339,241112,1,4,0:0:0:0:
189,319,241192,1,4,0:0:0:0:
148,321,241273,53,4,0:0:0:0:
131,301,241353,1,4,0:0:0:0:
120,277,241434,1,14,0:0:0:0:
115,251,241514,1,4,0:0:0:0:
140,221,241596,5,4,0:0:0:0:
136,195,241676,1,4,0:0:0:0:
124,171,241757,1,4,0:0:0:0:
108,151,241837,1,4,0:0:0:0:
88,133,241918,5,14,0:0:0:0:
128,145,241999,1,4,0:0:0:0:
168,147,242080,1,4,0:0:0:0:
209,144,242160,1,4,0:0:0:0:
251,135,242241,53,6,0:0:0:0:
229,112,242321,1,4,0:0:0:0:
228,79,242402,1,4,0:0:0:0:
250,57,242482,1,4,0:0:0:0:
280,55,242563,1,4,0:0:0:0:
305,72,242644,1,4,0:0:0:0:
311,104,242725,5,6,0:0:0:0:
334,81,242805,1,4,0:0:0:0:
359,127,242886,5,4,0:0:0:0:
386,112,242966,1,4,0:0:0:0:
398,163,243047,53,4,0:0:0:0:
428,157,243127,1,4,0:0:0:0:
427,208,243209,5,8,0:0:0:0:
458,208,243289,1,8,0:0:0:0:
443,258,243370,5,4,0:0:0:0:
474,266,243450,1,4,0:0:0:0:
446,311,243531,6,0,B|391:315|391:315|340:292|340:292|312:242,1,165,6|0,0:0|0:0,0:0:0:0:
321,147,243854,2,0,B|368:169|368:169|396:219,1,110,6|0,0:0|0:0,0:0:0:0:
226,244,244176,5,10,0:0:0:0:
224,217,244256,1,0,0:0:0:0:
111,308,244418,1,4,0:0:0:0:
133,324,244498,1,6,0:0:0:0:
46,211,244660,1,4,0:0:0:0:
38,184,244740,1,4,0:0:0:0:
38,157,244821,6,0,B|23:125|42:87|42:87|34:59|34:59|57:31|45:-4,1,165.000006294251,6|2,0:0|0:0,0:0:0:0:
274,203,245467,53,10,0:0:0:0:
300,126,245628,1,4,0:0:0:0:
323,139,245708,1,4,0:0:0:0:
342,159,245789,1,6,0:0:0:0:
353,184,245869,1,4,0:0:0:0:
354,211,245950,1,4,0:0:0:0:
347,238,246031,1,4,0:0:0:0:
332,260,246112,6,0,B|310:281|282:291|250:281|250:281|229:307|200:313|170:303,1,165,6|0,0:0|0:0,0:0:0:0:
123,238,246434,2,0,P|97:272|97:340,1,110,6|0,0:0|0:0,0:0:0:0:
204,176,246757,5,10,0:0:0:0:
190,153,246837,1,0,0:0:0:0:
78,90,246999,1,4,0:0:0:0:
92,67,247079,1,6,0:0:0:0:
246,21,247241,1,4,0:0:0:0:
261,44,247322,1,4,0:0:0:0:
276,68,247402,54,0,B|317:133|317:133|322:130|322:130|317:133|317:133|363:206,1,165.000006294251,6|2,0:0|0:0,0:0:0:0:
276,233,248047,5,10,0:0:0:0:
276,371,248209,1,4,0:0:0:0:
276,347,248289,1,4,0:0:0:0:
276,324,248370,1,6,0:0:0:0:
276,301,248450,1,4,0:0:0:0:
276,279,248531,1,4,0:0:0:0:
276,256,248612,1,4,0:0:0:0:
276,233,248692,6,0,L|276:57,1,165,6|0,0:0|0:0,0:0:0:0:
192,13,249015,2,0,B|192:69|192:69|168:140,1,110,6|0,0:0|0:0,0:0:0:0:
74,34,249338,53,10,0:0:0:0:
83,59,249418,1,0,0:0:0:0:
96,210,249580,1,4,0:0:0:0:
86,235,249660,1,6,0:0:0:0:
203,278,249821,1,4,0:0:0:0:
224,260,249901,1,4,0:0:0:0:
237,236,249983,6,0,B|251:207|252:182|252:182|279:204|297:236|288:286,1,165.000006294251,6|2,0:0|0:0,0:0:0:0:
392,199,250628,5,10,0:0:0:0:
399,343,250789,1,4,0:0:0:0:
395,319,250869,1,4,0:0:0:0:
394,295,250950,1,6,0:0:0:0:
396,271,251030,1,4,0:0:0:0:
399,247,251111,1,4,0:0:0:0:
397,223,251192,1,4,0:0:0:0:
392,199,251273,54,0,B|383:159|389:117|389:117|397:74|385:33,1,165,6|0,0:0|0:0,0:0:0:0:
270,64,251595,2,0,P|272:94|277:58,1,110,6|0,0:0|0:0,0:0:0:0:
197,22,251918,5,10,0:0:0:0:
188,48,251998,1,0,0:0:0:0:
321,171,252160,1,4,0:0:0:0:
295,177,252240,1,6,0:0:0:0:
148,120,252402,1,4,0:0:0:0:
124,125,252482,1,4,0:0:0:0:
98,141,252563,6,0,P|67:194|81:260,1,131.99999597168,6|0,0:0|0:0,0:0:0:0:
318,288,252886,2,0,P|349:235|335:169,1,131.99999597168,10|0,0:0|0:0,0:0:0:0:
120,21,253209,54,0,P|155:42|194:46,1,65.9999979858399,4|4,0:0|0:0,0:0:0:0:
316,101,253370,1,8,0:0:0:0:
289,119,253450,1,8,0:0:0:0:
257,126,253531,1,8,0:0:0:0:
97,201,253692,1,8,0:0:0:0:
135,226,253772,1,8,0:0:0:0:
180,236,253854,6,0,L|304:242,1,110,6|0,0:0|0:0,0:0:0:0:
474,353,254176,2,0,L|350:359,1,110,10|0,0:0|0:0,0:0:0:0:
152,298,254499,1,6,0:0:0:0:
171,290,254580,2,0,L|183:215,1,55,4|0,0:0|0:0,0:0:0:0:
302,82,254741,1,4,0:0:0:0:
285,93,254821,2,0,L|293:147,1,55,10|0,0:0|0:0,0:0:0:0:
365,299,254983,2,0,L|373:244,1,55,4|4,0:0|0:0,0:0:0:0:
365,112,255144,6,0,P|324:122|282:161,1,82.5000031471254,6|0,0:0|0:0,0:0:0:0:
365,299,255467,2,0,P|376:258|363:203,1,82.5000031471254,10|0,0:0|0:0,0:0:0:0:
202,205,255789,2,0,P|231:234|285:251,1,82.5000031471254,2|4,0:0|0:0,0:0:0:0:
304,250,256031,1,4,0:0:0:0:
323,240,256112,1,14,0:0:0:0:
334,220,256192,1,4,0:0:0:0:
335,198,256273,1,4,0:0:0:0:
327,179,256354,1,4,0:0:0:0:
308,165,256434,54,0,B|251:142|251:142|209:103,1,110,6|0,0:0|0:0,0:0:0:0:
26,98,256757,2,0,B|83:121|83:121|125:160,1,110,10|0,0:0|0:0,0:0:0:0:
342,224,257080,1,6,0:0:0:0:
327,242,257160,2,0,P|295:261|263:268,1,55,4|0,0:0|0:0,0:0:0:0:
274,356,257321,1,4,0:0:0:0:
251,358,257402,2,0,P|218:339|196:315,1,55,10|0,0:0|0:0,0:0:0:0:
112,344,257563,1,4,0:0:0:0:
110,316,257643,1,4,0:0:0:0:
115,289,257725,6,0,B|128:234|94:234|114:176,1,110,6|0,0:0|0:0,0:0:0:0:
221,89,258047,2,0,B|207:143|241:143|221:201,1,110,10|0,0:0|0:0,0:0:0:0:
315,109,258370,1,2,0:0:0:0:
301,384,258531,1,4,0:0:0:0:
307,357,258611,1,4,0:0:0:0:
313,330,258692,1,10,0:0:0:0:
400,221,258854,1,4,0:0:0:0:
391,194,258934,1,4,0:0:0:0:
383,168,259015,6,0,B|372:123|372:123|352:79|352:79|335:17,1,137.5,6|0,0:0|0:0,0:0:0:0:
171,37,259338,2,0,B|160:79|160:79|140:123|140:123|129:168,1,137.5,10|0,0:0|0:0,0:0:0:0:
198,267,259660,1,6,0:0:0:0:
203,247,259741,2,0,L|218:182,1,55,4|0,0:0|0:0,0:0:0:0:
319,342,259902,1,4,0:0:0:0:
314,322,259983,2,0,L|299:257,1,55,10|0,0:0|0:0,0:0:0:0:
447,342,260144,1,4,0:0:0:0:
430,320,260224,1,4,0:0:0:0:
413,298,260305,54,0,B|377:250|377:250|370:197,1,110,6|0,0:0|0:0,0:0:0:0:
292,128,260628,2,0,B|272:174|272:174|280:233,1,110,10|0,0:0|0:0,0:0:0:0:
196,110,260950,2,0,B|220:55|220:55|260:25,1,110,2|4,0:0|0:0,0:0:0:0:
278,22,261192,1,4,0:0:0:0:
296,20,261273,1,6,0:0:0:0:
314,18,261353,1,4,0:0:0:0:
331,22,261434,1,4,0:0:0:0:
348,29,261515,1,4,0:0:0:0:
365,36,261596,6,0,B|395:49|395:49|299:100,1,121.000003692627,6|0,0:0|0:0,0:0:0:0:
155,232,261918,2,0,B|125:219|125:219|221:168,1,121.000003692627,10|0,0:0|0:0,0:0:0:0:
352,171,262241,5,6,0:0:0:0:
360,199,262321,1,4,0:0:0:0:
164,203,262483,1,4,0:0:0:0:
155,232,262563,1,10,0:0:0:0:
196,69,262725,1,4,0:0:0:0:
218,58,262805,1,4,0:0:0:0:
240,47,262886,53,6,0:0:0:0:
217,313,263047,1,0,0:0:0:0:
321,28,263209,5,10,0:0:0:0:
168,246,263370,1,0,0:0:0:0:
400,52,263531,6,0,L|344:78,1,55,8|4,0:0|0:0,0:0:0:0:
158,165,263693,2,0,L|214:139,1,55,4|12,0:0|0:0,0:0:0:0:
456,112,263854,53,8,0:0:0:0:
205,107,264015,1,8,0:0:0:0:
235,87,264095,1,8,0:0:0:0:
277,75,264176,6,0,P|350:88|416:183,1,192.5,6|0,0:0|0:0,0:0:0:0:
305,168,264499,6,0,P|304:197|298:169,1,82.5000031471254,6|0,0:0|0:0,0:0:0:0:
489,139,264660,54,0,B|503:208|503:208|469:251|469:251|482:316,1,191.400005841065,6|0,0:0|0:0,0:0:0:0:
354,334,264983,6,0,B|343:276|343:276|288:292|227:272|206:209,1,221.099989541474,6|0,0:0|0:0,0:0:0:0:
257,70,265305,6,0,B|265:57|274:36|274:36|303:176,1,181.500005538941,6|0,0:0|0:0,0:0:0:0:
354,334,265628,53,8,0:0:0:0:
114,139,265789,1,8,0:0:0:0:
418,155,265950,1,8,0:0:0:0:
163,320,266112,1,6,0:0:0:0:
272,36,266273,1,4,0:0:0:0:
354,334,266434,1,6,0:0:0:0:
163,320,266757,5,4,0:0:0:0:
159,305,266837,1,4,0:0:0:0:
159,289,266918,1,4,0:0:0:0:
163,275,266998,1,4,0:0:0:0:
193,255,267080,5,6,0:0:0:0:
196,240,267160,1,4,0:0:0:0:
196,224,267241,1,4,0:0:0:0:
192,210,267321,1,4,0:0:0:0:
163,191,267402,54,0,B|155:168|163:147|163:147|157:125|157:125|164:103|160:83,1,110,8|2,0:0|0:0,0:0:0:0:
325,88,268047,5,4,0:0:0:0:
314,101,268127,1,4,0:0:0:0:
303,115,268208,1,4,0:0:0:0:
293,128,268288,1,4,0:0:0:0:
261,158,268369,5,6,0:0:0:0:
278,160,268450,1,4,0:0:0:0:
295,162,268531,1,4,0:0:0:0:
312,165,268611,1,4,0:0:0:0:
350,151,268692,54,0,L|323:84,1,69.2999978851319,8|4,0:0|0:0,0:0:0:0:
286,56,268934,1,4,0:0:0:0:
242,36,269015,1,8,0:0:0:0:
194,27,269096,1,8,0:0:0:0:
146,31,269176,1,4,0:0:0:0:
100,46,269257,1,4,0:0:0:0:
60,72,269338,6,0,P|39:126|55:177,1,115.49999647522,6|0,0:0|0:0,0:0:0:0:
114,232,269660,6,0,P|134:177|118:126,1,115.49999647522,6|0,0:0|0:0,0:0:0:0:
209,107,269821,54,0,P|219:135|223:165,1,55,6|0,0:0|0:0,0:0:0:0:
318,159,270144,6,0,P|311:190|282:232,1,82.5,6|0,0:0|0:0,0:0:0:0:
201,254,270467,6,0,B|208:289|239:319|280:326|312:312|331:297|331:297|371:270|425:284,1,247.500009441376,6|0,0:0|0:0,0:0:0:0:
433,286,270789,53,8,0:0:0:0:
276,7,270950,1,8,0:0:0:0:
239,326,271112,1,8,0:0:0:0:
457,89,271273,1,6,0:0:0:0:
141,150,271434,1,6,0:0:0:0:
433,286,271596,1,6,0:0:0:0:
191,258,271918,5,6,0:0:0:0:
207,246,271998,1,4,0:0:0:0:
222,232,272079,1,4,0:0:0:0:
235,215,272159,1,4,0:0:0:0:
245,197,272240,5,6,0:0:0:0:
258,211,272321,1,4,0:0:0:0:
274,225,272401,1,4,0:0:0:0:
292,236,272482,1,4,0:0:0:0:
311,244,272563,53,14,0:0:0:0:
331,144,272725,1,4,0:0:0:0:
319,136,272805,1,4,0:0:0:0:
309,127,272886,1,10,0:0:0:0:
176,2,273047,2,0,P|192:3|214:10,1,27.5,10|4,0:0|0:0,0:0:0:0:
369,68,273209,6,0,P|391:84|408:116,1,55,8|8,0:0|0:0,0:0:0:0:
418,258,273370,1,6,0:0:0:0:
331,144,273531,1,6,0:0:0:0:
191,280,273692,6,0,P|193:251|212:220,1,55,8|8,0:0|0:0,0:0:0:0:
331,144,273853,1,6,0:0:0:0:
274,277,274014,1,6,0:0:0:0:
132,134,274176,54,0,P|152:152|187:161,1,55,8|8,0:0|0:0,0:0:0:0:
331,144,274338,1,6,0:0:0:0:
360,131,274418,1,6,0:0:0:0:
386,107,274499,1,6,0:0:0:0:
400,77,274579,1,6,0:0:0:0:
403,42,274660,5,8,0:0:0:0:
356,70,274740,1,8,0:0:0:0:
307,70,274821,1,8,0:0:0:0:
263,43,274901,1,8,0:0:0:0:
217,24,274982,1,4,0:0:0:0:
168,31,275063,1,4,0:0:0:0:
124,60,275144,5,12,0:0:0:0:
166,105,275225,1,8,0:0:0:0:
188,166,275306,1,4,0:0:0:0:
183,229,275386,1,4,0:0:0:0:
156,286,275467,1,10,0:0:0:0:
35,384,275628,1,8,0:0:0:0:
30,352,275708,1,8,0:0:0:0:
24,322,275789,6,0,L|-6:163,1,131.99999597168,6|10,0:0|0:0,0:0:0:0:
257,48,276112,1,4,0:0:0:0:
252,81,276192,1,4,0:0:0:0:
246,113,276273,2,0,L|218:265,1,131.99999597168,10|4,0:0|0:0,0:0:0:0:
43,162,276596,1,10,0:0:0:0:
257,48,276758,1,4,0:0:0:0:
289,44,276838,1,4,0:0:0:0:
319,56,276918,2,0,P|372:93|391:165,1,131.99999597168,10|4,0:0|0:0,0:0:0:0:
171,312,277241,5,10,0:0:0:0:
355,354,277402,1,4,0:0:0:0:
393,331,277482,1,4,0:0:0:0:
423,299,277563,1,10,0:0:0:0:
441,258,277643,1,4,0:0:0:0:
446,214,277725,2,0,L|450:68,1,131.99999597168,4|10,0:0|0:0,0:0:0:0:
346,0,277967,2,0,L|342:146,1,131.99999597168,0|4,0:0|0:0,0:0:0:0:
245,236,278209,2,0,L|246:170,1,65.9999979858399,10|0,0:0|0:0,0:0:0:0:
118,31,278370,6,0,B|140:78|122:133|122:133|139:151|146:175|146:175|129:215|129:259|142:294,1,275,6|4,0:0|0:0,0:0:0:0:
150,325,278773,1,4,0:0:0:0:
159,356,278854,1,10,0:0:0:0:
230,147,279015,1,4,0:0:0:0:
298,294,279176,1,10,0:0:0:0:
369,85,279338,1,4,0:0:0:0:
379,53,279418,1,4,0:0:0:0:
390,22,279499,1,10,0:0:0:0:
199,59,279660,54,0,B|158:75|135:112|136:165|136:165|131:166|131:166|136:169|136:169|143:214|128:263|60:288,1,275,4|4,0:0|0:0,0:0:0:0:
51,291,280063,1,4,0:0:0:0:
19,298,280144,1,10,0:0:0:0:
244,225,280305,2,0,B|306:198|306:198|380:193,1,131.99999597168,4|10,0:0|0:0,0:0:0:0:
512,332,280628,1,4,0:0:0:0:
478,335,280708,1,4,0:0:0:0:
445,338,280789,1,10,0:0:0:0:
244,225,280950,6,0,L|195:76,1,131.99999597168,6|10,0:0|0:0,0:0:0:0:
418,1,281273,1,4,0:0:0:0:
428,32,281353,1,4,0:0:0:0:
438,63,281434,2,0,L|486:211,1,131.99999597168,10|4,0:0|0:0,0:0:0:0:
340,384,281757,1,10,0:0:0:0:
367,146,281918,1,4,0:0:0:0:
366,113,281998,1,4,0:0:0:0:
351,84,282078,2,0,P|308:35|236:18,1,131.99999597168,10|4,0:0|0:0,0:0:0:0:
54,189,282402,5,10,0:0:0:0:
266,325,282563,1,4,0:0:0:0:
295,307,282644,1,4,0:0:0:0:
320,284,282724,1,10,0:0:0:0:
351,84,282886,2,0,P|308:35|236:18,1,131.99999597168,4|10,0:0|0:0,0:0:0:0:
160,154,283128,2,0,P|202:202|275:220,1,131.99999597168,0|4,0:0|0:0,0:0:0:0:
255,119,283370,1,10,0:0:0:0:
44,11,283531,53,6,0:0:0:0:
56,246,283692,1,10,0:0:0:0:
255,119,283854,1,4,0:0:0:0:
282,101,283934,1,4,0:0:0:0:
309,84,284015,1,10,0:0:0:0:
225,272,284176,1,4,0:0:0:0:
20,154,284337,1,10,0:0:0:0:
223,34,284499,1,4,0:0:0:0:
251,17,284579,1,4,0:0:0:0:
278,0,284660,1,10,0:0:0:0:
364,131,284821,5,4,0:0:0:0:
323,152,284901,1,4,0:0:0:0:
279,160,284982,1,14,0:0:0:0:
236,148,285062,1,4,0:0:0:0:
199,122,285143,1,4,0:0:0:0:
162,95,285224,1,4,0:0:0:0:
120,79,285304,1,14,0:0:0:0:
75,82,285385,1,4,0:0:0:0:
32,97,285467,5,4,0:0:0:0:
63,142,285547,1,4,0:0:0:0:
79,196,285628,1,14,0:0:0:0:
77,252,285708,1,4,0:0:0:0:
59,305,285789,53,4,0:0:0:0:
118,260,285870,1,4,0:0:0:0:
190,235,285951,1,14,0:0:0:0:
266,235,286031,1,4,0:0:0:0:
335,256,286112,6,0,P|392:289|434:346,1,131.99999597168,6|10,0:0|0:0,0:0:0:0:
118,260,286434,1,4,0:0:0:0:
133,234,286514,1,4,0:0:0:0:
156,211,286596,2,0,B|208:160|280:159,1,131.99999597168,10|4,0:0|0:0,0:0:0:0:
431,340,286918,1,10,0:0:0:0:
512,110,287080,1,4,0:0:0:0:
497,84,287160,1,4,0:0:0:0:
474,61,287242,2,0,B|422:10|350:9,1,131.99999597168,10|4,0:0|0:0,0:0:0:0:
130,104,287563,5,10,0:0:0:0:
148,314,287725,1,4,0:0:0:0:
151,345,287805,1,4,0:0:0:0:
154,379,287886,1,10,0:0:0:0:
314,172,288047,2,0,P|314:107|273:57,1,131.99999597168,4|10,0:0|0:0,0:0:0:0:
130,104,288289,2,0,P|129:168|170:218,1,131.99999597168,0|4,0:0|0:0,0:0:0:0:
220,138,288531,1,10,0:0:0:0:
407,2,288692,54,0,B|406:75|406:75|411:85|411:85|411:137|411:137|415:148|415:148|415:208|415:208|420:218|420:218|420:295,1,275,6|4,0:0|0:0,0:0:0:0:
420,308,289096,1,4,0:0:0:0:
420,341,289176,1,10,0:0:0:0:
310,97,289338,1,4,0:0:0:0:
232,329,289499,1,10,0:0:0:0:
122,85,289660,1,4,0:0:0:0:
109,52,289740,1,4,0:0:0:0:
98,22,289821,1,10,0:0:0:0:
22,177,289983,6,0,B|49:187|72:183|99:169|99:169|134:181|134:181|163:171|163:171|190:175|211:184|211:184|245:169|245:169|276:189|320:177,1,297.000001132965,4|4,0:0|0:0,0:0:0:0:
339,178,290386,1,4,0:0:0:0:
373,179,290467,1,10,0:0:0:0:
187,351,290628,2,0,P|152:347|126:332,3,43.9999986572266,4|4|4|10,0:0|0:0|0:0|0:0,0:0:0:0:
147,96,290950,1,4,0:0:0:0:
160,64,291031,1,4,0:0:0:0:
181,40,291111,1,10,0:0:0:0:
407,0,291273,6,0,P|395:60|327:121,1,131.99999597168,6|10,0:0|0:0,0:0:0:0:
99,278,291596,1,4,0:0:0:0:
121,254,291676,1,4,0:0:0:0:
150,238,291757,2,0,P|218:220|295:246,1,131.99999597168,10|4,0:0|0:0,0:0:0:0:
443,384,292080,1,10,0:0:0:0:
348,160,292241,1,4,0:0:0:0:
330,129,292321,1,4,0:0:0:0:
305,108,292402,2,0,P|242:75|161:83,1,131.99999597168,10|4,0:0|0:0,0:0:0:0:
1,116,292725,53,10,0:0:0:0:
177,269,292886,1,4,0:0:0:0:
208,275,292966,1,4,0:0:0:0:
243,271,293047,1,10,0:0:0:0:
446,51,293209,2,0,B|455:123|455:123|441:190,1,131.99999597168,4|10,0:0|0:0,0:0:0:0:
347,333,293450,2,0,B|337:260|337:260|351:193,1,131.99999597168,0|4,0:0|0:0,0:0:0:0:
357,77,293692,2,0,B|352:42|352:42|342:12,1,65.9999979858399,10|0,0:0|0:0,0:0:0:0:
175,334,293854,5,6,0:0:0:0:
106,82,294015,1,10,0:0:0:0:
73,291,294176,2,0,L|103:239,1,41.2500015735627,4|4,0:0|0:0,0:0:0:0:
201,64,294338,1,10,0:0:0:0:
30,188,294499,5,4,0:0:0:0:
282,119,294660,1,10,0:0:0:0:
73,85,294821,2,0,L|125:116,1,41.2500015735627,4|4,0:0|0:0,0:0:0:0:
299,212,294983,1,10,0:0:0:0:
376,22,295144,54,0,P|402:44|414:67,1,55,6|4,0:0|0:0,0:0:0:0:
438,182,295305,1,8,0:0:0:0:
439,229,295385,1,8,0:0:0:0:
431,277,295466,1,8,0:0:0:0:
412,321,295546,1,8,0:0:0:0:
384,360,295628,2,0,P|354:383|326:387,1,55,6|8,0:0|0:0,0:0:0:0:
141,299,295789,2,0,P|171:276|199:272,3,55,6|8|8|8,0:0|0:0|0:0|0:0,0:0:0:0:
301,157,296112,5,6,0:0:0:0:
243,175,296192,1,4,0:0:0:0:
185,157,296273,1,4,0:0:0:0:
148,108,296353,1,4,0:0:0:0:
145,48,296434,5,6,0:0:0:0:
202,63,296514,1,4,0:0:0:0:
244,102,296595,1,4,0:0:0:0:
262,160,296675,1,4,0:0:0:0:
283,216,296756,1,6,0:0:0:0:
333,248,296837,1,4,0:0:0:0:
394,257,296918,53,4,0:0:0:0:
414,306,296998,1,4,0:0:0:0:
395,357,297080,1,14,0:0:0:0:
347,381,297159,1,4,0:0:0:0:
295,368,297240,1,4,0:0:0:0:
266,323,297321,1,4,0:0:0:0:
275,270,297401,5,6,0:0:0:0:
283,216,297483,1,4,0:0:0:0:
254,171,297564,1,4,0:0:0:0:
202,158,297645,1,4,0:0:0:0:
154,182,297725,1,6,0:0:0:0:
135,233,297806,1,4,0:0:0:0:
156,283,297886,5,4,0:0:0:0:
142,333,297966,1,4,0:0:0:0:
98,364,298047,1,6,0:0:0:0:
44,355,298127,1,4,0:0:0:0:
11,313,298208,1,4,0:0:0:0:
13,260,298289,1,4,0:0:0:0:
51,221,298370,53,14,0:0:0:0:
104,219,298450,1,4,0:0:0:0:
154,236,298531,1,4,0:0:0:0:
193,272,298611,1,4,0:0:0:0:
223,316,298692,1,6,0:0:0:0:
260,355,298773,1,4,0:0:0:0:
309,372,298853,1,4,0:0:0:0:
362,367,298934,1,4,0:0:0:0:
413,351,299015,5,6,0:0:0:0:
360,329,299096,1,4,0:0:0:0:
333,279,299177,1,4,0:0:0:0:
342,223,299257,1,4,0:0:0:0:
383,185,299338,1,6,0:0:0:0:
424,147,299419,1,4,0:0:0:0:
433,91,299499,1,4,0:0:0:0:
406,41,299580,1,4,0:0:0:0:
354,20,299661,5,14,0:0:0:0:
309,30,299741,1,4,0:0:0:0:
265,41,299822,1,4,0:0:0:0:
221,51,299902,1,4,0:0:0:0:
177,62,299983,1,6,0:0:0:0:
133,72,300064,1,4,0:0:0:0:
89,83,300144,1,4,0:0:0:0:
45,93,300225,1,4,0:0:0:0:
1,104,300305,53,6,0:0:0:0:
22,51,300386,1,4,0:0:0:0:
75,29,300467,1,4,0:0:0:0:
130,40,300547,1,4,0:0:0:0:
164,83,300628,1,6,0:0:0:0:
201,128,300709,1,4,0:0:0:0:
256,140,300789,1,4,0:0:0:0:
307,117,300870,1,4,0:0:0:0:
332,65,300950,6,0,P|353:31|356:1,2,65.9999979858399,12|4|4,0:0|0:0|0:0,0:0:0:0:
339,201,301192,1,12,0:0:0:0:
355,216,301273,2,0,P|395:217|423:205,1,65.9999979858399,12|0,0:0|0:0,0:0:0:0:
278,317,301434,2,0,P|296:353|321:371,1,65.9999979858399,4|12,0:0|0:0,0:0:0:0:
151,374,301596,5,6,0:0:0:0:
97,382,301676,1,4,0:0:0:0:
52,353,301757,1,4,0:0:0:0:
38,301,301837,1,4,0:0:0:0:
61,253,301918,1,6,0:0:0:0:
112,233,301999,1,4,0:0:0:0:
162,254,302079,53,4,0:0:0:0:
212,272,302161,1,4,0:0:0:0:
263,254,302242,1,14,0:0:0:0:
287,205,302321,1,4,0:0:0:0:
273,153,302403,1,4,0:0:0:0:
227,125,302484,1,4,0:0:0:0:
174,135,302564,5,6,0:0:0:0:
142,178,302644,1,4,0:0:0:0:
146,231,302725,1,4,0:0:0:0:
187,267,302805,1,4,0:0:0:0:
241,266,302886,1,6,0:0:0:0:
280,229,302967,1,4,0:0:0:0:
286,176,303047,5,4,0:0:0:0:
289,122,303129,1,4,0:0:0:0:
329,85,303210,1,6,0:0:0:0:
382,84,303289,1,4,0:0:0:0:
423,120,303371,1,4,0:0:0:0:
429,173,303450,1,4,0:0:0:0:
399,218,303531,53,14,0:0:0:0:
362,257,303612,1,4,0:0:0:0:
359,311,303692,1,4,0:0:0:0:
394,353,303773,1,4,0:0:0:0:
447,360,303854,2,4,P|476:346|498:321,3,65.9999979858399,6|4|4|4,0:0|0:0|0:0|0:0,0:0:0:0:
317,366,304176,5,6,0:0:0:0:
267,382,304257,1,4,0:0:0:0:
217,360,304338,1,4,0:0:0:0:
195,310,304418,1,4,0:0:0:0:
211,263,304499,1,6,0:0:0:0:
260,234,304580,1,4,0:0:0:0:
311,245,304660,1,4,0:0:0:0:
362,255,304741,1,4,0:0:0:0:
410,228,304821,5,14,0:0:0:0:
426,178,304902,1,4,0:0:0:0:
408,128,304983,1,4,0:0:0:0:
355,108,305063,1,4,0:0:0:0:
300,127,305143,1,4,0:0:0:0:
254,138,305225,1,4,0:0:0:0:
209,119,305306,1,4,0:0:0:0:
187,76,305386,1,4,0:0:0:0:
192,26,305467,54,0,L|248:18,1,55,8|8,0:0|0:0,0:0:0:0:
367,130,305628,2,0,L|311:138,1,55,8|8,0:0|0:0,0:0:0:0:
152,253,305789,2,0,L|214:244,3,55,6|6|6|6,0:0|0:0|0:0|0:0,0:0:0:0:
378,305,306112,2,0,L|315:313,1,55,12|12,0:0|0:0,0:0:0:0:
132,227,306273,2,0,L|194:218,1,55,12|12,0:0|0:0,0:0:0:0:
327,107,306434,2,0,L|271:115,3,55,6|6|6|6,0:0|0:0|0:0|0:0,0:0:0:0:
238,183,306757,5,6,0:0:0:0:
282,214,306837,1,4,0:0:0:0:
291,268,306918,1,4,0:0:0:0:
263,311,306998,1,4,0:0:0:0:
212,329,307079,1,6,0:0:0:0:
163,305,307160,1,4,0:0:0:0:
144,255,307241,5,4,0:0:0:0:
109,296,307321,1,4,0:0:0:0:
54,300,307402,1,14,0:0:0:0:
14,268,307482,1,4,0:0:0:0:
1,216,307563,1,4,0:0:0:0:
29,169,307644,1,4,0:0:0:0:
80,155,307725,53,6,0:0:0:0:
35,127,307805,1,4,0:0:0:0:
27,73,307886,1,4,0:0:0:0:
57,30,307966,1,4,0:0:0:0:
107,14,308047,1,6,0:0:0:0:
156,38,308128,1,4,0:0:0:0:
174,88,308208,5,4,0:0:0:0:
143,131,308289,1,4,0:0:0:0:
152,185,308370,1,6,0:0:0:0:
193,217,308451,1,4,0:0:0:0:
246,217,308531,1,4,0:0:0:0:
285,179,308612,1,4,0:0:0:0:
283,127,308692,6,4,P|288:92|304:66,3,65.9999979858399,14|4|4|4,0:0|0:0|0:0|0:0,0:0:0:0:
422,174,309015,2,4,P|416:208|400:234,3,65.9999979858399,6|4|4|4,0:0|0:0|0:0|0:0,0:0:0:0:
476,362,309338,53,6,0:0:0:0:
420,373,309418,1,4,0:0:0:0:
364,368,309499,1,4,0:0:0:0:
316,338,309579,1,4,0:0:0:0:
278,295,309660,1,6,0:0:0:0:
241,254,309741,1,4,0:0:0:0:
193,225,309821,1,4,0:0:0:0:
136,224,309902,1,4,0:0:0:0:
83,240,309983,5,14,0:0:0:0:
63,285,310063,1,4,0:0:0:0:
72,332,310144,1,4,0:0:0:0:
106,367,310224,1,4,0:0:0:0:
154,375,310305,1,6,0:0:0:0:
199,356,310386,1,4,0:0:0:0:
224,314,310466,1,4,0:0:0:0:
222,265,310547,1,4,0:0:0:0:
192,226,310628,5,6,0:0:0:0:
156,178,310709,1,4,0:0:0:0:
152,118,310790,1,4,0:0:0:0:
185,66,310870,1,4,0:0:0:0:
239,42,310951,1,6,0:0:0:0:
299,53,311032,1,4,0:0:0:0:
341,95,311112,1,4,0:0:0:0:
353,155,311193,1,4,0:0:0:0:
324,209,311273,54,4,P|290:251|256:261,1,65.9999979858399,14|4,0:0|0:0,0:0:0:0:
169,328,311434,1,4,0:0:0:0:
169,328,311515,1,12,0:0:0:0:
169,328,311596,2,4,P|149:277|157:243,1,65.9999979858399,12|4,0:0|0:0,0:0:0:0:
143,134,311757,2,4,P|196:142|222:166,1,65.9999979858399,4|12,0:0|0:0,0:0:0:0:
324,209,311918,5,6,0:0:0:0:
376,224,311998,1,4,0:0:0:0:
408,269,312079,1,4,0:0:0:0:
407,325,312159,1,4,0:0:0:0:
372,369,312240,1,6,0:0:0:0:
318,383,312321,1,4,0:0:0:0:
266,362,312401,5,4,0:0:0:0:
238,314,312482,1,4,0:0:0:0:
244,258,312563,1,14,0:0:0:0:
250,202,312644,1,4,0:0:0:0:
222,154,312725,1,4,0:0:0:0:
170,133,312805,1,4,0:0:0:0:
116,147,312886,53,6,0:0:0:0:
81,191,312967,1,4,0:0:0:0:
80,247,313047,1,4,0:0:0:0:
112,292,313128,1,4,0:0:0:0:
164,307,313208,1,6,0:0:0:0:
220,299,313289,1,4,0:0:0:0:
268,268,313370,5,4,0:0:0:0:
298,219,313450,1,4,0:0:0:0:
304,163,313531,1,6,0:0:0:0:
285,109,313612,1,4,0:0:0:0:
244,68,313692,1,4,0:0:0:0:
190,50,313773,1,4,0:0:0:0:
133,56,313854,6,4,P|93:73|70:95,3,65.9999979858399,14|4|4|4,0:0|0:0|0:0|0:0,0:0:0:0:
134,207,314176,2,4,P|174:224|197:246,3,65.9999979858399,6|4|4|4,0:0|0:0|0:0|0:0,0:0:0:0:
13,350,314499,53,6,0:0:0:0:
48,310,314579,1,4,0:0:0:0:
95,286,314660,1,4,0:0:0:0:
147,288,314740,1,4,0:0:0:0:
195,311,314821,1,6,0:0:0:0:
241,339,314902,1,4,0:0:0:0:
291,352,314982,1,4,0:0:0:0:
343,343,315063,1,4,0:0:0:0:
388,314,315144,5,14,0:0:0:0:
411,261,315225,1,4,0:0:0:0:
397,206,315306,1,4,0:0:0:0:
351,171,315386,1,4,0:0:0:0:
294,169,315467,1,14,0:0:0:0:
241,193,315548,1,4,0:0:0:0:
183,194,315628,1,4,0:0:0:0:
141,156,315709,1,4,0:0:0:0:
138,100,315790,5,14,0:0:0:0:
173,141,315870,1,12,0:0:0:0:
178,197,315950,1,4,0:0:0:0:
150,246,316031,1,4,0:0:0:0:
97,268,316112,1,4,0:0:0:0:
43,255,316193,1,4,0:0:0:0:
6,213,316273,1,4,0:0:0:0:
1,156,316354,1,4,0:0:0:0:
30,108,316435,53,4,0:0:0:0:
98,77,316515,1,4,0:0:0:0:
173,88,316596,1,12,0:0:0:0:
231,136,316676,1,4,0:0:0:0:
253,210,316757,1,4,0:0:0:0:
278,282,316838,1,4,0:0:0:0:
334,334,316919,1,4,0:0:0:0:
408,342,316999,1,4,0:0:0:0:
477,311,317080,38,0,P|511:269|506:186,1,131.99999597168,10|4,0:0|0:0,0:0:0:0:
197,92,317402,2,0,P|163:134|168:217,1,131.99999597168,10|4,0:0|0:0,0:0:0:0:
427,219,317725,6,0,P|435:165|389:96,1,131.99999597168,10|4,0:0|0:0,0:0:0:0:
75,169,318047,2,0,P|66:222|112:291,1,131.99999597168,10|4,0:0|0:0,0:0:0:0:
337,164,318370,6,0,P|317:113|243:76,1,131.99999597168,10|4,0:0|0:0,0:0:0:0:
7,297,318692,2,0,P|26:347|100:384,1,131.99999597168,10|4,0:0|0:0,0:0:0:0:
337,164,319015,53,10,0:0:0:0:
105,286,319176,2,0,L|163:243,1,65.9999979858399,4|4,0:0|0:0,0:0:0:0:
392,95,319338,5,10,0:0:0:0:
136,152,319499,2,4,L|203:125,1,65.9999979858399,0|0,0:0|0:0,0:0:0:0:
451,46,319660,5,10,0:0:0:0:
136,152,319821,1,4,0:0:0:0:
462,80,319983,53,10,0:0:0:0:
104,130,320144,1,4,0:0:0:0:
474,119,320305,5,10,0:0:0:0:
73,111,320466,1,4,0:0:0:0:
476,155,320628,5,10,0:0:0:0:
43,90,320789,1,4,0:0:0:0:
474,195,320950,53,10,0:0:0:0:
216,67,321112,2,0,P|193:27|188:-2,2,65.9999979858399,4|4|10,0:0|0:0|0:0,0:0:0:0:
230,324,321434,2,0,P|276:324|303:334,2,65.9999979858399,4|4|10,0:0|0:0|0:0,0:0:0:0:
363,259,321757,5,4,0:0:0:0:
332,245,321837,1,4,0:0:0:0:
301,236,321918,1,10,0:0:0:0:
268,232,321998,1,8,0:0:0:0:
235,232,322080,1,4,0:0:0:0:
20,243,322241,69,14,0:0:0:0:
40,256,322321,1,4,0:0:0:0:
52,278,322402,1,6,0:0:0:0:
53,302,322482,1,4,0:0:0:0:
36,337,322563,5,14,0:0:0:0:
56,331,322643,1,4,0:0:0:0:
76,328,322724,1,6,0:0:0:0:
97,329,322804,1,4,0:0:0:0:
121,355,322886,5,14,0:0:0:0:
146,358,322967,1,4,0:0:0:0:
170,356,323047,1,6,0:0:0:0:
194,347,323128,1,4,0:0:0:0:
217,335,323209,53,14,0:0:0:0:
191,282,323289,1,4,0:0:0:0:
167,231,323370,1,6,0:0:0:0:
142,180,323450,1,4,0:0:0:0:
118,129,323531,5,14,0:0:0:0:
164,109,323611,1,4,0:0:0:0:
212,95,323692,1,6,0:0:0:0:
262,90,323772,1,4,0:0:0:0:
310,101,323853,1,14,0:0:0:0:
357,119,323934,1,4,0:0:0:0:
406,127,324014,1,6,0:0:0:0:
456,122,324095,1,4,0:0:0:0:
505,110,324177,5,14,0:0:0:0:
488,173,324257,1,4,0:0:0:0:
450,227,324338,1,6,0:0:0:0:
396,264,324418,1,4,0:0:0:0:
332,280,324499,1,14,0:0:0:0:
267,273,324580,1,4,0:0:0:0:
209,243,324660,1,6,0:0:0:0:
164,195,324741,1,4,0:0:0:0:
139,134,324821,54,4,L|189:123,1,41.2500015735627,14|4,0:0|0:0,0:0:0:0:
354,188,324983,2,4,L|301:198,1,41.2500015735627,0|0,0:0|0:0,0:0:0:0:
128,98,325144,6,4,L|180:105,1,46.7500008916855,14|4,0:0|0:0,0:0:0:0:
365,223,325306,2,4,L|312:214,1,46.7500008916855,0|0,0:0|0:0,0:0:0:0:
130,61,325467,6,4,L|176:87,1,52.2499986047745,14|4,0:0|0:0,0:0:0:0:
363,261,325629,2,4,L|315:235,1,52.2499986047745,0|0,0:0|0:0,0:0:0:0:
144,27,325789,54,4,L|184:72,1,57.7499982376099,14|4,0:0|0:0,0:0:0:0:
349,295,325951,2,0,L|306:247,1,57.7499982376099,4|4,0:0|0:0,0:0:0:0:
238,144,326112,5,14,0:0:0:0:
284,102,326192,1,4,0:0:0:0:
345,92,326273,1,8,0:0:0:0:
402,118,326353,1,8,0:0:0:0:
436,170,326434,1,4,0:0:0:0:
435,232,326515,1,4,0:0:0:0:
400,284,326596,5,10,0:0:0:0:
342,241,326676,1,4,0:0:0:0:
272,235,326757,1,8,0:0:0:0:
209,269,326837,1,8,0:0:0:0:
148,305,326918,1,4,0:0:0:0:
78,305,326999,1,4,0:0:0:0:
22,264,327079,1,10,0:0:0:0:
256,192,327241,2,0,L|256:128,2,57.7499982376099,8|8|6,0:0|0:0|0:0,0:0:0:0:
190,64,327563,5,8,0:0:0:0:
143,64,327644,1,8,0:0:0:0:
96,64,327724,1,8,0:0:0:0:
256,346,327886,1,6,0:0:0:0:
416,64,328047,1,6,0:0:0:0:
303,263,328209,5,8,0:0:0:0:
279,304,328290,1,8,0:0:0:0:
256,346,328370,1,8,0:0:0:0:
144,146,328531,1,8,0:0:0:0:
120,104,328612,1,8,0:0:0:0:
96,64,328692,1,6,0:0:0:0:
321,64,328854,1,4,0:0:0:0:
368,64,328934,1,4,0:0:0:0:
416,64,329015,1,6,0:0:0:0:
304,283,329176,6,8,P|267:265|247:245,1,63.250001206398,0|0,0:0|0:0,0:0:0:0:
208,101,329338,2,4,P|245:119|265:139,1,63.250001206398,0|0,0:0|0:0,0:0:0:0:
362,378,329499,53,8,0:0:0:0:
147,3,329660,1,8,0:0:0:0:
499,185,329821,1,8,0:0:0:0:
13,185,329983,1,6,0:0:0:0:
256,192,330023,12,0,331273,0:0:0:0:
