osu file format v14

[General]
AudioFilename: audio.mp3
AudioLeadIn: 0
PreviewTime: 146037
Countdown: 0
SampleSet: Normal
StackLeniency: 0.7
Mode: 1
LetterboxInBreaks: 0
WidescreenStoryboard: 0

[Editor]
DistanceSpacing: 0.8
BeatDivisor: 4
GridSize: 32
TimelineZoom: 3.199999

[Metadata]
Title:Angreifer
TitleUnicode:Angreifer
Artist:Unlucky Morpheus
ArtistUnicode:Unlucky Morpheus
Creator:tama11
Version:Monstrous Strength
Source:
Tags:vampir dojin gothic power metal marathon 天外冬黄 fuki fuyuki tenge japanese agu Trapmaniac roufou femboy_mapper Mikaruge
BeatmapID:3074704
BeatmapSetID:1500429

[Difficulty]
HPDrainRate:4
CircleSize:5
OverallDifficulty:7.2
ApproachRate:5
SliderMultiplier:1.4
SliderTickRate:1

[Events]
//Background and Video events
0,0,"bg.jpg",0,50
//Break Periods
//Storyboard Layer 0 (Background)
//Storyboard Layer 1 (Fail)
//Storyboard Layer 2 (Pass)
//Storyboard Layer 3 (Foreground)
//Storyboard Layer 4 (Overlay)
//Storyboard Sound Samples

[TimingPoints]
265,272.727272727273,6,1,0,80,1,0
265,-200,6,1,0,80,0,0
52628,-153.846153846154,6,1,0,80,0,0
52901,-166.666666666667,6,1,0,80,0,0
53174,-181.818181818182,6,1,0,80,0,0
53446,-200,6,1,0,80,0,0
64901,-166.666666666667,6,1,0,80,0,0
65174,-142.857142857143,6,1,0,80,0,0
65446,-125,6,1,0,80,0,0
65719,272.727272727273,3,1,0,80,1,0
78810,272.727272727273,4,1,0,80,1,0
123332,-101.010101010101,4,1,0,80,0,0
123400,-102.040816326531,4,1,0,80,0,0
123469,-103.092783505155,4,1,0,80,0,0
123537,-104.166666666667,4,1,0,80,0,0
123605,-105.263157894737,4,1,0,80,0,0
123673,-106.382978723404,4,1,0,80,0,0
123741,-107.52688172043,4,1,0,80,0,0
123810,-108.695652173913,4,1,0,80,0,0
123878,-109.89010989011,4,1,0,80,0,0
123946,-111.111111111111,4,1,0,80,0,0
124014,-112.359550561798,4,1,0,80,0,0
124082,-113.636363636364,4,1,0,80,0,0
124150,-114.942528735632,4,1,0,80,0,0
124219,-116.279069767442,4,1,0,80,0,0
124287,-117.647058823529,4,1,0,80,0,0
124355,-119.047619047619,4,1,0,80,0,0
124423,-119.047619047619,4,1,0,80,0,0
124491,-121.951219512195,4,1,0,80,0,0
124560,-123.456790123457,4,1,0,80,0,0
124628,-125,4,1,0,80,0,0
132810,-108.695652173913,4,1,0,80,0,0
132900,-111.111111111111,4,1,0,80,0,0
132991,-113.636363636364,4,1,0,80,0,0
133082,-116.279069767442,4,1,0,80,0,0
133173,-119.047619047619,4,1,0,80,0,0
133264,-121.951219512195,4,1,0,80,0,0
133355,-125,4,1,0,80,0,0
139628,-128.205128205128,4,1,0,80,0,0
139764,-126.582278481013,4,1,0,80,0,0
139900,-125,4,1,0,80,0,0
140037,-123.456790123457,4,1,0,80,0,0
140105,-121.951219512195,4,1,0,80,0,0
140173,-120.481927710843,4,1,0,80,0,0
140310,-119.047619047619,4,1,0,80,0,0
140446,-117.647058823529,4,1,0,80,0,0
140514,-116.279069767442,4,1,0,80,0,0
140582,-114.942528735632,4,1,0,80,0,0
140719,-113.636363636364,4,1,0,80,0,0
140855,-112.485939257593,4,1,0,80,0,0
140991,-111.111111111111,4,1,0,80,0,0
141128,-109.89010989011,4,1,0,80,0,0
141196,-108.695652173913,4,1,0,80,0,0
141264,-107.52688172043,4,1,0,80,0,0
141400,-106.382978723404,4,1,0,80,0,0
141537,-105.263157894737,4,1,0,80,0,0
141605,-104.166666666667,4,1,0,80,0,0
141673,-103.092783505155,4,1,0,80,0,0
141810,-102.040816326531,4,1,0,80,0,0
141946,-101.010101010101,4,1,0,80,0,0
142082,-100,4,1,0,80,0,0
146446,-100,4,1,0,80,0,1
163900,-100,4,1,0,80,0,0
197514,-101.010101010101,4,1,0,80,0,0
197582,-102.040816326531,4,1,0,80,0,0
197650,-103.092783505155,4,1,0,80,0,0
197719,-104.166666666667,4,1,0,80,0,0
197787,-105.263157894737,4,1,0,80,0,0
197855,-106.382978723404,4,1,0,80,0,0
197923,-107.52688172043,4,1,0,80,0,0
197991,-108.695652173913,4,1,0,80,0,0
198060,-109.89010989011,4,1,0,80,0,0
198128,-111.111111111111,4,1,0,80,0,0
198196,-112.359550561798,4,1,0,80,0,0
198264,-113.636363636364,4,1,0,80,0,0
198332,-114.942528735632,4,1,0,80,0,0
198400,-116.279069767442,4,1,0,80,0,0
198469,-117.647058823529,4,1,0,80,0,0
198537,-119.047619047619,4,1,0,80,0,0
198605,-120.481927710843,4,1,0,80,0,0
198673,-121.951219512195,4,1,0,80,0,0
198741,-123.456790123457,4,1,0,80,0,0
198810,-125,4,1,0,80,0,0
206991,-108.695652173913,4,1,0,80,0,0
207082,-111.111111111111,4,1,0,80,0,0
207173,-113.636363636364,4,1,0,80,0,0
207264,-116.279069767442,4,1,0,80,0,0
207355,-119.047619047619,4,1,0,80,0,0
207446,-121.951219512195,4,1,0,80,0,0
207537,-125,4,1,0,80,0,0
213810,-128.205128205128,4,1,0,80,0,0
213946,-126.582278481013,4,1,0,80,0,0
214082,-125,4,1,0,80,0,0
214219,-123.456790123457,4,1,0,80,0,0
214287,-121.951219512195,4,1,0,80,0,0
214355,-120.481927710843,4,1,0,80,0,0
214491,-119.047619047619,4,1,0,80,0,0
214628,-117.647058823529,4,1,0,80,0,0
214696,-116.279069767442,4,1,0,80,0,0
214764,-114.942528735632,4,1,0,80,0,0
214900,-113.636363636364,4,1,0,80,0,0
215037,-112.485939257593,4,1,0,80,0,0
215173,-111.111111111111,4,1,0,80,0,0
215310,-109.89010989011,4,1,0,80,0,0
215378,-108.695652173913,4,1,0,80,0,0
215446,-107.52688172043,4,1,0,80,0,0
215582,-106.382978723404,4,1,0,80,0,0
215719,-105.263157894737,4,1,0,80,0,0
215787,-104.166666666667,4,1,0,80,0,0
215855,-103.092783505155,4,1,0,80,0,0
215991,-102.040816326531,4,1,0,80,0,0
216128,-101.010101010101,4,1,0,80,0,0
216264,-100,4,1,0,80,0,0
220628,-100,4,1,0,80,0,1
236787,-101.010101010101,4,1,0,80,0,1
236855,-102.040816326531,4,1,0,80,0,1
236923,-103.092783505155,4,1,0,80,0,1
236991,-104.166666666667,4,1,0,80,0,1
237060,-105.263157894737,4,1,0,80,0,1
237128,-106.382978723404,4,1,0,80,0,1
237196,-107.52688172043,4,1,0,80,0,1
237264,-108.695652173913,4,1,0,80,0,1
237332,-109.89010989011,4,1,0,80,0,1
237400,-111.111111111111,4,1,0,80,0,1
237469,-112.359550561798,4,1,0,80,0,1
237537,-113.636363636364,4,1,0,80,0,1
237605,-114.942528735632,4,1,0,80,0,1
237673,-116.279069767442,4,1,0,80,0,1
237741,-117.647058823529,4,1,0,80,0,1
237810,-119.047619047619,4,1,0,80,0,1
237878,-120.481927710843,4,1,0,80,0,1
237946,-121.951219512195,4,1,0,80,0,1
238014,-123.456790123457,4,1,0,80,0,1
238082,272.727272727273,3,1,0,80,1,0
238082,-125,3,1,0,80,0,0
240263,-106.382978723404,3,1,0,80,0,0
240354,-107.52688172043,3,1,0,80,0,0
240445,-108.695652173913,3,1,0,80,0,0
240536,-109.89010989011,3,1,0,80,0,0
240672,-111.111111111111,3,1,0,80,0,0
240809,-113.636363636364,3,1,0,80,0,0
240945,-116.279069767442,3,1,0,80,0,0
241082,-119.047619047619,3,1,0,80,0,0
241218,-121.951219512195,3,1,0,80,0,0
241354,-125,3,1,0,80,0,0
241900,-111.111111111111,3,1,0,80,0,0
242036,-109.89010989011,3,1,0,80,0,0
242172,-108.695652173913,3,1,0,80,0,0
242309,-107.52688172043,3,1,0,80,0,0
242377,-106.382978723404,3,1,0,80,0,0
242445,-105.263157894737,3,1,0,80,0,0
242582,-104.166666666667,3,1,0,80,0,0
242650,-103.092783505155,3,1,0,80,0,0
242718,-102.040816326531,3,1,0,80,0,0
242786,-101.010101010101,3,1,0,80,0,0
242854,-100,3,1,0,80,0,0
242991,-76.9230769230769,3,1,0,80,0,0
243263,-83.3333333333333,3,1,0,80,0,0
243536,-90.9090909090909,3,1,0,80,0,0
243809,-98.0392156862745,3,1,0,80,0,0
243877,-99.009900990099,3,1,0,80,0,0
243945,-100,3,1,0,80,0,0
244013,-101.010101010101,3,1,0,80,0,0
244082,-102.040816326531,3,1,0,80,0,0
244150,-103.092783505155,3,1,0,80,0,0
244218,-104.166666666667,3,1,0,80,0,0
244286,-105.263157894737,3,1,0,80,0,0
244354,-106.382978723404,3,1,0,80,0,0
244422,-107.52688172043,3,1,0,80,0,0
244491,-108.695652173913,3,1,0,80,0,0
244559,-109.89010989011,3,1,0,80,0,0
244627,-111.111111111111,3,1,0,80,0,0
256082,-105.263157894737,3,1,0,80,0,0
256218,-100,3,1,0,80,0,0
257718,272.727272727273,4,1,0,80,1,0
257854,-102.040816326531,4,1,0,80,0,0
257990,-104.166666666667,4,1,0,80,0,0
258127,-106.382978723404,4,1,0,80,0,0
258263,-108.695652173913,4,1,0,80,0,0
258399,-111.111111111111,4,1,0,80,0,0
258536,-113.636363636364,4,1,0,80,0,0
258672,-116.279069767442,4,1,0,80,0,0
258808,-83.3333333333333,4,1,0,80,0,0
259899,-100,4,1,0,80,0,0
276808,-101.010101010101,4,1,0,80,0,0
276945,-102.040816326531,4,1,0,80,0,0
277081,-103.092783505155,4,1,0,80,0,0
277218,-104.166666666667,4,1,0,80,0,0
277354,-105.263157894737,4,1,0,80,0,0
277490,-106.382978723404,4,1,0,80,0,0
277627,-107.52688172043,4,1,0,80,0,0
277763,-108.695652173913,4,1,0,80,0,0
277899,-109.89010989011,4,1,0,80,0,0
278036,-111.111111111111,4,1,0,80,0,0
278172,-112.359550561798,4,1,0,80,0,0
278308,-113.636363636364,4,1,0,80,0,0
278445,-114.942528735632,4,1,0,80,0,0
278581,-116.279069767442,4,1,0,80,0,0
278718,-117.647058823529,4,1,0,80,0,0
278854,-119.047619047619,4,1,0,80,0,0
278990,-120.481927710843,4,1,0,80,0,0
279263,-100,4,1,0,80,0,0
313490,-101.010101010101,4,1,0,80,0,0
313558,-102.040816326531,4,1,0,80,0,0
313627,-103.092783505155,4,1,0,80,0,0
313763,-104.166666666667,4,1,0,80,0,0
313899,-106.382978723404,4,1,0,80,0,0
313968,-108.695652173913,4,1,0,80,0,0
314036,-111.111111111111,4,1,0,80,0,0
314172,-113.636363636364,4,1,0,80,0,0
314240,-116.279069767442,4,1,0,80,0,0
314308,-119.047619047619,4,1,0,80,0,0
314377,-121.951219512195,4,1,0,80,0,0
314445,-125,4,1,0,80,0,0
322627,-108.695652173913,4,1,0,80,0,0
322718,-111.111111111111,4,1,0,80,0,0
322808,-113.636363636364,4,1,0,80,0,0
322899,-116.279069767442,4,1,0,80,0,0
322990,-119.047619047619,4,1,0,80,0,0
323081,-121.951219512195,4,1,0,80,0,0
323172,-125,4,1,0,80,0,0
329445,-111.111111111111,4,1,0,80,0,0
329581,-105.263157894737,4,1,0,80,0,0
329718,-100,4,1,0,80,0,0
339331,-101.010101010101,4,1,0,80,0,0
339399,-102.040816326531,4,1,0,80,0,0
339468,-103.092783505155,4,1,0,80,0,0
339536,-104.166666666667,4,1,0,80,0,0
339604,-105.263157894737,4,1,0,80,0,0
339672,-106.382978723404,4,1,0,80,0,0
339740,-107.52688172043,4,1,0,80,0,0
339808,-108.695652173913,4,1,0,80,0,0
339877,-109.89010989011,4,1,0,80,0,0
339945,-111.111111111111,4,1,0,80,0,0
340013,-112.359550561798,4,1,0,80,0,0
340081,-113.636363636364,4,1,0,80,0,0
340149,-114.942528735632,4,1,0,80,0,0
340218,-116.279069767442,4,1,0,80,0,0
340286,-117.647058823529,4,1,0,80,0,0
340354,-119.047619047619,4,1,0,80,0,0
340422,-120.481927710843,4,1,0,80,0,0
340490,-121.951219512195,4,1,0,80,0,0
340558,-123.456790123457,4,1,0,80,0,0
340627,-125,4,1,0,80,0,0
341036,-128.205128205128,4,1,0,80,0,0
341445,-131.578947368421,4,1,0,80,0,0
341718,-111.111111111111,4,1,0,80,0,0
342127,-117.647058823529,4,1,0,80,0,0
342536,-125,4,1,0,80,0,0
342808,-100,4,1,0,80,0,0
343627,-125,4,1,0,80,0,0
343899,-83.3333333333333,4,1,0,80,0,0
344445,-100,4,1,0,80,0,0
344990,-76.9230769230769,4,1,0,80,0,0
346081,-83.3333333333333,4,1,0,80,0,0
346354,-90.9090909090909,4,1,0,80,0,0
346627,-100,4,1,0,80,0,0
346899,-111.111111111111,4,1,0,80,0,0
347172,-76.9230769230769,4,1,0,80,0,0
347990,-86.9565217391304,4,1,0,80,0,0
348263,-100,4,1,0,80,0,0
350445,-90.9090909090909,4,1,0,80,0,0
350718,-100,4,1,0,80,0,0
350854,-90.9090909090909,4,1,0,80,0,0
351127,-92.5925925925926,4,1,0,80,0,0
351263,-94.3396226415094,4,1,0,80,0,0
351399,-96.1538461538461,4,1,0,80,0,0
351536,-83.3333333333333,4,1,0,80,0,0
351808,-100,4,1,0,80,0,0
352081,-102.040816326531,4,1,0,80,0,0
352218,-104.166666666667,4,1,0,80,0,0
352354,-106.382978723404,4,1,0,80,0,0
352490,-108.695652173913,4,1,0,80,0,0
352627,-76.9230769230769,4,1,0,80,0,0
352899,-83.3333333333333,4,1,0,80,0,0
353172,-100,4,1,0,80,0,0
353308,-104.166666666667,4,1,0,80,0,0
353445,-108.695652173913,4,1,0,80,0,0
353718,-83.3333333333333,4,1,0,80,0,0
353990,-100,4,1,0,80,0,0
354127,-102.040816326531,4,1,0,80,0,0
354263,-104.166666666667,4,1,0,80,0,0
354536,-106.382978723404,4,1,0,80,0,0
354808,-100,4,1,0,80,0,0
355081,-102.040816326531,4,1,0,80,0,0
355218,-104.166666666667,4,1,0,80,0,0
355354,-106.382978723404,4,1,0,80,0,0
355627,-108.695652173913,4,1,0,80,0,0
355763,-111.111111111111,4,1,0,80,0,0
355899,-100,4,1,0,80,0,0
356036,-102.040816326531,4,1,0,80,0,0
356172,-104.166666666667,4,1,0,80,0,0
356308,-106.382978723404,4,1,0,80,0,0
356377,-108.695652173913,4,1,0,80,0,0
356445,-111.111111111111,4,1,0,80,0,0
356581,-113.636363636364,4,1,0,80,0,0
356718,-116.279069767442,4,1,0,80,0,0
356854,-119.047619047619,4,1,0,80,0,0
356990,-100,4,1,0,80,0,0
358081,-100,4,1,0,80,0,1
375536,-100,4,1,0,80,0,0

[HitObjects]
265,257,39537,5,4,0:0:0:0:
265,257,40083,1,0,0:0:0:0:
265,257,40355,1,8,0:0:0:0:
292,308,41174,1,0,0:0:0:0:
292,308,41446,1,0,0:0:0:0:
307,320,41992,1,8,0:0:0:0:
307,320,42810,1,4,0:0:0:0:
307,320,43355,1,0,0:0:0:0:
307,320,43628,1,8,0:0:0:0:
236,169,44446,1,0,0:0:0:0:
258,216,44719,1,0,0:0:0:0:
303,313,45265,1,8,0:0:0:0:
257,213,45810,1,8,0:0:0:0:
273,259,46083,1,4,0:0:0:0:
273,259,46628,1,0,0:0:0:0:
273,259,46901,1,8,0:0:0:0:
273,259,47719,1,0,0:0:0:0:
273,259,47992,1,0,0:0:0:0:
273,259,48537,1,8,0:0:0:0:
273,259,49355,1,4,0:0:0:0:
273,259,49901,1,0,0:0:0:0:
273,259,50174,1,8,0:0:0:0:
273,259,50992,1,0,0:0:0:0:
273,259,51265,1,0,0:0:0:0:
273,259,51810,1,8,0:0:0:0:
273,259,52628,1,4,0:0:0:0:
273,259,52901,1,4,0:0:0:0:
273,259,53174,1,4,0:0:0:0:
273,259,53446,1,6,0:0:0:0:
273,259,54265,1,0,0:0:0:0:
273,259,54537,1,0,0:0:0:0:
273,259,55083,1,8,0:0:0:0:
273,259,55901,1,4,0:0:0:0:
273,259,56446,1,0,0:0:0:0:
273,259,56719,1,8,0:0:0:0:
273,259,57265,1,8,0:0:0:0:
273,259,57537,1,0,0:0:0:0:
273,259,57810,1,0,0:0:0:0:
273,259,58355,1,0,0:0:0:0:
273,259,58628,1,8,0:0:0:0:
273,259,58901,1,8,0:0:0:0:
273,259,59174,1,4,0:0:0:0:
273,259,59719,1,0,0:0:0:0:
273,259,59992,1,8,0:0:0:0:
329,351,60537,1,8,0:0:0:0:
273,259,60810,1,0,0:0:0:0:
273,259,61083,1,0,0:0:0:0:
273,259,61628,1,8,0:0:0:0:
341,337,62174,1,8,0:0:0:0:
273,259,62446,1,4,0:0:0:0:
273,259,62992,1,0,0:0:0:0:
273,259,63265,1,8,0:0:0:0:
328,350,63810,1,8,0:0:0:0:
273,259,64083,1,0,0:0:0:0:
273,259,64355,1,0,0:0:0:0:
273,259,64901,1,6,0:0:0:0:
273,259,65174,1,6,0:0:0:0:
273,259,65446,1,6,0:0:0:0:
300,303,65719,1,4,0:0:0:0:
300,303,65991,1,8,0:0:0:0:
300,303,66128,1,0,0:0:0:0:
300,303,66264,1,8,0:0:0:0:
300,303,66400,1,8,0:0:0:0:
300,303,66537,1,4,0:0:0:0:
192,274,66809,1,8,0:0:0:0:
297,302,66946,1,8,0:0:0:0:
290,300,67082,1,0,0:0:0:0:
286,299,67219,1,0,0:0:0:0:
289,300,67355,1,6,0:0:0:0:
297,302,67628,1,0,0:0:0:0:
290,322,67764,1,0,0:0:0:0:
297,302,67900,1,8,0:0:0:0:
290,322,68037,1,0,0:0:0:0:
290,322,68173,1,6,0:0:0:0:
290,322,68446,1,4,0:0:0:0:
290,322,68719,1,6,0:0:0:0:
290,322,68991,1,4,0:0:0:0:
290,322,69264,1,8,0:0:0:0:
290,322,69400,1,0,0:0:0:0:
290,322,69537,1,0,0:0:0:0:
290,322,69673,1,0,0:0:0:0:
290,322,69809,1,6,0:0:0:0:
290,322,70082,1,0,0:0:0:0:
290,322,70219,1,0,0:0:0:0:
290,322,70355,1,8,0:0:0:0:
290,322,70491,1,8,0:0:0:0:
290,322,70628,1,4,0:0:0:0:
290,322,70900,1,8,0:0:0:0:
290,322,71037,1,0,0:0:0:0:
290,322,71173,1,8,0:0:0:0:
290,322,71309,1,0,0:0:0:0:
290,322,71446,1,6,0:0:0:0:
290,322,71719,1,4,0:0:0:0:
290,322,71991,1,6,0:0:0:0:
290,322,72264,1,4,0:0:0:0:
290,322,72536,1,8,0:0:0:0:
290,322,72673,1,8,0:0:0:0:
290,322,72809,1,0,0:0:0:0:
290,322,72945,1,0,0:0:0:0:
290,322,73082,1,6,0:0:0:0:
290,322,73355,1,0,0:0:0:0:
290,322,73491,1,8,0:0:0:0:
290,322,73628,1,0,0:0:0:0:
290,322,73764,1,0,0:0:0:0:
290,322,73900,1,6,0:0:0:0:
290,322,74173,1,8,0:0:0:0:
290,322,74309,1,0,0:0:0:0:
290,322,74446,1,8,0:0:0:0:
290,322,74582,1,8,0:0:0:0:
290,322,74719,1,4,0:0:0:0:
290,322,74991,1,6,0:0:0:0:
290,322,75264,1,4,0:0:0:0:
290,322,75537,1,6,0:0:0:0:
290,322,76355,1,4,0:0:0:0:
290,322,77173,1,6,0:0:0:0:
290,322,77991,1,0,0:0:0:0:
290,322,78264,1,8,0:0:0:0:
290,322,78537,1,0,0:0:0:0:
277,350,78809,1,4,0:0:0:0:
296,297,79900,1,8,0:0:0:0:
296,297,80173,1,8,0:0:0:0:
296,297,80446,1,8,0:0:0:0:
296,297,80719,1,8,0:0:0:0:
279,302,80991,1,4,0:0:0:0:
279,302,82082,1,8,0:0:0:0:
279,302,82219,1,8,0:0:0:0:
279,302,83173,1,4,0:0:0:0:
279,302,84264,1,6,0:0:0:0:
279,302,84537,1,0,0:0:0:0:
279,302,84673,1,6,0:0:0:0:
279,302,84946,1,0,0:0:0:0:
279,302,85082,1,6,0:0:0:0:
279,302,85355,1,0,0:0:0:0:
279,302,85491,1,0,0:0:0:0:
355,372,85764,1,0,0:0:0:0:
317,337,85900,1,6,0:0:0:0:
148,182,86446,1,0,0:0:0:0:
186,217,86582,1,0,0:0:0:0:
272,296,86855,1,0,0:0:0:0:
310,330,86991,1,6,0:0:0:0:
143,182,87537,1,8,0:0:0:0:
218,249,87810,1,0,0:0:0:0:
261,287,87946,1,0,0:0:0:0:
261,287,88082,1,8,0:0:0:0:
261,287,88219,1,0,0:0:0:0:
261,287,88355,1,8,0:0:0:0:
261,287,88491,1,8,0:0:0:0:
261,287,88628,1,4,0:0:0:0:
261,287,88764,1,0,0:0:0:0:
261,287,88900,1,8,0:0:0:0:
261,287,88969,1,8,0:0:0:0:
261,287,89037,1,0,0:0:0:0:
261,287,89105,1,8,0:0:0:0:
261,287,89173,1,0,0:0:0:0:
261,287,89241,1,0,0:0:0:0:
261,287,89310,1,8,0:0:0:0:
261,287,89378,1,8,0:0:0:0:
261,287,89446,1,0,0:0:0:0:
261,287,89514,1,0,0:0:0:0:
261,287,89582,1,8,0:0:0:0:
261,287,89719,1,4,0:0:0:0:
261,287,89855,1,8,0:0:0:0:
261,287,89991,1,0,0:0:0:0:
261,287,90060,1,0,0:0:0:0:
261,287,90128,1,8,0:0:0:0:
261,287,90264,1,0,0:0:0:0:
261,287,90400,1,8,0:0:0:0:
261,287,90469,1,8,0:0:0:0:
261,287,90537,1,0,0:0:0:0:
261,287,90605,1,0,0:0:0:0:
261,287,90673,1,8,0:0:0:0:
261,287,90810,1,0,0:0:0:0:
261,287,90946,1,8,0:0:0:0:
261,287,91082,1,0,0:0:0:0:
261,287,91150,1,0,0:0:0:0:
261,287,91219,1,8,0:0:0:0:
261,287,91355,1,0,0:0:0:0:
261,287,91491,1,8,0:0:0:0:
261,287,91628,1,0,0:0:0:0:
261,287,91696,1,0,0:0:0:0:
287,292,91764,1,8,0:0:0:0:
261,287,91832,1,0,0:0:0:0:
261,287,91900,1,8,0:0:0:0:
287,292,91969,1,8,0:0:0:0:
261,287,92037,1,0,0:0:0:0:
287,292,92105,1,0,0:0:0:0:
261,287,92173,1,8,0:0:0:0:
261,287,92241,1,0,0:0:0:0:
261,287,92310,1,0,0:0:0:0:
287,292,92378,1,0,0:0:0:0:
287,292,92446,1,8,0:0:0:0:
287,292,92514,1,8,0:0:0:0:
287,292,92582,1,0,0:0:0:0:
287,292,92650,1,0,0:0:0:0:
287,292,92719,1,8,0:0:0:0:
287,292,92787,1,0,0:0:0:0:
287,292,92855,1,0,0:0:0:0:
287,292,92923,1,0,0:0:0:0:
287,292,92991,1,8,0:0:0:0:
287,292,93060,1,8,0:0:0:0:
287,292,93128,1,8,0:0:0:0:
287,292,93196,1,0,0:0:0:0:
287,292,93264,1,8,0:0:0:0:
287,292,93332,1,8,0:0:0:0:
287,292,93400,1,0,0:0:0:0:
287,292,93469,1,0,0:0:0:0:
287,292,93537,1,8,0:0:0:0:
287,292,93605,1,0,0:0:0:0:
287,292,93673,1,0,0:0:0:0:
287,292,93741,1,0,0:0:0:0:
287,292,93810,1,8,0:0:0:0:
287,292,93878,1,0,0:0:0:0:
287,292,93946,1,8,0:0:0:0:
287,292,94014,1,8,0:0:0:0:
287,292,94082,1,0,0:0:0:0:
237,288,94219,1,8,0:0:0:0:
284,291,94355,1,0,0:0:0:0:
256,289,94423,1,0,0:0:0:0:
256,289,94491,1,8,0:0:0:0:
284,291,94628,1,0,0:0:0:0:
284,291,94764,1,8,0:0:0:0:
284,291,94832,1,8,0:0:0:0:
284,291,94900,1,0,0:0:0:0:
284,291,94969,1,0,0:0:0:0:
284,291,95037,1,8,0:0:0:0:
284,291,95173,1,0,0:0:0:0:
284,291,95310,1,8,0:0:0:0:
256,289,95446,1,0,0:0:0:0:
256,289,95514,1,0,0:0:0:0:
284,291,95582,1,8,0:0:0:0:
284,291,95719,1,0,0:0:0:0:
284,291,95855,1,8,0:0:0:0:
284,291,95991,1,0,0:0:0:0:
284,291,96060,1,0,0:0:0:0:
284,291,96128,1,8,0:0:0:0:
284,291,96196,1,0,0:0:0:0:
284,291,96264,1,8,0:0:0:0:
284,291,96332,1,8,0:0:0:0:
284,291,96400,1,0,0:0:0:0:
284,291,96469,1,0,0:0:0:0:
284,291,96537,1,0,0:0:0:0:
284,291,96605,1,0,0:0:0:0:
284,291,96673,1,8,0:0:0:0:
284,291,96741,1,8,0:0:0:0:
284,291,96810,1,0,0:0:0:0:
284,291,96878,1,0,0:0:0:0:
284,291,96946,1,0,0:0:0:0:
284,291,97014,1,0,0:0:0:0:
284,291,97082,1,8,0:0:0:0:
284,291,97150,1,8,0:0:0:0:
284,291,97219,1,0,0:0:0:0:
284,291,97287,1,0,0:0:0:0:
271,294,97355,1,0,0:0:0:0:
284,291,97423,1,0,0:0:0:0:
284,291,97491,1,8,0:0:0:0:
284,291,97560,1,8,0:0:0:0:
315,294,97628,1,0,0:0:0:0:
315,294,97696,1,0,0:0:0:0:
315,294,97764,1,0,0:0:0:0:
315,294,97832,1,0,0:0:0:0:
315,294,97900,1,8,0:0:0:0:
315,294,97969,1,8,0:0:0:0:
315,294,98037,1,0,0:0:0:0:
315,294,98105,1,0,0:0:0:0:
315,294,98173,1,8,0:0:0:0:
290,307,98241,1,0,0:0:0:0:
315,294,98310,1,8,0:0:0:0:
315,294,98378,1,8,0:0:0:0:
315,294,98446,1,0,0:0:0:0:
315,294,98582,1,8,0:0:0:0:
315,294,98719,1,0,0:0:0:0:
315,294,98787,1,0,0:0:0:0:
315,294,98855,1,8,0:0:0:0:
315,294,98991,1,0,0:0:0:0:
315,294,99128,1,8,0:0:0:0:
315,294,99196,1,8,0:0:0:0:
315,294,99264,1,0,0:0:0:0:
315,294,99332,1,0,0:0:0:0:
315,294,99400,1,8,0:0:0:0:
315,294,99537,1,0,0:0:0:0:
315,294,99673,1,8,0:0:0:0:
315,294,99810,1,0,0:0:0:0:
315,294,99878,1,0,0:0:0:0:
315,294,99946,1,8,0:0:0:0:
315,294,100082,1,0,0:0:0:0:
315,294,100219,1,8,0:0:0:0:
261,287,100355,1,0,0:0:0:0:
261,287,100423,1,0,0:0:0:0:
287,292,100491,1,8,0:0:0:0:
261,287,100559,1,0,0:0:0:0:
261,287,100627,1,8,0:0:0:0:
287,292,100696,1,8,0:0:0:0:
261,287,100764,1,0,0:0:0:0:
287,292,100832,1,0,0:0:0:0:
261,287,100900,1,8,0:0:0:0:
261,287,100968,1,0,0:0:0:0:
261,287,101037,1,0,0:0:0:0:
287,292,101105,1,0,0:0:0:0:
287,292,101173,1,8,0:0:0:0:
287,292,101241,1,8,0:0:0:0:
287,292,101309,1,0,0:0:0:0:
287,292,101377,1,0,0:0:0:0:
287,292,101446,1,8,0:0:0:0:
287,292,101514,1,0,0:0:0:0:
287,292,101582,1,0,0:0:0:0:
287,292,101650,1,0,0:0:0:0:
287,292,101718,1,8,0:0:0:0:
287,292,101787,1,8,0:0:0:0:
287,292,101855,1,8,0:0:0:0:
287,292,101923,1,0,0:0:0:0:
287,292,101991,1,8,0:0:0:0:
287,292,102059,1,8,0:0:0:0:
287,292,102127,1,0,0:0:0:0:
287,292,102196,1,0,0:0:0:0:
287,292,102264,1,8,0:0:0:0:
287,292,102332,1,0,0:0:0:0:
287,292,102400,1,0,0:0:0:0:
287,292,102468,1,0,0:0:0:0:
287,292,102537,1,8,0:0:0:0:
287,292,102605,1,0,0:0:0:0:
287,292,102673,1,8,0:0:0:0:
287,292,102741,1,8,0:0:0:0:
287,292,102809,1,0,0:0:0:0:
291,346,102946,1,8,0:0:0:0:
288,299,103082,1,0,0:0:0:0:
289,321,103150,1,0,0:0:0:0:
289,321,103219,1,8,0:0:0:0:
289,321,103355,1,0,0:0:0:0:
289,321,103491,1,8,0:0:0:0:
289,321,103560,1,8,0:0:0:0:
289,321,103628,1,0,0:0:0:0:
289,321,103696,1,0,0:0:0:0:
289,321,103764,1,8,0:0:0:0:
289,321,103900,1,0,0:0:0:0:
289,321,104037,1,8,0:0:0:0:
289,321,104173,1,0,0:0:0:0:
289,321,104241,1,0,0:0:0:0:
289,321,104310,1,8,0:0:0:0:
289,321,104446,1,0,0:0:0:0:
289,321,104582,1,8,0:0:0:0:
289,321,104719,1,0,0:0:0:0:
289,321,104787,1,0,0:0:0:0:
289,321,104855,1,8,0:0:0:0:
289,321,104923,1,0,0:0:0:0:
289,321,104991,1,8,0:0:0:0:
289,321,105060,1,8,0:0:0:0:
289,321,105128,1,0,0:0:0:0:
289,321,105196,1,0,0:0:0:0:
289,321,105264,1,0,0:0:0:0:
289,321,105332,1,0,0:0:0:0:
289,321,105400,1,8,0:0:0:0:
289,321,105469,1,0,0:0:0:0:
289,321,105537,1,8,0:0:0:0:
289,321,105605,1,8,0:0:0:0:
289,321,105673,1,0,0:0:0:0:
289,321,105741,1,0,0:0:0:0:
289,321,105810,1,8,0:0:0:0:
289,321,105878,1,0,0:0:0:0:
289,321,105946,1,8,0:0:0:0:
289,321,106014,1,8,0:0:0:0:
289,321,106082,1,0,0:0:0:0:
289,321,106150,1,0,0:0:0:0:
289,321,106219,1,8,0:0:0:0:
289,321,106287,1,0,0:0:0:0:
289,321,106355,1,8,0:0:0:0:
289,321,106423,1,8,0:0:0:0:
269,318,106491,1,8,0:0:0:0:
313,307,106560,1,0,0:0:0:0:
313,307,106628,1,8,0:0:0:0:
269,318,106696,1,8,0:0:0:0:
269,318,106764,1,0,0:0:0:0:
313,307,106832,1,0,0:0:0:0:
313,307,106900,1,8,0:0:0:0:
313,307,106969,1,8,0:0:0:0:
289,321,107037,1,0,0:0:0:0:
269,318,107105,1,8,0:0:0:0:
289,321,107173,1,0,0:0:0:0:
289,321,107310,1,8,0:0:0:0:
307,367,107446,1,0,0:0:0:0:
307,367,107514,1,0,0:0:0:0:
307,367,107582,1,8,0:0:0:0:
307,367,107719,1,0,0:0:0:0:
313,307,107855,1,8,0:0:0:0:
269,318,107991,1,8,0:0:0:0:
313,307,108060,1,0,0:0:0:0:
313,307,108128,1,8,0:0:0:0:
313,307,108264,1,0,0:0:0:0:
313,307,108400,1,8,0:0:0:0:
313,307,108537,1,0,0:0:0:0:
313,307,108605,1,0,0:0:0:0:
313,307,108673,1,8,0:0:0:0:
313,307,108810,1,0,0:0:0:0:
313,307,108946,1,8,0:0:0:0:
313,307,109082,1,0,0:0:0:0:
313,307,109150,1,0,0:0:0:0:
313,307,109219,1,8,0:0:0:0:
307,325,109287,1,8,0:0:0:0:
295,364,109355,1,0,0:0:0:0:
284,314,109491,1,8,0:0:0:0:
284,314,109628,1,0,0:0:0:0:
284,314,109696,1,0,0:0:0:0:
284,314,109764,1,0,0:0:0:0:
284,314,109832,1,0,0:0:0:0:
284,314,109900,1,8,0:0:0:0:
284,314,109969,1,8,0:0:0:0:
284,314,110037,1,0,0:0:0:0:
284,314,110105,1,0,0:0:0:0:
284,314,110173,1,8,0:0:0:0:
284,314,110241,1,0,0:0:0:0:
284,314,110310,1,8,0:0:0:0:
284,314,110378,1,8,0:0:0:0:
284,314,110446,1,0,0:0:0:0:
284,314,110582,1,8,0:0:0:0:
284,314,110719,1,0,0:0:0:0:
284,314,110787,1,0,0:0:0:0:
284,314,110855,1,8,0:0:0:0:
284,314,110923,1,8,0:0:0:0:
284,314,110991,1,0,0:0:0:0:
284,314,111128,1,8,0:0:0:0:
284,314,111264,1,0,0:0:0:0:
284,314,111332,1,0,0:0:0:0:
284,314,111400,1,8,0:0:0:0:
284,314,111469,1,8,0:0:0:0:
284,314,111537,1,0,0:0:0:0:
284,314,111673,1,8,0:0:0:0:
317,275,111810,1,0,0:0:0:0:
302,293,111878,1,0,0:0:0:0:
302,293,111946,1,8,0:0:0:0:
302,293,112082,1,0,0:0:0:0:
302,293,112219,1,8,0:0:0:0:
299,294,112355,1,8,0:0:0:0:
302,293,112423,1,0,0:0:0:0:
302,293,112491,1,8,0:0:0:0:
302,293,112628,1,0,0:0:0:0:
254,280,112764,1,8,0:0:0:0:
254,280,112900,1,0,0:0:0:0:
254,280,112969,1,0,0:0:0:0:
254,280,113037,1,8,0:0:0:0:
254,280,113173,1,0,0:0:0:0:
254,280,113310,1,8,0:0:0:0:
254,280,113446,1,0,0:0:0:0:
254,280,113514,1,0,0:0:0:0:
254,280,113582,1,0,0:0:0:0:
254,280,113650,1,0,0:0:0:0:
254,280,113719,1,8,0:0:0:0:
277,286,113787,1,0,0:0:0:0:
254,280,113855,1,0,0:0:0:0:
254,280,113923,1,0,0:0:0:0:
254,280,113991,1,0,0:0:0:0:
254,280,114060,1,0,0:0:0:0:
277,286,114128,1,8,0:0:0:0:
277,286,114196,1,0,0:0:0:0:
254,280,114264,1,0,0:0:0:0:
254,280,114332,1,0,0:0:0:0:
254,280,114400,1,0,0:0:0:0:
254,280,114469,1,0,0:0:0:0:
254,280,114537,1,8,0:0:0:0:
277,286,114605,1,0,0:0:0:0:
254,280,114673,1,0,0:0:0:0:
254,280,114741,1,0,0:0:0:0:
254,280,114810,1,0,0:0:0:0:
254,280,114878,1,0,0:0:0:0:
254,280,114946,1,8,0:0:0:0:
277,286,115014,1,0,0:0:0:0:
254,280,115082,1,0,0:0:0:0:
254,280,115150,1,0,0:0:0:0:
254,280,115219,1,0,0:0:0:0:
254,280,115287,1,0,0:0:0:0:
254,280,115355,1,8,0:0:0:0:
259,302,115423,1,0,0:0:0:0:
254,280,115491,1,0,0:0:0:0:
254,280,115560,1,0,0:0:0:0:
254,280,115628,1,8,0:0:0:0:
259,302,115696,1,0,0:0:0:0:
254,280,115764,1,8,0:0:0:0:
254,280,115832,1,8,0:0:0:0:
254,280,115900,1,0,0:0:0:0:
236,329,116037,1,8,0:0:0:0:
236,329,116173,1,0,0:0:0:0:
236,329,116241,1,0,0:0:0:0:
236,329,116310,1,8,0:0:0:0:
259,302,116378,1,8,0:0:0:0:
259,302,116446,1,0,0:0:0:0:
259,302,116582,1,8,0:0:0:0:
259,302,116650,1,8,0:0:0:0:
259,302,116719,1,0,0:0:0:0:
259,302,116787,1,0,0:0:0:0:
259,302,116855,1,8,0:0:0:0:
259,302,116991,1,0,0:0:0:0:
238,302,117060,1,0,0:0:0:0:
259,302,117128,1,8,0:0:0:0:
259,302,117196,1,8,0:0:0:0:
259,302,117264,1,0,0:0:0:0:
259,302,117332,1,0,0:0:0:0:
259,302,117400,1,8,0:0:0:0:
259,302,117469,1,0,0:0:0:0:
259,302,117537,1,8,0:0:0:0:
259,302,117673,1,8,0:0:0:0:
259,302,117741,1,8,0:0:0:0:
259,302,117810,1,0,0:0:0:0:
259,302,117878,1,0,0:0:0:0:
259,302,117946,1,8,0:0:0:0:
259,302,118082,1,0,0:0:0:0:
214,315,118219,1,8,0:0:0:0:
214,315,118287,1,0,0:0:0:0:
259,302,118355,1,8,0:0:0:0:
259,302,118423,1,8,0:0:0:0:
259,302,118491,1,0,0:0:0:0:
259,302,118560,1,0,0:0:0:0:
259,302,118628,1,8,0:0:0:0:
259,302,118764,1,0,0:0:0:0:
259,302,118900,1,8,0:0:0:0:
259,302,118969,1,0,0:0:0:0:
259,302,119037,1,0,0:0:0:0:
259,302,119105,1,0,0:0:0:0:
259,302,119173,1,8,0:0:0:0:
259,302,119310,1,0,0:0:0:0:
252,280,119378,1,0,0:0:0:0:
259,302,119446,1,8,0:0:0:0:
259,302,119514,1,0,0:0:0:0:
259,302,119582,1,8,0:0:0:0:
259,302,119719,1,8,0:0:0:0:
259,302,119855,1,8,0:0:0:0:
259,302,119991,1,0,0:0:0:0:
259,302,120060,1,0,0:0:0:0:
259,302,120128,1,8,0:0:0:0:
259,302,120196,1,8,0:0:0:0:
259,302,120264,1,0,0:0:0:0:
259,302,120400,1,8,0:0:0:0:
259,302,120537,1,0,0:0:0:0:
259,302,120605,1,0,0:0:0:0:
259,302,120673,1,8,0:0:0:0:
259,302,120810,1,0,0:0:0:0:
259,302,120946,1,8,0:0:0:0:
259,302,121082,1,0,0:0:0:0:
259,302,121150,1,0,0:0:0:0:
259,302,121219,1,8,0:0:0:0:
259,302,121355,1,0,0:0:0:0:
259,302,121491,1,8,0:0:0:0:
259,302,121560,1,8,0:0:0:0:
259,302,121628,1,0,0:0:0:0:
259,302,121696,1,0,0:0:0:0:
259,302,121764,1,8,0:0:0:0:
259,302,121900,1,0,0:0:0:0:
259,302,121969,1,0,0:0:0:0:
259,302,122037,1,8,0:0:0:0:
259,302,122105,1,8,0:0:0:0:
259,302,122173,1,0,0:0:0:0:
259,302,122241,1,0,0:0:0:0:
259,302,122310,1,0,0:0:0:0:
259,302,122378,1,0,0:0:0:0:
259,302,122446,1,8,0:0:0:0:
277,302,122514,1,0,0:0:0:0:
277,302,122582,1,0,0:0:0:0:
277,302,122650,1,0,0:0:0:0:
277,302,122719,1,0,0:0:0:0:
277,302,122787,1,0,0:0:0:0:
277,302,122855,1,8,0:0:0:0:
277,302,122923,1,0,0:0:0:0:
277,302,122991,1,0,0:0:0:0:
277,302,123060,1,0,0:0:0:0:
277,302,123128,1,0,0:0:0:0:
277,302,123196,1,0,0:0:0:0:
277,302,123264,1,8,0:0:0:0:
277,302,123332,1,0,0:0:0:0:
277,302,123400,1,0,0:0:0:0:
277,302,123469,1,0,0:0:0:0:
277,302,123537,1,0,0:0:0:0:
277,302,123605,1,0,0:0:0:0:
277,302,123673,1,8,0:0:0:0:
277,302,123741,1,0,0:0:0:0:
277,302,123810,1,0,0:0:0:0:
277,302,123878,1,0,0:0:0:0:
277,302,123946,1,0,0:0:0:0:
277,302,124014,1,0,0:0:0:0:
277,302,124082,1,8,0:0:0:0:
277,302,124150,1,8,0:0:0:0:
277,302,124219,1,0,0:0:0:0:
277,302,124287,1,0,0:0:0:0:
277,302,124355,1,8,0:0:0:0:
277,302,124423,1,0,0:0:0:0:
277,302,124491,1,0,0:0:0:0:
277,302,124560,1,0,0:0:0:0:
277,302,124628,1,8,0:0:0:0:
288,352,124764,1,0,0:0:0:0:
288,288,124900,1,8,0:0:0:0:
288,320,124969,1,8,0:0:0:0:
288,320,125037,1,0,0:0:0:0:
288,320,125105,1,0,0:0:0:0:
288,320,125173,1,8,0:0:0:0:
288,320,125446,1,0,0:0:0:0:
288,320,125582,1,0,0:0:0:0:
288,320,125719,1,8,0:0:0:0:
288,320,125855,1,0,0:0:0:0:
288,320,125991,1,8,0:0:0:0:
288,320,126128,1,0,0:0:0:0:
288,320,126196,1,0,0:0:0:0:
288,320,126264,1,8,0:0:0:0:
288,320,126537,1,0,0:0:0:0:
288,320,126673,1,0,0:0:0:0:
288,320,126810,1,8,0:0:0:0:
288,320,126946,1,0,0:0:0:0:
288,352,127219,1,0,0:0:0:0:
288,352,127355,1,8,0:0:0:0:
288,352,127628,1,8,0:0:0:0:
288,352,127764,1,0,0:0:0:0:
288,352,127900,1,8,0:0:0:0:
288,352,128037,1,8,0:0:0:0:
288,352,128310,1,0,0:0:0:0:
288,352,128446,1,8,0:0:0:0:
288,352,128719,1,0,0:0:0:0:
288,352,128855,1,0,0:0:0:0:
288,352,128991,1,8,0:0:0:0:
288,352,129128,1,0,0:0:0:0:
288,352,129264,1,8,0:0:0:0:
288,352,129332,1,8,0:0:0:0:
288,352,129400,1,0,0:0:0:0:
288,320,129469,1,0,0:0:0:0:
288,352,129537,1,8,0:0:0:0:
352,288,129810,1,0,0:0:0:0:
320,320,129946,1,0,0:0:0:0:
320,320,130082,1,8,0:0:0:0:
320,320,130219,1,0,0:0:0:0:
320,320,130355,1,8,0:0:0:0:
320,320,130491,1,0,0:0:0:0:
320,320,130560,1,0,0:0:0:0:
320,320,130628,1,8,0:0:0:0:
320,320,130900,1,0,0:0:0:0:
320,320,131037,1,0,0:0:0:0:
320,320,131173,1,8,0:0:0:0:
320,320,131310,1,0,0:0:0:0:
320,320,131582,1,0,0:0:0:0:
320,320,131719,1,8,0:0:0:0:
224,256,131991,1,8,0:0:0:0:
288,288,132128,1,0,0:0:0:0:
288,288,132196,1,0,0:0:0:0:
288,288,132264,1,8,0:0:0:0:
64,320,132810,1,0,0:0:0:0:
96,320,132900,1,0,0:0:0:0:
128,320,132991,1,8,0:0:0:0:
160,320,133082,1,0,0:0:0:0:
192,320,133173,1,0,0:0:0:0:
224,288,133264,1,8,0:0:0:0:
256,288,133355,1,0,0:0:0:0:
256,288,133491,1,0,0:0:0:0:
256,288,133628,1,8,0:0:0:0:
256,256,133696,1,8,0:0:0:0:
224,256,133764,1,0,0:0:0:0:
256,256,133832,1,0,0:0:0:0:
256,256,133900,1,8,0:0:0:0:
256,256,134173,1,0,0:0:0:0:
256,256,134310,1,0,0:0:0:0:
256,256,134446,1,8,0:0:0:0:
256,256,134582,1,0,0:0:0:0:
256,256,134719,1,8,0:0:0:0:
256,256,134855,1,0,0:0:0:0:
256,256,134923,1,0,0:0:0:0:
256,256,134991,1,8,0:0:0:0:
288,352,135264,1,0,0:0:0:0:
256,320,135400,1,0,0:0:0:0:
256,320,135537,1,8,0:0:0:0:
256,320,135673,1,0,0:0:0:0:
256,320,135946,1,0,0:0:0:0:
256,320,136082,1,8,0:0:0:0:
256,320,136355,1,8,0:0:0:0:
256,320,136491,1,0,0:0:0:0:
256,320,136628,1,8,0:0:0:0:
256,320,136764,1,8,0:0:0:0:
256,320,137037,1,0,0:0:0:0:
256,320,137173,1,8,0:0:0:0:
256,320,137446,1,0,0:0:0:0:
256,320,137582,1,0,0:0:0:0:
256,320,137719,1,8,0:0:0:0:
256,320,137855,1,0,0:0:0:0:
256,320,137991,1,8,0:0:0:0:
256,320,138060,1,8,0:0:0:0:
256,320,138128,1,0,0:0:0:0:
256,320,138196,1,0,0:0:0:0:
256,320,138264,1,8,0:0:0:0:
256,320,138537,1,0,0:0:0:0:
256,320,138673,1,0,0:0:0:0:
256,320,138810,1,8,0:0:0:0:
256,320,138946,1,0,0:0:0:0:
256,320,139082,1,8,0:0:0:0:
256,320,139219,1,0,0:0:0:0:
256,320,139287,1,0,0:0:0:0:
256,320,139355,1,8,0:0:0:0:
256,320,139628,1,0,0:0:0:0:
256,320,139764,1,0,0:0:0:0:
256,320,139900,1,6,0:0:0:0:
256,320,140037,1,0,0:0:0:0:
256,320,140105,1,0,0:0:0:0:
256,320,140173,1,0,0:0:0:0:
256,320,140310,1,6,0:0:0:0:
256,320,140446,1,0,0:0:0:0:
224,320,140514,1,0,0:0:0:0:
256,320,140582,1,0,0:0:0:0:
256,320,140719,1,8,0:0:0:0:
256,320,140855,1,0,0:0:0:0:
256,320,140991,1,6,0:0:0:0:
256,320,141128,1,0,0:0:0:0:
224,320,141196,1,0,0:0:0:0:
256,320,141264,1,0,0:0:0:0:
256,320,141400,1,6,0:0:0:0:
256,320,141537,1,0,0:0:0:0:
224,320,141605,1,0,0:0:0:0:
256,320,141673,1,0,0:0:0:0:
256,320,141810,1,8,0:0:0:0:
256,320,141946,1,0,0:0:0:0:
256,320,142082,1,8,0:0:0:0:
256,320,142219,1,8,0:0:0:0:
256,320,142355,1,0,0:0:0:0:
256,320,142491,1,8,0:0:0:0:
256,320,142560,1,8,0:0:0:0:
256,320,142628,1,0,0:0:0:0:
256,320,142764,1,8,0:0:0:0:
256,320,142900,1,0,0:0:0:0:
256,320,142969,1,0,0:0:0:0:
256,320,143037,1,8,0:0:0:0:
256,320,143105,1,8,0:0:0:0:
256,320,143173,1,0,0:0:0:0:
256,320,143310,1,0,0:0:0:0:
256,320,143446,1,8,0:0:0:0:
256,320,143582,1,8,0:0:0:0:
256,320,143650,1,8,0:0:0:0:
256,320,143719,1,0,0:0:0:0:
256,320,143855,1,0,0:0:0:0:
256,320,143991,1,8,0:0:0:0:
256,320,144060,1,0,0:0:0:0:
256,320,144128,1,0,0:0:0:0:
256,320,144196,1,0,0:0:0:0:
256,320,144264,1,8,0:0:0:0:
288,352,144400,1,0,0:0:0:0:
320,320,144537,1,8,0:0:0:0:
320,320,144605,1,8,0:0:0:0:
320,320,144673,1,0,0:0:0:0:
320,320,144741,1,0,0:0:0:0:
320,320,144810,1,8,0:0:0:0:
320,320,144946,1,0,0:0:0:0:
320,320,145082,1,8,0:0:0:0:
320,320,145219,1,0,0:0:0:0:
320,320,145355,1,8,0:0:0:0:
320,320,145423,1,0,0:0:0:0:
320,320,145491,1,0,0:0:0:0:
320,320,145560,1,0,0:0:0:0:
320,320,145628,1,8,0:0:0:0:
320,320,145696,1,8,0:0:0:0:
320,320,145764,1,0,0:0:0:0:
320,320,145832,1,0,0:0:0:0:
320,320,145900,1,8,0:0:0:0:
320,320,145969,1,0,0:0:0:0:
320,320,146037,1,0,0:0:0:0:
320,320,146105,1,0,0:0:0:0:
320,320,146173,1,8,0:0:0:0:
288,320,146241,1,8,0:0:0:0:
288,320,146310,1,8,0:0:0:0:
288,320,146378,1,0,0:0:0:0:
288,320,146446,1,8,0:0:0:0:
288,320,146582,1,0,0:0:0:0:
288,320,146650,1,0,0:0:0:0:
288,320,146719,1,8,0:0:0:0:
288,320,146855,1,8,0:0:0:0:
288,320,146923,1,0,0:0:0:0:
288,320,146991,1,8,0:0:0:0:
288,320,147128,1,0,0:0:0:0:
288,320,147196,1,0,0:0:0:0:
288,320,147264,1,8,0:0:0:0:
288,320,147332,1,8,0:0:0:0:
288,320,147400,1,0,0:0:0:0:
288,320,147469,1,0,0:0:0:0:
288,320,147537,1,8,0:0:0:0:
320,320,147673,1,0,0:0:0:0:
288,320,147741,1,0,0:0:0:0:
288,288,147810,1,8,0:0:0:0:
288,320,147946,1,8,0:0:0:0:
288,320,148014,1,0,0:0:0:0:
288,320,148082,1,8,0:0:0:0:
320,320,148150,1,8,0:0:0:0:
320,320,148219,1,0,0:0:0:0:
288,320,148287,1,0,0:0:0:0:
288,320,148355,1,8,0:0:0:0:
288,320,148423,1,0,0:0:0:0:
288,320,148491,1,0,0:0:0:0:
288,320,148560,1,0,0:0:0:0:
288,320,148628,1,8,0:0:0:0:
224,288,148764,1,0,0:0:0:0:
224,288,148832,1,0,0:0:0:0:
224,288,148900,1,8,0:0:0:0:
224,288,148969,1,8,0:0:0:0:
224,288,149037,1,0,0:0:0:0:
224,288,149105,1,0,0:0:0:0:
224,288,149173,1,8,0:0:0:0:
224,288,149310,1,0,0:0:0:0:
224,288,149378,1,0,0:0:0:0:
224,288,149446,1,8,0:0:0:0:
224,288,149582,1,0,0:0:0:0:
256,288,149650,1,0,0:0:0:0:
224,288,149719,1,8,0:0:0:0:
224,288,149787,1,0,0:0:0:0:
224,288,149855,1,0,0:0:0:0:
224,288,149923,1,0,0:0:0:0:
224,288,149991,1,8,0:0:0:0:
224,288,150060,1,8,0:0:0:0:
224,288,150128,1,0,0:0:0:0:
224,288,150196,1,0,0:0:0:0:
224,288,150264,1,8,0:0:0:0:
224,288,150332,1,0,0:0:0:0:
224,288,150400,1,0,0:0:0:0:
224,288,150469,1,0,0:0:0:0:
224,288,150537,1,8,0:0:0:0:
224,288,150605,1,8,0:0:0:0:
224,288,150673,1,0,0:0:0:0:
224,288,150741,1,0,0:0:0:0:
224,288,150810,1,8,0:0:0:0:
256,320,150946,1,0,0:0:0:0:
224,320,151014,1,0,0:0:0:0:
224,320,151082,1,8,0:0:0:0:
224,320,151150,1,8,0:0:0:0:
224,320,151219,1,0,0:0:0:0:
224,320,151287,1,0,0:0:0:0:
224,320,151355,1,8,0:0:0:0:
224,320,151423,1,8,0:0:0:0:
224,320,151491,1,0,0:0:0:0:
224,320,151560,1,8,0:0:0:0:
224,320,151628,1,0,0:0:0:0:
224,320,151696,1,0,0:0:0:0:
224,320,151764,1,8,0:0:0:0:
224,320,151832,1,0,0:0:0:0:
224,320,151900,1,8,0:0:0:0:
224,320,151969,1,8,0:0:0:0:
224,320,152037,1,0,0:0:0:0:
224,320,152105,1,0,0:0:0:0:
224,320,152173,1,8,0:0:0:0:
224,320,152241,1,8,0:0:0:0:
224,320,152310,1,8,0:0:0:0:
224,320,152378,1,0,0:0:0:0:
224,320,152446,1,8,0:0:0:0:
224,320,152514,1,8,0:0:0:0:
224,320,152582,1,0,0:0:0:0:
224,320,152650,1,0,0:0:0:0:
224,320,152719,1,8,0:0:0:0:
224,320,152787,1,8,0:0:0:0:
224,320,152855,1,8,0:0:0:0:
224,320,152923,1,0,0:0:0:0:
224,320,152991,1,8,0:0:0:0:
224,320,153060,1,0,0:0:0:0:
224,320,153128,1,0,0:0:0:0:
224,320,153196,1,0,0:0:0:0:
224,320,153264,1,8,0:0:0:0:
224,320,153332,1,0,0:0:0:0:
224,320,153400,1,0,0:0:0:0:
224,320,153469,1,0,0:0:0:0:
224,320,153537,1,8,0:0:0:0:
224,320,153605,1,0,0:0:0:0:
224,320,153673,1,0,0:0:0:0:
224,320,153741,1,0,0:0:0:0:
224,320,153810,1,8,0:0:0:0:
224,320,153878,1,8,0:0:0:0:
224,320,153946,1,0,0:0:0:0:
224,320,154014,1,0,0:0:0:0:
224,320,154082,1,8,0:0:0:0:
224,320,154150,1,0,0:0:0:0:
224,320,154219,1,0,0:0:0:0:
224,320,154287,1,0,0:0:0:0:
224,320,154355,1,8,0:0:0:0:
224,288,154423,1,8,0:0:0:0:
224,256,154491,1,0,0:0:0:0:
224,288,154560,1,8,0:0:0:0:
224,192,154628,1,0,0:0:0:0:
224,224,154696,1,0,0:0:0:0:
224,256,154764,1,8,0:0:0:0:
224,288,154832,1,0,0:0:0:0:
224,288,154900,1,8,0:0:0:0:
224,288,154969,1,8,0:0:0:0:
224,288,155037,1,0,0:0:0:0:
224,288,155105,1,0,0:0:0:0:
256,288,155173,1,8,0:0:0:0:
288,320,155310,1,0,0:0:0:0:
320,320,155378,1,0,0:0:0:0:
320,320,155446,1,8,0:0:0:0:
288,320,155582,1,8,0:0:0:0:
288,320,155650,1,0,0:0:0:0:
288,320,155719,1,8,0:0:0:0:
288,320,155855,1,0,0:0:0:0:
288,320,155923,1,0,0:0:0:0:
288,320,155991,1,8,0:0:0:0:
288,320,156060,1,8,0:0:0:0:
288,320,156128,1,0,0:0:0:0:
288,320,156196,1,0,0:0:0:0:
288,320,156264,1,8,0:0:0:0:
288,320,156400,1,0,0:0:0:0:
288,288,156469,1,0,0:0:0:0:
288,320,156537,1,8,0:0:0:0:
288,320,156673,1,8,0:0:0:0:
288,320,156741,1,0,0:0:0:0:
288,320,156810,1,8,0:0:0:0:
288,320,156878,1,8,0:0:0:0:
288,320,156946,1,0,0:0:0:0:
288,320,157014,1,0,0:0:0:0:
288,320,157082,1,8,0:0:0:0:
288,320,157150,1,0,0:0:0:0:
288,320,157219,1,0,0:0:0:0:
288,320,157287,1,0,0:0:0:0:
288,320,157355,1,8,0:0:0:0:
288,320,157491,1,0,0:0:0:0:
288,320,157560,1,0,0:0:0:0:
288,320,157628,1,8,0:0:0:0:
288,320,157696,1,8,0:0:0:0:
288,320,157764,1,0,0:0:0:0:
288,320,157832,1,0,0:0:0:0:
288,320,157900,1,8,0:0:0:0:
288,320,158037,1,0,0:0:0:0:
288,320,158105,1,0,0:0:0:0:
288,320,158173,1,8,0:0:0:0:
288,320,158310,1,0,0:0:0:0:
288,320,158378,1,0,0:0:0:0:
288,320,158446,1,8,0:0:0:0:
288,320,158514,1,8,0:0:0:0:
288,320,158582,1,0,0:0:0:0:
288,320,158650,1,0,0:0:0:0:
288,320,158719,1,8,0:0:0:0:
288,320,158787,1,0,0:0:0:0:
288,320,158855,1,0,0:0:0:0:
288,320,158923,1,0,0:0:0:0:
288,320,158991,1,8,0:0:0:0:
288,320,159060,1,8,0:0:0:0:
288,320,159128,1,0,0:0:0:0:
288,320,159196,1,0,0:0:0:0:
288,320,159264,1,8,0:0:0:0:
288,320,159332,1,0,0:0:0:0:
288,320,159400,1,0,0:0:0:0:
288,320,159469,1,0,0:0:0:0:
288,320,159537,1,8,0:0:0:0:
288,320,159673,1,0,0:0:0:0:
288,320,159741,1,0,0:0:0:0:
288,320,159810,1,8,0:0:0:0:
288,320,159878,1,0,0:0:0:0:
288,320,159946,1,8,0:0:0:0:
288,320,160014,1,8,0:0:0:0:
288,320,160082,1,8,0:0:0:0:
288,320,160150,1,0,0:0:0:0:
288,320,160219,1,8,0:0:0:0:
288,320,160287,1,0,0:0:0:0:
288,320,160355,1,8,0:0:0:0:
288,320,160423,1,8,0:0:0:0:
288,320,160491,1,0,0:0:0:0:
288,320,160560,1,0,0:0:0:0:
288,320,160628,1,8,0:0:0:0:
288,320,160696,1,0,0:0:0:0:
288,320,160764,1,0,0:0:0:0:
288,320,160832,1,0,0:0:0:0:
288,320,160900,1,8,0:0:0:0:
288,320,160969,1,0,0:0:0:0:
288,320,161037,1,0,0:0:0:0:
288,320,161105,1,0,0:0:0:0:
288,320,161173,1,8,0:0:0:0:
288,320,161241,1,8,0:0:0:0:
288,320,161310,1,0,0:0:0:0:
288,320,161378,1,0,0:0:0:0:
288,320,161446,1,8,0:0:0:0:
288,320,161514,1,8,0:0:0:0:
288,320,161582,1,0,0:0:0:0:
288,320,161650,1,0,0:0:0:0:
288,288,161719,1,8,0:0:0:0:
288,288,161787,1,0,0:0:0:0:
320,288,161855,1,0,0:0:0:0:
288,288,161923,1,0,0:0:0:0:
288,288,161991,1,8,0:0:0:0:
288,288,162060,1,0,0:0:0:0:
288,288,162128,1,0,0:0:0:0:
288,288,162196,1,0,0:0:0:0:
288,288,162264,1,8,0:0:0:0:
288,288,162332,1,8,0:0:0:0:
288,288,162400,1,0,0:0:0:0:
288,288,162469,1,0,0:0:0:0:
288,288,162537,1,8,0:0:0:0:
288,288,162605,1,8,0:0:0:0:
288,288,162673,1,0,0:0:0:0:
288,288,162741,1,8,0:0:0:0:
288,288,162810,1,0,0:0:0:0:
288,288,162878,1,0,0:0:0:0:
288,288,162946,1,8,0:0:0:0:
288,288,163014,1,0,0:0:0:0:
288,288,163082,1,8,0:0:0:0:
288,288,163150,1,8,0:0:0:0:
288,288,163219,1,0,0:0:0:0:
288,288,163287,1,0,0:0:0:0:
320,320,163355,1,8,0:0:0:0:
320,288,163423,1,0,0:0:0:0:
320,320,163491,1,0,0:0:0:0:
320,320,163560,1,0,0:0:0:0:
320,320,163628,1,8,0:0:0:0:
320,320,163696,1,8,0:0:0:0:
288,288,163764,1,8,0:0:0:0:
288,320,163832,1,8,0:0:0:0:
261,287,163900,1,4,0:0:0:0:
288,352,164037,1,8,0:0:0:0:
261,287,164173,1,0,0:0:0:0:
261,287,164241,1,0,0:0:0:0:
261,287,164310,1,8,0:0:0:0:
261,287,164446,1,0,0:0:0:0:
261,287,164582,1,8,0:0:0:0:
261,287,164650,1,8,0:0:0:0:
261,287,164719,1,0,0:0:0:0:
261,287,164787,1,0,0:0:0:0:
261,287,164855,1,8,0:0:0:0:
261,287,164991,1,0,0:0:0:0:
261,287,165128,1,8,0:0:0:0:
261,287,165264,1,0,0:0:0:0:
261,287,165332,1,0,0:0:0:0:
261,287,165400,1,8,0:0:0:0:
261,287,165537,1,0,0:0:0:0:
261,287,165673,1,8,0:0:0:0:
261,287,165810,1,0,0:0:0:0:
261,287,165878,1,0,0:0:0:0:
287,292,165946,1,8,0:0:0:0:
261,287,166014,1,0,0:0:0:0:
261,287,166082,1,8,0:0:0:0:
287,292,166150,1,8,0:0:0:0:
261,287,166219,1,0,0:0:0:0:
287,292,166287,1,0,0:0:0:0:
261,287,166355,1,8,0:0:0:0:
261,287,166423,1,0,0:0:0:0:
261,287,166491,1,0,0:0:0:0:
287,292,166560,1,0,0:0:0:0:
287,292,166628,1,8,0:0:0:0:
287,292,166696,1,8,0:0:0:0:
287,292,166764,1,0,0:0:0:0:
287,292,166832,1,0,0:0:0:0:
287,292,166900,1,8,0:0:0:0:
287,292,166969,1,0,0:0:0:0:
287,292,167037,1,0,0:0:0:0:
287,292,167105,1,0,0:0:0:0:
287,292,167173,1,8,0:0:0:0:
287,292,167241,1,8,0:0:0:0:
287,292,167310,1,8,0:0:0:0:
287,292,167378,1,0,0:0:0:0:
287,292,167446,1,8,0:0:0:0:
287,292,167514,1,8,0:0:0:0:
287,292,167582,1,0,0:0:0:0:
287,292,167650,1,0,0:0:0:0:
287,292,167719,1,8,0:0:0:0:
287,292,167787,1,0,0:0:0:0:
287,292,167855,1,0,0:0:0:0:
287,292,167923,1,0,0:0:0:0:
287,292,167991,1,8,0:0:0:0:
287,292,168060,1,0,0:0:0:0:
287,292,168128,1,8,0:0:0:0:
287,292,168196,1,8,0:0:0:0:
287,292,168264,1,0,0:0:0:0:
237,288,168400,1,8,0:0:0:0:
284,291,168537,1,0,0:0:0:0:
256,289,168605,1,0,0:0:0:0:
256,289,168673,1,8,0:0:0:0:
284,291,168810,1,0,0:0:0:0:
284,291,168946,1,8,0:0:0:0:
284,291,169014,1,8,0:0:0:0:
284,291,169082,1,0,0:0:0:0:
284,291,169150,1,0,0:0:0:0:
284,291,169219,1,8,0:0:0:0:
284,291,169355,1,0,0:0:0:0:
284,291,169491,1,8,0:0:0:0:
256,289,169628,1,0,0:0:0:0:
256,289,169696,1,0,0:0:0:0:
284,291,169764,1,8,0:0:0:0:
284,291,169900,1,0,0:0:0:0:
284,291,170037,1,8,0:0:0:0:
284,291,170173,1,0,0:0:0:0:
284,291,170241,1,0,0:0:0:0:
284,291,170310,1,8,0:0:0:0:
284,291,170378,1,0,0:0:0:0:
284,291,170446,1,8,0:0:0:0:
284,291,170514,1,8,0:0:0:0:
284,291,170582,1,0,0:0:0:0:
284,291,170650,1,0,0:0:0:0:
284,291,170719,1,0,0:0:0:0:
284,291,170787,1,0,0:0:0:0:
284,291,170855,1,8,0:0:0:0:
284,291,170923,1,8,0:0:0:0:
284,291,170991,1,0,0:0:0:0:
284,291,171060,1,0,0:0:0:0:
284,291,171128,1,0,0:0:0:0:
284,291,171196,1,0,0:0:0:0:
284,291,171264,1,8,0:0:0:0:
284,291,171332,1,8,0:0:0:0:
284,291,171400,1,0,0:0:0:0:
284,291,171469,1,0,0:0:0:0:
271,294,171537,1,0,0:0:0:0:
284,291,171605,1,0,0:0:0:0:
284,291,171673,1,8,0:0:0:0:
284,291,171741,1,8,0:0:0:0:
315,294,171810,1,0,0:0:0:0:
315,294,171878,1,0,0:0:0:0:
315,294,171946,1,0,0:0:0:0:
315,294,172014,1,0,0:0:0:0:
315,294,172082,1,8,0:0:0:0:
315,294,172150,1,8,0:0:0:0:
315,294,172219,1,0,0:0:0:0:
315,294,172287,1,0,0:0:0:0:
315,294,172355,1,8,0:0:0:0:
290,307,172423,1,0,0:0:0:0:
315,294,172491,1,8,0:0:0:0:
315,294,172560,1,8,0:0:0:0:
315,294,172628,1,0,0:0:0:0:
315,294,172764,1,8,0:0:0:0:
315,294,172900,1,0,0:0:0:0:
315,294,172969,1,0,0:0:0:0:
315,294,173037,1,8,0:0:0:0:
315,294,173173,1,0,0:0:0:0:
315,294,173310,1,8,0:0:0:0:
315,294,173378,1,8,0:0:0:0:
315,294,173446,1,0,0:0:0:0:
315,294,173514,1,0,0:0:0:0:
315,294,173582,1,8,0:0:0:0:
315,294,173719,1,0,0:0:0:0:
315,294,173855,1,8,0:0:0:0:
315,294,173991,1,0,0:0:0:0:
315,294,174060,1,0,0:0:0:0:
315,294,174128,1,8,0:0:0:0:
315,294,174264,1,0,0:0:0:0:
315,294,174400,1,8,0:0:0:0:
261,287,174537,1,0,0:0:0:0:
261,287,174605,1,0,0:0:0:0:
287,292,174673,1,8,0:0:0:0:
261,287,174741,1,0,0:0:0:0:
261,287,174810,1,8,0:0:0:0:
287,292,174878,1,8,0:0:0:0:
261,287,174946,1,0,0:0:0:0:
287,292,175014,1,0,0:0:0:0:
261,287,175082,1,8,0:0:0:0:
261,287,175150,1,0,0:0:0:0:
261,287,175219,1,0,0:0:0:0:
287,292,175287,1,0,0:0:0:0:
287,292,175355,1,8,0:0:0:0:
287,292,175423,1,8,0:0:0:0:
287,292,175491,1,0,0:0:0:0:
287,292,175560,1,0,0:0:0:0:
287,292,175628,1,8,0:0:0:0:
287,292,175696,1,0,0:0:0:0:
287,292,175764,1,0,0:0:0:0:
287,292,175832,1,0,0:0:0:0:
287,292,175900,1,8,0:0:0:0:
287,292,175969,1,8,0:0:0:0:
287,292,176037,1,8,0:0:0:0:
287,292,176105,1,0,0:0:0:0:
287,292,176173,1,8,0:0:0:0:
287,292,176241,1,8,0:0:0:0:
287,292,176310,1,0,0:0:0:0:
287,292,176378,1,0,0:0:0:0:
287,292,176446,1,8,0:0:0:0:
287,292,176514,1,0,0:0:0:0:
287,292,176582,1,0,0:0:0:0:
287,292,176650,1,0,0:0:0:0:
287,292,176719,1,8,0:0:0:0:
287,292,176787,1,0,0:0:0:0:
287,292,176855,1,8,0:0:0:0:
287,292,176923,1,8,0:0:0:0:
287,292,176991,1,0,0:0:0:0:
291,346,177128,1,8,0:0:0:0:
288,299,177264,1,0,0:0:0:0:
289,321,177332,1,0,0:0:0:0:
289,321,177400,1,8,0:0:0:0:
289,321,177537,1,0,0:0:0:0:
289,321,177673,1,8,0:0:0:0:
289,321,177741,1,8,0:0:0:0:
289,321,177810,1,0,0:0:0:0:
289,321,177878,1,0,0:0:0:0:
289,321,177946,1,8,0:0:0:0:
289,321,178082,1,0,0:0:0:0:
289,321,178219,1,8,0:0:0:0:
289,321,178355,1,0,0:0:0:0:
289,321,178423,1,0,0:0:0:0:
289,321,178491,1,8,0:0:0:0:
289,321,178628,1,0,0:0:0:0:
289,321,178764,1,8,0:0:0:0:
289,321,178900,1,0,0:0:0:0:
289,321,178969,1,0,0:0:0:0:
289,321,179037,1,8,0:0:0:0:
289,321,179105,1,0,0:0:0:0:
289,321,179173,1,8,0:0:0:0:
289,321,179241,1,8,0:0:0:0:
289,321,179310,1,0,0:0:0:0:
289,321,179378,1,0,0:0:0:0:
289,321,179446,1,0,0:0:0:0:
289,321,179514,1,0,0:0:0:0:
289,321,179582,1,8,0:0:0:0:
289,321,179650,1,0,0:0:0:0:
289,321,179719,1,8,0:0:0:0:
289,321,179787,1,8,0:0:0:0:
289,321,179855,1,0,0:0:0:0:
289,321,179923,1,0,0:0:0:0:
289,321,179991,1,8,0:0:0:0:
289,321,180060,1,0,0:0:0:0:
289,321,180128,1,8,0:0:0:0:
289,321,180196,1,8,0:0:0:0:
289,321,180264,1,0,0:0:0:0:
289,321,180332,1,0,0:0:0:0:
289,321,180400,1,8,0:0:0:0:
289,321,180469,1,0,0:0:0:0:
289,321,180537,1,8,0:0:0:0:
289,321,180605,1,8,0:0:0:0:
269,318,180673,1,8,0:0:0:0:
313,307,180741,1,0,0:0:0:0:
313,307,180810,1,8,0:0:0:0:
269,318,180878,1,8,0:0:0:0:
269,318,180946,1,0,0:0:0:0:
313,307,181014,1,0,0:0:0:0:
313,307,181082,1,8,0:0:0:0:
313,307,181150,1,8,0:0:0:0:
289,321,181219,1,0,0:0:0:0:
269,318,181287,1,8,0:0:0:0:
289,321,181355,1,0,0:0:0:0:
289,321,181628,1,8,0:0:0:0:
289,321,181764,1,0,0:0:0:0:
289,321,181900,1,8,0:0:0:0:
313,307,182037,1,0,0:0:0:0:
313,307,182105,1,0,0:0:0:0:
313,307,182173,1,8,0:0:0:0:
313,307,182310,1,0,0:0:0:0:
313,307,182446,1,8,0:0:0:0:
288,288,182514,1,0,0:0:0:0:
288,288,182582,1,8,0:0:0:0:
288,288,182650,1,8,0:0:0:0:
288,288,182719,1,0,0:0:0:0:
288,288,182787,1,0,0:0:0:0:
288,288,182855,1,8,0:0:0:0:
288,288,182923,1,0,0:0:0:0:
313,307,182991,1,8,0:0:0:0:
335,301,183060,1,0,0:0:0:0:
313,307,183128,1,8,0:0:0:0:
313,307,183196,1,8,0:0:0:0:
313,307,183264,1,0,0:0:0:0:
322,310,183332,1,0,0:0:0:0:
320,310,183400,1,0,0:0:0:0:
339,330,183469,1,8,0:0:0:0:
364,328,183537,1,0,0:0:0:0:
335,301,183673,1,8,0:0:0:0:
364,328,183810,1,0,0:0:0:0:
364,328,183878,1,0,0:0:0:0:
364,328,183946,1,8,0:0:0:0:
335,301,184082,1,0,0:0:0:0:
313,307,184219,1,8,0:0:0:0:
313,307,184287,1,8,0:0:0:0:
322,310,184355,1,0,0:0:0:0:
320,310,184423,1,0,0:0:0:0:
335,301,184491,1,8,0:0:0:0:
335,301,184628,1,0,0:0:0:0:
335,301,184696,1,0,0:0:0:0:
335,301,184764,1,8,0:0:0:0:
335,301,184832,1,8,0:0:0:0:
335,301,184900,1,0,0:0:0:0:
335,301,184969,1,8,0:0:0:0:
335,301,185037,1,8,0:0:0:0:
335,301,185105,1,8,0:0:0:0:
313,307,185173,1,0,0:0:0:0:
313,307,185310,1,8,0:0:0:0:
322,310,185378,1,8,0:0:0:0:
320,310,185446,1,0,0:0:0:0:
335,301,185514,1,0,0:0:0:0:
335,301,185582,1,8,0:0:0:0:
335,301,185719,1,0,0:0:0:0:
335,301,185855,1,8,0:0:0:0:
335,301,185991,1,0,0:0:0:0:
335,301,186060,1,0,0:0:0:0:
313,307,186128,1,8,0:0:0:0:
346,343,186264,1,0,0:0:0:0:
346,343,186332,1,0,0:0:0:0:
346,343,186400,1,8,0:0:0:0:
346,343,186469,1,0,0:0:0:0:
346,343,186537,1,0,0:0:0:0:
346,343,186605,1,0,0:0:0:0:
346,343,186673,1,8,0:0:0:0:
346,343,186741,1,8,0:0:0:0:
346,343,186810,1,0,0:0:0:0:
336,324,186878,1,0,0:0:0:0:
346,343,186946,1,8,0:0:0:0:
346,343,187014,1,0,0:0:0:0:
346,343,187082,1,0,0:0:0:0:
346,343,187150,1,0,0:0:0:0:
346,343,187219,1,8,0:0:0:0:
330,321,187287,1,8,0:0:0:0:
346,343,187355,1,0,0:0:0:0:
346,343,187423,1,0,0:0:0:0:
346,343,187491,1,8,0:0:0:0:
346,343,187560,1,0,0:0:0:0:
338,336,187628,1,0,0:0:0:0:
317,316,187696,1,0,0:0:0:0:
346,343,187764,1,8,0:0:0:0:
346,343,187900,1,8,0:0:0:0:
346,343,187969,1,8,0:0:0:0:
346,343,188037,1,0,0:0:0:0:
346,343,188105,1,0,0:0:0:0:
346,343,188173,1,0,0:0:0:0:
346,343,188241,1,0,0:0:0:0:
346,343,188310,1,8,0:0:0:0:
346,343,188378,1,8,0:0:0:0:
346,343,188446,1,0,0:0:0:0:
346,343,188514,1,0,0:0:0:0:
346,343,188582,1,0,0:0:0:0:
346,343,188650,1,0,0:0:0:0:
346,343,188719,1,8,0:0:0:0:
346,343,188787,1,8,0:0:0:0:
346,343,188855,1,0,0:0:0:0:
346,343,188923,1,0,0:0:0:0:
346,343,188991,1,0,0:0:0:0:
346,343,189060,1,0,0:0:0:0:
346,343,189128,1,8,0:0:0:0:
346,343,189196,1,8,0:0:0:0:
346,343,189264,1,0,0:0:0:0:
346,343,189332,1,0,0:0:0:0:
346,343,189400,1,0,0:0:0:0:
346,343,189469,1,0,0:0:0:0:
346,343,189537,1,8,0:0:0:0:
346,343,189605,1,0,0:0:0:0:
346,343,189673,1,8,0:0:0:0:
346,343,189741,1,8,0:0:0:0:
346,343,189810,1,0,0:0:0:0:
346,343,189878,1,0,0:0:0:0:
346,343,189946,1,8,0:0:0:0:
346,343,190014,1,8,0:0:0:0:
346,343,190082,1,0,0:0:0:0:
386,308,190219,1,8,0:0:0:0:
351,338,190355,1,0,0:0:0:0:
370,322,190423,1,0,0:0:0:0:
370,322,190491,1,8,0:0:0:0:
370,322,190560,1,8,0:0:0:0:
370,322,190628,1,0,0:0:0:0:
370,322,190696,1,8,0:0:0:0:
370,322,190764,1,8,0:0:0:0:
370,322,190832,1,8,0:0:0:0:
370,322,190900,1,0,0:0:0:0:
370,322,190969,1,0,0:0:0:0:
370,322,191037,1,8,0:0:0:0:
370,322,191173,1,0,0:0:0:0:
370,322,191241,1,0,0:0:0:0:
370,322,191310,1,8,0:0:0:0:
370,322,191378,1,0,0:0:0:0:
370,322,191446,1,8,0:0:0:0:
370,322,191514,1,8,0:0:0:0:
370,322,191582,1,0,0:0:0:0:
370,322,191650,1,0,0:0:0:0:
370,322,191719,1,8,0:0:0:0:
370,322,191787,1,8,0:0:0:0:
370,322,191855,1,0,0:0:0:0:
370,322,191923,1,8,0:0:0:0:
370,322,191991,1,0,0:0:0:0:
370,322,192060,1,0,0:0:0:0:
370,322,192128,1,8,0:0:0:0:
370,322,192196,1,8,0:0:0:0:
370,322,192264,1,0,0:0:0:0:
370,322,192400,1,8,0:0:0:0:
370,322,192537,1,0,0:0:0:0:
370,322,192605,1,0,0:0:0:0:
370,322,192673,1,8,0:0:0:0:
370,322,192741,1,8,0:0:0:0:
370,322,192810,1,0,0:0:0:0:
370,322,192878,1,0,0:0:0:0:
370,322,192946,1,8,0:0:0:0:
370,322,193014,1,8,0:0:0:0:
370,322,193082,1,0,0:0:0:0:
370,322,193150,1,0,0:0:0:0:
370,322,193219,1,8,0:0:0:0:
370,322,193287,1,8,0:0:0:0:
367,319,193355,1,0,0:0:0:0:
358,308,193423,1,0,0:0:0:0:
370,322,193491,1,8,0:0:0:0:
355,310,193560,1,0,0:0:0:0:
370,322,193628,1,0,0:0:0:0:
370,322,193696,1,8,0:0:0:0:
370,322,193764,1,0,0:0:0:0:
370,322,193832,1,0,0:0:0:0:
370,322,193900,1,8,0:0:0:0:
370,322,193969,1,0,0:0:0:0:
370,322,194037,1,8,0:0:0:0:
370,322,194105,1,8,0:0:0:0:
370,322,194173,1,0,0:0:0:0:
370,322,194241,1,0,0:0:0:0:
370,322,194310,1,8,0:0:0:0:
370,322,194378,1,8,0:0:0:0:
370,322,194446,1,0,0:0:0:0:
370,322,194582,1,8,0:0:0:0:
370,322,194719,1,0,0:0:0:0:
370,322,194787,1,0,0:0:0:0:
370,322,194855,1,8,0:0:0:0:
353,314,194923,1,8,0:0:0:0:
370,322,194991,1,0,0:0:0:0:
366,320,195060,1,0,0:0:0:0:
370,322,195128,1,8,0:0:0:0:
351,313,195196,1,0,0:0:0:0:
370,322,195264,1,0,0:0:0:0:
370,322,195332,1,0,0:0:0:0:
370,322,195400,1,8,0:0:0:0:
353,308,195469,1,8,0:0:0:0:
370,322,195537,1,0,0:0:0:0:
370,322,195605,1,0,0:0:0:0:
370,322,195673,1,8,0:0:0:0:
347,311,195741,1,0,0:0:0:0:
370,322,195810,1,0,0:0:0:0:
370,322,195878,1,0,0:0:0:0:
370,322,195946,1,8,0:0:0:0:
346,311,196014,1,8,0:0:0:0:
377,310,196082,1,0,0:0:0:0:
377,310,196150,1,0,0:0:0:0:
377,310,196219,1,8,0:0:0:0:
351,305,196287,1,0,0:0:0:0:
377,310,196355,1,0,0:0:0:0:
360,287,196423,1,0,0:0:0:0:
360,287,196491,1,8,0:0:0:0:
377,310,196628,1,8,0:0:0:0:
360,287,196696,1,8,0:0:0:0:
360,287,196764,1,0,0:0:0:0:
360,287,196832,1,0,0:0:0:0:
360,287,196900,1,0,0:0:0:0:
360,287,196969,1,0,0:0:0:0:
360,287,197037,1,8,0:0:0:0:
360,287,197105,1,8,0:0:0:0:
360,287,197173,1,0,0:0:0:0:
360,287,197241,1,0,0:0:0:0:
360,287,197310,1,0,0:0:0:0:
360,287,197378,1,0,0:0:0:0:
360,287,197446,1,8,0:0:0:0:
360,287,197514,1,8,0:0:0:0:
360,287,197582,1,0,0:0:0:0:
360,287,197650,1,0,0:0:0:0:
360,287,197719,1,0,0:0:0:0:
360,287,197787,1,0,0:0:0:0:
360,287,197855,1,8,0:0:0:0:
360,287,197923,1,8,0:0:0:0:
360,287,197991,1,0,0:0:0:0:
360,287,198060,1,0,0:0:0:0:
360,287,198128,1,0,0:0:0:0:
360,287,198196,1,0,0:0:0:0:
360,287,198264,1,8,0:0:0:0:
360,287,198332,1,8,0:0:0:0:
360,287,198400,1,0,0:0:0:0:
360,287,198469,1,0,0:0:0:0:
360,287,198537,1,8,0:0:0:0:
360,287,198605,1,0,0:0:0:0:
360,287,198673,1,8,0:0:0:0:
360,287,198741,1,8,0:0:0:0:
360,287,198810,1,0,0:0:0:0:
360,287,198946,1,0,0:0:0:0:
360,287,199082,1,8,0:0:0:0:
360,287,199150,1,8,0:0:0:0:
360,287,199219,1,0,0:0:0:0:
360,287,199287,1,0,0:0:0:0:
360,287,199355,1,8,0:0:0:0:
360,287,199628,1,0,0:0:0:0:
360,287,199764,1,0,0:0:0:0:
360,287,199900,1,8,0:0:0:0:
330,254,200037,1,0,0:0:0:0:
330,254,200173,1,8,0:0:0:0:
330,254,200310,1,0,0:0:0:0:
341,268,200378,1,0,0:0:0:0:
330,254,200446,1,8,0:0:0:0:
341,268,200719,1,0,0:0:0:0:
341,268,200855,1,0,0:0:0:0:
341,268,200991,1,8,0:0:0:0:
341,268,201128,1,0,0:0:0:0:
341,268,201400,1,0,0:0:0:0:
341,268,201537,1,8,0:0:0:0:
341,268,201810,1,8,0:0:0:0:
341,268,201946,1,0,0:0:0:0:
341,268,202082,1,8,0:0:0:0:
341,268,202219,1,8,0:0:0:0:
341,268,202491,1,0,0:0:0:0:
341,268,202628,1,8,0:0:0:0:
341,268,202900,1,0,0:0:0:0:
341,268,203037,1,0,0:0:0:0:
341,268,203173,1,8,0:0:0:0:
341,268,203310,1,0,0:0:0:0:
341,268,203446,1,8,0:0:0:0:
346,233,203514,1,8,0:0:0:0:
341,268,203582,1,0,0:0:0:0:
341,268,203650,1,0,0:0:0:0:
341,268,203719,1,8,0:0:0:0:
238,294,203991,1,0,0:0:0:0:
287,281,204128,1,0,0:0:0:0:
343,269,204264,1,8,0:0:0:0:
294,279,204400,1,0,0:0:0:0:
294,279,204537,1,8,0:0:0:0:
294,279,204673,1,0,0:0:0:0:
294,279,204741,1,0,0:0:0:0:
294,279,204810,1,8,0:0:0:0:
294,279,205082,1,0,0:0:0:0:
294,279,205150,1,0,0:0:0:0:
294,279,205219,1,0,0:0:0:0:
294,279,205287,1,0,0:0:0:0:
294,279,205355,1,8,0:0:0:0:
294,279,205491,1,0,0:0:0:0:
294,279,205628,1,0,0:0:0:0:
294,279,205764,1,0,0:0:0:0:
294,279,205900,1,8,0:0:0:0:
340,313,206037,1,0,0:0:0:0:
340,313,206173,1,0,0:0:0:0:
294,279,206241,1,0,0:0:0:0:
340,313,206310,1,0,0:0:0:0:
340,313,206446,1,8,0:0:0:0:
236,120,206991,1,0,0:0:0:0:
251,149,207082,1,0,0:0:0:0:
265,175,207173,1,0,0:0:0:0:
280,202,207264,1,8,0:0:0:0:
295,230,207355,1,8,0:0:0:0:
309,256,207446,1,8,0:0:0:0:
309,256,207537,1,0,0:0:0:0:
297,298,207673,1,0,0:0:0:0:
283,348,207810,1,8,0:0:0:0:
288,330,207878,1,8,0:0:0:0:
288,330,207946,1,0,0:0:0:0:
288,330,208014,1,0,0:0:0:0:
288,330,208082,1,8,0:0:0:0:
181,309,208355,1,0,0:0:0:0:
232,319,208491,1,0,0:0:0:0:
282,329,208628,1,8,0:0:0:0:
282,329,208764,1,0,0:0:0:0:
282,329,208900,1,8,0:0:0:0:
282,329,209037,1,0,0:0:0:0:
282,329,209105,1,0,0:0:0:0:
282,329,209173,1,8,0:0:0:0:
282,329,209446,1,0,0:0:0:0:
282,329,209582,1,0,0:0:0:0:
282,329,209719,1,8,0:0:0:0:
282,329,209855,1,0,0:0:0:0:
282,329,210128,1,0,0:0:0:0:
282,329,210264,1,8,0:0:0:0:
316,222,210537,1,8,0:0:0:0:
282,329,210673,1,0,0:0:0:0:
282,329,210810,1,8,0:0:0:0:
299,275,210946,1,8,0:0:0:0:
282,329,211219,1,0,0:0:0:0:
282,329,211355,1,8,0:0:0:0:
282,329,211628,1,0,0:0:0:0:
282,329,211764,1,0,0:0:0:0:
282,329,211900,1,8,0:0:0:0:
282,329,212037,1,0,0:0:0:0:
282,329,212173,1,8,0:0:0:0:
282,329,212241,1,8,0:0:0:0:
282,329,212310,1,0,0:0:0:0:
282,329,212378,1,0,0:0:0:0:
282,329,212446,1,8,0:0:0:0:
282,329,212719,1,0,0:0:0:0:
282,329,212855,1,0,0:0:0:0:
282,329,212991,1,8,0:0:0:0:
282,329,213128,1,0,0:0:0:0:
282,329,213264,1,8,0:0:0:0:
282,329,213400,1,0,0:0:0:0:
282,329,213469,1,0,0:0:0:0:
282,329,213537,1,8,0:0:0:0:
282,329,213810,1,0,0:0:0:0:
282,329,213946,1,0,0:0:0:0:
256,288,214082,1,6,0:0:0:0:
256,320,214219,1,0,0:0:0:0:
256,320,214287,1,0,0:0:0:0:
256,320,214355,1,0,0:0:0:0:
224,256,214491,1,6,0:0:0:0:
256,320,214628,1,0,0:0:0:0:
224,320,214696,1,0,0:0:0:0:
256,320,214764,1,0,0:0:0:0:
256,320,214901,1,8,0:0:0:0:
256,320,215037,1,0,0:0:0:0:
256,256,215173,1,6,0:0:0:0:
256,320,215310,1,0,0:0:0:0:
224,320,215378,1,0,0:0:0:0:
256,320,215446,1,0,0:0:0:0:
224,288,215582,1,6,0:0:0:0:
256,320,215719,1,0,0:0:0:0:
224,320,215787,1,0,0:0:0:0:
256,320,215855,1,0,0:0:0:0:
256,320,215992,1,8,0:0:0:0:
256,320,216128,1,0,0:0:0:0:
256,320,216264,1,8,0:0:0:0:
256,320,216401,1,8,0:0:0:0:
256,320,216537,1,0,0:0:0:0:
256,320,216673,1,8,0:0:0:0:
256,320,216742,1,8,0:0:0:0:
256,320,216810,1,0,0:0:0:0:
256,320,216946,1,8,0:0:0:0:
256,320,217082,1,0,0:0:0:0:
256,320,217151,1,0,0:0:0:0:
256,320,217219,1,8,0:0:0:0:
256,320,217287,1,8,0:0:0:0:
256,320,217355,1,0,0:0:0:0:
256,320,217492,1,0,0:0:0:0:
256,320,217628,1,8,0:0:0:0:
256,320,217764,1,8,0:0:0:0:
256,320,217832,1,8,0:0:0:0:
256,320,217901,1,0,0:0:0:0:
256,320,218037,1,0,0:0:0:0:
256,320,218173,1,8,0:0:0:0:
256,320,218242,1,0,0:0:0:0:
256,320,218310,1,0,0:0:0:0:
256,320,218378,1,0,0:0:0:0:
256,320,218446,1,8,0:0:0:0:
288,352,218582,1,0,0:0:0:0:
320,320,218719,1,8,0:0:0:0:
320,320,218787,1,8,0:0:0:0:
320,320,218855,1,0,0:0:0:0:
320,320,218923,1,0,0:0:0:0:
320,320,218992,1,8,0:0:0:0:
320,320,219128,1,0,0:0:0:0:
320,320,219264,1,8,0:0:0:0:
320,320,219401,1,0,0:0:0:0:
320,320,219537,1,8,0:0:0:0:
320,320,219605,1,0,0:0:0:0:
320,320,219673,1,0,0:0:0:0:
320,320,219742,1,0,0:0:0:0:
320,320,219810,1,8,0:0:0:0:
320,320,219878,1,8,0:0:0:0:
320,320,219946,1,0,0:0:0:0:
320,320,220014,1,0,0:0:0:0:
320,320,220082,1,8,0:0:0:0:
320,320,220151,1,0,0:0:0:0:
320,320,220219,1,0,0:0:0:0:
320,320,220287,1,0,0:0:0:0:
320,320,220355,1,8,0:0:0:0:
288,320,220423,1,8,0:0:0:0:
288,320,220492,1,8,0:0:0:0:
288,320,220560,1,0,0:0:0:0:
321,319,220628,1,8,0:0:0:0:
288,320,220764,1,0,0:0:0:0:
288,320,220832,1,0,0:0:0:0:
288,320,220901,1,8,0:0:0:0:
288,320,221037,1,8,0:0:0:0:
288,320,221105,1,0,0:0:0:0:
288,320,221173,1,8,0:0:0:0:
288,320,221310,1,0,0:0:0:0:
288,320,221378,1,0,0:0:0:0:
288,320,221446,1,8,0:0:0:0:
288,320,221514,1,8,0:0:0:0:
288,320,221582,1,0,0:0:0:0:
288,320,221651,1,0,0:0:0:0:
288,320,221719,1,8,0:0:0:0:
320,320,221855,1,0,0:0:0:0:
288,320,221923,1,0,0:0:0:0:
288,288,221992,1,8,0:0:0:0:
288,320,222128,1,8,0:0:0:0:
288,320,222196,1,0,0:0:0:0:
288,320,222264,1,8,0:0:0:0:
320,320,222332,1,8,0:0:0:0:
320,320,222401,1,0,0:0:0:0:
288,320,222469,1,0,0:0:0:0:
288,320,222537,1,8,0:0:0:0:
288,320,222605,1,0,0:0:0:0:
288,320,222673,1,0,0:0:0:0:
288,320,222742,1,0,0:0:0:0:
288,320,222810,1,8,0:0:0:0:
224,288,222946,1,0,0:0:0:0:
224,288,223014,1,0,0:0:0:0:
224,288,223082,1,8,0:0:0:0:
224,288,223151,1,8,0:0:0:0:
224,288,223219,1,0,0:0:0:0:
224,288,223287,1,0,0:0:0:0:
224,288,223355,1,8,0:0:0:0:
224,288,223492,1,0,0:0:0:0:
224,288,223560,1,0,0:0:0:0:
224,288,223628,1,8,0:0:0:0:
224,288,223764,1,0,0:0:0:0:
256,288,223832,1,0,0:0:0:0:
224,288,223901,1,8,0:0:0:0:
224,288,223969,1,0,0:0:0:0:
224,288,224037,1,0,0:0:0:0:
224,288,224105,1,0,0:0:0:0:
224,288,224173,1,8,0:0:0:0:
224,288,224242,1,8,0:0:0:0:
224,288,224310,1,0,0:0:0:0:
224,288,224378,1,0,0:0:0:0:
224,288,224446,1,8,0:0:0:0:
224,288,224514,1,0,0:0:0:0:
224,288,224582,1,0,0:0:0:0:
224,288,224651,1,0,0:0:0:0:
224,288,224719,1,8,0:0:0:0:
224,288,224787,1,8,0:0:0:0:
224,288,224855,1,0,0:0:0:0:
224,288,224923,1,0,0:0:0:0:
224,288,224992,1,8,0:0:0:0:
256,320,225128,1,0,0:0:0:0:
224,320,225196,1,0,0:0:0:0:
224,320,225264,1,8,0:0:0:0:
224,320,225332,1,8,0:0:0:0:
224,320,225401,1,0,0:0:0:0:
224,320,225469,1,0,0:0:0:0:
224,320,225537,1,8,0:0:0:0:
224,320,225605,1,8,0:0:0:0:
224,320,225673,1,0,0:0:0:0:
224,320,225742,1,8,0:0:0:0:
224,320,225810,1,0,0:0:0:0:
224,320,225878,1,0,0:0:0:0:
224,320,225946,1,8,0:0:0:0:
224,320,226014,1,0,0:0:0:0:
224,320,226082,1,8,0:0:0:0:
224,320,226151,1,8,0:0:0:0:
224,320,226219,1,0,0:0:0:0:
224,320,226287,1,0,0:0:0:0:
224,320,226355,1,8,0:0:0:0:
224,320,226423,1,8,0:0:0:0:
224,320,226492,1,8,0:0:0:0:
224,320,226560,1,0,0:0:0:0:
224,320,226628,1,8,0:0:0:0:
224,320,226696,1,8,0:0:0:0:
224,320,226764,1,0,0:0:0:0:
224,320,226832,1,0,0:0:0:0:
224,320,226901,1,8,0:0:0:0:
224,320,226969,1,8,0:0:0:0:
224,320,227037,1,8,0:0:0:0:
224,320,227105,1,0,0:0:0:0:
224,320,227173,1,8,0:0:0:0:
224,320,227242,1,0,0:0:0:0:
224,320,227310,1,0,0:0:0:0:
224,320,227378,1,0,0:0:0:0:
224,320,227446,1,8,0:0:0:0:
224,320,227514,1,0,0:0:0:0:
224,320,227582,1,0,0:0:0:0:
224,320,227651,1,0,0:0:0:0:
224,320,227719,1,8,0:0:0:0:
224,320,227787,1,0,0:0:0:0:
224,320,227855,1,0,0:0:0:0:
224,320,227923,1,0,0:0:0:0:
224,320,227992,1,8,0:0:0:0:
224,320,228060,1,8,0:0:0:0:
224,320,228128,1,0,0:0:0:0:
224,320,228196,1,0,0:0:0:0:
224,320,228264,1,8,0:0:0:0:
224,320,228332,1,0,0:0:0:0:
224,320,228401,1,0,0:0:0:0:
224,320,228469,1,0,0:0:0:0:
224,320,228537,1,8,0:0:0:0:
224,288,228605,1,8,0:0:0:0:
224,256,228673,1,0,0:0:0:0:
224,288,228742,1,8,0:0:0:0:
224,192,228810,1,0,0:0:0:0:
224,224,228878,1,0,0:0:0:0:
224,256,228946,1,8,0:0:0:0:
224,288,229014,1,0,0:0:0:0:
224,288,229082,1,8,0:0:0:0:
224,288,229151,1,8,0:0:0:0:
224,288,229219,1,0,0:0:0:0:
224,288,229287,1,0,0:0:0:0:
256,288,229355,1,8,0:0:0:0:
288,320,229492,1,0,0:0:0:0:
320,320,229560,1,0,0:0:0:0:
320,320,229628,1,8,0:0:0:0:
288,320,229764,1,8,0:0:0:0:
288,320,229832,1,0,0:0:0:0:
288,320,229901,1,8,0:0:0:0:
288,320,230037,1,0,0:0:0:0:
288,320,230105,1,0,0:0:0:0:
288,320,230173,1,8,0:0:0:0:
288,320,230242,1,8,0:0:0:0:
288,320,230310,1,0,0:0:0:0:
288,320,230378,1,0,0:0:0:0:
288,320,230446,1,8,0:0:0:0:
288,320,230582,1,0,0:0:0:0:
288,288,230651,1,0,0:0:0:0:
288,320,230719,1,8,0:0:0:0:
288,320,230855,1,8,0:0:0:0:
288,320,230923,1,0,0:0:0:0:
288,320,230992,1,8,0:0:0:0:
288,320,231060,1,8,0:0:0:0:
288,320,231128,1,0,0:0:0:0:
288,320,231196,1,0,0:0:0:0:
288,320,231264,1,8,0:0:0:0:
288,320,231332,1,0,0:0:0:0:
288,320,231401,1,0,0:0:0:0:
288,320,231469,1,0,0:0:0:0:
288,320,231537,1,8,0:0:0:0:
288,320,231673,1,0,0:0:0:0:
288,320,231742,1,0,0:0:0:0:
288,320,231810,1,8,0:0:0:0:
288,320,231878,1,8,0:0:0:0:
288,320,231946,1,0,0:0:0:0:
288,320,232014,1,0,0:0:0:0:
288,320,232082,1,8,0:0:0:0:
288,320,232219,1,0,0:0:0:0:
288,320,232287,1,0,0:0:0:0:
288,320,232355,1,8,0:0:0:0:
288,320,232492,1,0,0:0:0:0:
288,320,232560,1,0,0:0:0:0:
288,320,232628,1,8,0:0:0:0:
288,320,232696,1,8,0:0:0:0:
288,320,232764,1,0,0:0:0:0:
288,320,232832,1,0,0:0:0:0:
288,320,232901,1,8,0:0:0:0:
288,320,232969,1,0,0:0:0:0:
288,320,233037,1,0,0:0:0:0:
288,320,233105,1,0,0:0:0:0:
288,320,233173,1,8,0:0:0:0:
288,320,233242,1,8,0:0:0:0:
288,320,233310,1,0,0:0:0:0:
288,320,233378,1,0,0:0:0:0:
288,320,233446,1,8,0:0:0:0:
288,320,233514,1,0,0:0:0:0:
288,320,233582,1,0,0:0:0:0:
288,320,233651,1,0,0:0:0:0:
288,320,233719,1,8,0:0:0:0:
288,320,233855,1,0,0:0:0:0:
288,320,233923,1,0,0:0:0:0:
288,320,233992,1,8,0:0:0:0:
288,320,234060,1,0,0:0:0:0:
288,320,234128,1,8,0:0:0:0:
288,320,234196,1,8,0:0:0:0:
288,320,234264,1,8,0:0:0:0:
288,320,234332,1,0,0:0:0:0:
288,320,234401,1,8,0:0:0:0:
288,320,234469,1,0,0:0:0:0:
288,320,234537,1,8,0:0:0:0:
288,320,234605,1,8,0:0:0:0:
288,320,234673,1,0,0:0:0:0:
288,320,234742,1,0,0:0:0:0:
288,320,234810,1,8,0:0:0:0:
288,320,234878,1,0,0:0:0:0:
288,320,234946,1,0,0:0:0:0:
288,320,235014,1,0,0:0:0:0:
288,320,235082,1,8,0:0:0:0:
288,320,235151,1,0,0:0:0:0:
288,320,235219,1,0,0:0:0:0:
288,320,235287,1,0,0:0:0:0:
288,320,235355,1,8,0:0:0:0:
288,320,235423,1,8,0:0:0:0:
288,320,235492,1,0,0:0:0:0:
288,320,235560,1,0,0:0:0:0:
288,320,235628,1,8,0:0:0:0:
288,320,235696,1,8,0:0:0:0:
288,320,235764,1,0,0:0:0:0:
288,320,235832,1,0,0:0:0:0:
288,288,235901,1,8,0:0:0:0:
288,288,235969,1,0,0:0:0:0:
320,288,236037,1,0,0:0:0:0:
288,288,236105,1,0,0:0:0:0:
288,288,236173,1,8,0:0:0:0:
288,288,236242,1,0,0:0:0:0:
288,288,236310,1,0,0:0:0:0:
288,288,236378,1,0,0:0:0:0:
288,288,236446,1,8,0:0:0:0:
288,288,236514,1,8,0:0:0:0:
288,288,236582,1,0,0:0:0:0:
288,288,236651,1,0,0:0:0:0:
288,288,236719,1,8,0:0:0:0:
288,288,236787,1,8,0:0:0:0:
288,288,236855,1,0,0:0:0:0:
288,288,236923,1,8,0:0:0:0:
288,288,236992,1,0,0:0:0:0:
288,288,237060,1,0,0:0:0:0:
288,288,237128,1,8,0:0:0:0:
288,288,237196,1,0,0:0:0:0:
288,288,237264,1,8,0:0:0:0:
288,288,237332,1,8,0:0:0:0:
288,288,237401,1,0,0:0:0:0:
288,288,237469,1,0,0:0:0:0:
320,320,237537,1,8,0:0:0:0:
320,288,237605,1,0,0:0:0:0:
320,320,237673,1,0,0:0:0:0:
320,320,237742,1,0,0:0:0:0:
320,320,237810,1,8,0:0:0:0:
320,320,237878,1,8,0:0:0:0:
288,288,237946,1,8,0:0:0:0:
288,320,238014,1,8,0:0:0:0:
261,287,238082,1,4,0:0:0:0:
261,287,238354,1,0,0:0:0:0:
261,287,238627,1,0,0:0:0:0:
261,287,238900,1,0,0:0:0:0:
261,287,239172,1,0,0:0:0:0:
261,287,239445,1,0,0:0:0:0:
261,287,239718,1,6,0:0:0:0:
261,287,239991,1,0,0:0:0:0:
261,287,240263,1,0,0:0:0:0:
238,309,240354,1,8,0:0:0:0:
238,309,240445,1,8,0:0:0:0:
261,287,240536,1,0,0:0:0:0:
206,279,240672,1,8,0:0:0:0:
255,286,240809,1,0,0:0:0:0:
204,279,240945,1,8,0:0:0:0:
257,286,241082,1,0,0:0:0:0:
202,279,241218,1,0,0:0:0:0:
257,280,241354,1,6,0:0:0:0:
255,286,241627,1,0,0:0:0:0:
257,286,241900,1,0,0:0:0:0:
257,286,242036,1,8,0:0:0:0:
257,280,242172,1,8,0:0:0:0:
257,280,242309,1,0,0:0:0:0:
257,280,242377,1,0,0:0:0:0:
255,286,242445,1,8,0:0:0:0:
255,286,242582,1,0,0:0:0:0:
255,286,242650,1,0,0:0:0:0:
257,286,242718,1,8,0:0:0:0:
257,286,242786,1,8,0:0:0:0:
257,286,242854,1,0,0:0:0:0:
257,286,242991,1,6,0:0:0:0:
277,177,243263,1,4,0:0:0:0:
256,291,243536,1,6,0:0:0:0:
257,286,243809,1,8,0:0:0:0:
271,285,243877,1,0,0:0:0:0:
271,285,243945,1,8,0:0:0:0:
256,291,244013,1,8,0:0:0:0:
271,285,244082,1,0,0:0:0:0:
256,291,244150,1,0,0:0:0:0:
256,291,244218,1,8,0:0:0:0:
256,291,244286,1,0,0:0:0:0:
256,291,244354,1,8,0:0:0:0:
256,291,244422,1,8,0:0:0:0:
257,286,244491,1,0,0:0:0:0:
257,286,244559,1,0,0:0:0:0:
257,286,244627,1,8,0:0:0:0:
271,309,244763,1,0,0:0:0:0:
271,309,245036,1,0,0:0:0:0:
271,309,245309,1,0,0:0:0:0:
226,296,245445,1,8,0:0:0:0:
271,309,245854,1,0,0:0:0:0:
271,309,245991,1,8,0:0:0:0:
271,309,246127,1,8,0:0:0:0:
271,309,246263,1,0,0:0:0:0:
271,309,246400,1,0,0:0:0:0:
271,309,246672,1,0,0:0:0:0:
271,309,246945,1,0,0:0:0:0:
271,309,247013,1,0,0:0:0:0:
271,309,247082,1,8,0:0:0:0:
271,309,247491,1,0,0:0:0:0:
271,309,247627,1,8,0:0:0:0:
271,309,247763,1,8,0:0:0:0:
271,309,247900,1,0,0:0:0:0:
271,309,248036,1,0,0:0:0:0:
271,309,248309,1,0,0:0:0:0:
271,309,248582,1,0,0:0:0:0:
271,309,248718,1,8,0:0:0:0:
271,309,249127,1,0,0:0:0:0:
271,309,249263,1,8,0:0:0:0:
271,309,249400,1,8,0:0:0:0:
271,309,249536,1,0,0:0:0:0:
271,309,249672,1,0,0:0:0:0:
271,309,249945,1,0,0:0:0:0:
271,309,250218,1,0,0:0:0:0:
250,321,250286,1,0,0:0:0:0:
231,329,250354,1,8,0:0:0:0:
188,272,250536,1,8,0:0:0:0:
231,329,250627,1,8,0:0:0:0:
251,283,250763,1,0,0:0:0:0:
251,283,250900,1,8,0:0:0:0:
251,283,251036,1,8,0:0:0:0:
251,283,251172,1,0,0:0:0:0:
251,283,251309,1,0,0:0:0:0:
251,283,251582,1,0,0:0:0:0:
251,283,251854,1,0,0:0:0:0:
251,283,251991,1,8,0:0:0:0:
251,283,252400,1,0,0:0:0:0:
251,283,252536,1,8,0:0:0:0:
251,283,252672,1,8,0:0:0:0:
251,283,252809,1,0,0:0:0:0:
251,283,252945,1,0,0:0:0:0:
251,283,253218,1,0,0:0:0:0:
251,283,253491,1,0,0:0:0:0:
251,283,253559,1,0,0:0:0:0:
251,283,253627,1,8,0:0:0:0:
251,283,254036,1,0,0:0:0:0:
251,283,254172,1,8,0:0:0:0:
251,283,254309,1,8,0:0:0:0:
251,283,254445,1,0,0:0:0:0:
251,283,254582,1,0,0:0:0:0:
251,283,254854,1,0,0:0:0:0:
251,283,255127,1,0,0:0:0:0:
251,283,255263,1,8,0:0:0:0:
251,283,255672,1,0,0:0:0:0:
251,283,255809,1,8,0:0:0:0:
251,283,255945,1,0,0:0:0:0:
251,283,256082,1,8,0:0:0:0:
251,283,256218,1,8,0:0:0:0:
251,283,256354,1,0,0:0:0:0:
251,283,256422,1,0,0:0:0:0:
251,283,256491,1,8,0:0:0:0:
251,283,256559,1,8,0:0:0:0:
251,283,256627,1,0,0:0:0:0:
251,283,256695,1,0,0:0:0:0:
251,283,256763,1,8,0:0:0:0:
251,283,256900,1,8,0:0:0:0:
251,283,257036,1,0,0:0:0:0:
251,283,257172,1,8,0:0:0:0:
251,283,257241,1,0,0:0:0:0:
251,283,257309,1,0,0:0:0:0:
251,283,257377,1,0,0:0:0:0:
251,283,257445,1,8,0:0:0:0:
251,283,257513,1,8,0:0:0:0:
251,283,257582,1,0,0:0:0:0:
251,283,257650,1,8,0:0:0:0:
251,283,257718,1,0,0:0:0:0:
251,283,257854,1,0,0:0:0:0:
251,283,257990,1,8,0:0:0:0:
251,283,258127,1,0,0:0:0:0:
251,283,258263,1,8,0:0:0:0:
251,283,258399,1,8,0:0:0:0:
251,283,258536,1,0,0:0:0:0:
251,283,258672,1,0,0:0:0:0:
251,283,258808,1,6,0:0:0:0:
251,283,258945,1,6,0:0:0:0:
251,283,259899,1,4,0:0:0:0:
251,283,260036,1,8,0:0:0:0:
251,283,260172,1,0,0:0:0:0:
251,283,260308,1,0,0:0:0:0:
251,283,260445,1,8,0:0:0:0:
251,283,260581,1,8,0:0:0:0:
251,283,260718,1,0,0:0:0:0:
251,283,260854,1,0,0:0:0:0:
251,283,260990,1,6,0:0:0:0:
251,283,261127,1,0,0:0:0:0:
251,283,261195,1,0,0:0:0:0:
251,283,261263,1,0,0:0:0:0:
251,283,261399,1,8,0:0:0:0:
251,283,261536,1,0,0:0:0:0:
251,283,261604,1,0,0:0:0:0:
251,283,261672,1,0,0:0:0:0:
251,283,261808,1,8,0:0:0:0:
251,283,261945,1,0,0:0:0:0:
274,339,262081,1,8,0:0:0:0:
263,314,262149,1,8,0:0:0:0:
251,283,262218,1,8,0:0:0:0:
251,283,262354,1,0,0:0:0:0:
251,283,262490,1,8,0:0:0:0:
263,314,262558,1,8,0:0:0:0:
251,283,262627,1,8,0:0:0:0:
251,283,262763,1,0,0:0:0:0:
251,283,262899,1,8,0:0:0:0:
251,283,263036,1,0,0:0:0:0:
251,283,263172,1,8,0:0:0:0:
263,314,263240,1,8,0:0:0:0:
251,283,263308,1,8,0:0:0:0:
268,239,263445,1,0,0:0:0:0:
251,284,263581,1,8,0:0:0:0:
260,258,263649,1,8,0:0:0:0:
260,258,263718,1,8,0:0:0:0:
268,239,263854,1,0,0:0:0:0:
268,239,263990,1,8,0:0:0:0:
268,239,264127,1,0,0:0:0:0:
268,239,264263,1,6,0:0:0:0:
268,239,264399,1,0,0:0:0:0:
260,258,264536,1,0,0:0:0:0:
260,258,264672,1,8,0:0:0:0:
268,239,264808,1,0,0:0:0:0:
268,239,264945,1,8,0:0:0:0:
268,239,265081,1,0,0:0:0:0:
268,239,265218,1,0,0:0:0:0:
268,239,265354,1,8,0:0:0:0:
260,258,265490,1,0,0:0:0:0:
258,270,265558,1,8,0:0:0:0:
260,258,265627,1,0,0:0:0:0:
240,263,265695,1,0,0:0:0:0:
240,263,265763,1,8,0:0:0:0:
240,263,265831,1,0,0:0:0:0:
209,260,265899,1,8,0:0:0:0:
209,260,265968,1,8,0:0:0:0:
209,260,266036,1,0,0:0:0:0:
209,260,266104,1,0,0:0:0:0:
209,260,266172,1,8,0:0:0:0:
226,250,266240,1,0,0:0:0:0:
209,260,266308,1,8,0:0:0:0:
209,260,266377,1,8,0:0:0:0:
209,260,266445,1,0,0:0:0:0:
209,260,266581,1,0,0:0:0:0:
209,260,266854,1,0,0:0:0:0:
209,260,266990,1,8,0:0:0:0:
276,174,267263,1,0,0:0:0:0:
240,215,267399,1,0,0:0:0:0:
240,215,267536,1,8,0:0:0:0:
191,236,267672,1,0,0:0:0:0:
289,194,267945,1,0,0:0:0:0:
237,216,268081,1,8,0:0:0:0:
237,216,268354,1,0,0:0:0:0:
237,216,268490,1,0,0:0:0:0:
237,216,268627,1,8,0:0:0:0:
237,216,268695,1,0,0:0:0:0:
237,216,268763,1,8,0:0:0:0:
237,216,268899,1,0,0:0:0:0:
237,216,269036,1,0,0:0:0:0:
237,216,269172,1,8,0:0:0:0:
234,247,269263,1,8,0:0:0:0:
234,247,269354,1,8,0:0:0:0:
237,216,269445,1,0,0:0:0:0:
237,216,269581,1,0,0:0:0:0:
237,216,269718,1,8,0:0:0:0:
234,247,269854,1,0,0:0:0:0:
234,247,270127,1,0,0:0:0:0:
234,247,270263,1,8,0:0:0:0:
234,247,270536,1,0,0:0:0:0:
234,247,270672,1,0,0:0:0:0:
234,247,270808,1,8,0:0:0:0:
234,247,270899,1,0,0:0:0:0:
234,247,270990,1,0,0:0:0:0:
234,247,271081,1,8,0:0:0:0:
228,297,271218,1,0,0:0:0:0:
239,241,271354,1,8,0:0:0:0:
223,190,271490,1,0,0:0:0:0:
231,216,271558,1,0,0:0:0:0:
231,216,271627,1,8,0:0:0:0:
231,216,271695,1,8,0:0:0:0:
231,216,271763,1,0,0:0:0:0:
231,216,271831,1,0,0:0:0:0:
231,216,271899,1,8,0:0:0:0:
231,216,272036,1,0,0:0:0:0:
231,216,272172,1,8,0:0:0:0:
231,216,272240,1,8,0:0:0:0:
231,216,272308,1,0,0:0:0:0:
231,216,272377,1,0,0:0:0:0:
231,216,272445,1,8,0:0:0:0:
220,259,272581,1,8,0:0:0:0:
231,216,272718,1,0,0:0:0:0:
231,216,272854,1,0,0:0:0:0:
231,216,272990,1,8,0:0:0:0:
231,216,273127,1,0,0:0:0:0:
231,216,273195,1,0,0:0:0:0:
231,216,273263,1,8,0:0:0:0:
231,216,273399,1,0,0:0:0:0:
231,216,273536,1,8,0:0:0:0:
253,241,273627,1,8,0:0:0:0:
253,241,273718,1,8,0:0:0:0:
253,241,273808,1,0,0:0:0:0:
253,241,273945,1,0,0:0:0:0:
253,241,274081,1,8,0:0:0:0:
231,216,274149,1,0,0:0:0:0:
231,216,274218,1,0,0:0:0:0:
231,216,274286,1,0,0:0:0:0:
231,216,274354,1,8,0:0:0:0:
231,216,274490,1,0,0:0:0:0:
231,216,274627,1,8,0:0:0:0:
224,243,274718,1,0,0:0:0:0:
224,243,274808,1,0,0:0:0:0:
224,243,274899,1,8,0:0:0:0:
231,216,274990,1,8,0:0:0:0:
231,216,275081,1,8,0:0:0:0:
231,216,275172,1,0,0:0:0:0:
254,267,275308,1,0,0:0:0:0:
213,175,275581,1,0,0:0:0:0:
233,221,275718,1,8,0:0:0:0:
279,319,275990,1,0,0:0:0:0:
257,272,276127,1,0,0:0:0:0:
235,227,276263,1,8,0:0:0:0:
235,227,276399,1,0,0:0:0:0:
235,227,276672,1,0,0:0:0:0:
235,227,276808,1,8,0:0:0:0:
235,227,276945,1,8,0:0:0:0:
235,227,277081,1,0,0:0:0:0:
235,227,277218,1,0,0:0:0:0:
235,227,277354,1,8,0:0:0:0:
235,227,277490,1,0,0:0:0:0:
235,227,277627,1,8,0:0:0:0:
235,227,277763,1,0,0:0:0:0:
235,227,277899,1,8,0:0:0:0:
235,227,278036,1,8,0:0:0:0:
235,227,278172,1,0,0:0:0:0:
235,227,278308,1,0,0:0:0:0:
235,227,278445,1,8,0:0:0:0:
235,227,278581,1,0,0:0:0:0:
235,227,278718,1,0,0:0:0:0:
235,227,278854,1,0,0:0:0:0:
235,227,278990,1,8,0:0:0:0:
235,227,279263,1,0,0:0:0:0:
235,227,279399,1,0,0:0:0:0:
235,227,279536,1,8,0:0:0:0:
242,242,279604,1,8,0:0:0:0:
235,227,279672,1,0,0:0:0:0:
239,246,279740,1,0,0:0:0:0:
243,262,279808,1,8,0:0:0:0:
243,262,279945,1,0,0:0:0:0:
243,262,280081,1,8,0:0:0:0:
243,262,280149,1,0,0:0:0:0:
243,262,280218,1,8,0:0:0:0:
243,262,280286,1,8,0:0:0:0:
243,262,280354,1,0,0:0:0:0:
243,262,280422,1,0,0:0:0:0:
243,262,280490,1,8,0:0:0:0:
243,262,280558,1,0,0:0:0:0:
243,262,280627,1,8,0:0:0:0:
243,262,280763,1,0,0:0:0:0:
243,262,280899,1,8,0:0:0:0:
243,262,280968,1,8,0:0:0:0:
243,262,281036,1,0,0:0:0:0:
243,262,281104,1,0,0:0:0:0:
243,262,281172,1,8,0:0:0:0:
276,274,281263,1,8,0:0:0:0:
276,274,281354,1,8,0:0:0:0:
276,274,281445,1,0,0:0:0:0:
276,274,281581,1,0,0:0:0:0:
276,274,281718,1,6,0:0:0:0:
276,274,281854,1,0,0:0:0:0:
276,274,281922,1,0,0:0:0:0:
276,274,281990,1,0,0:0:0:0:
276,274,282127,1,6,0:0:0:0:
276,274,282263,1,0,0:0:0:0:
276,274,282331,1,0,0:0:0:0:
276,274,282399,1,0,0:0:0:0:
276,274,282536,1,8,0:0:0:0:
276,274,282672,1,0,0:0:0:0:
276,274,282808,1,8,0:0:0:0:
276,274,282877,1,8,0:0:0:0:
276,274,282945,1,8,0:0:0:0:
276,274,283081,1,0,0:0:0:0:
276,274,283218,1,8,0:0:0:0:
276,274,283286,1,8,0:0:0:0:
276,274,283354,1,8,0:0:0:0:
276,274,283490,1,0,0:0:0:0:
276,274,283627,1,8,0:0:0:0:
276,274,283695,1,8,0:0:0:0:
276,274,283763,1,8,0:0:0:0:
276,274,283899,1,0,0:0:0:0:
276,274,284036,1,0,0:0:0:0:
276,274,284172,1,8,0:0:0:0:
276,274,284308,1,8,0:0:0:0:
276,274,284445,1,0,0:0:0:0:
320,320,284581,1,8,0:0:0:0:
320,320,284718,1,0,0:0:0:0:
288,288,284854,1,0,0:0:0:0:
276,274,284990,1,8,0:0:0:0:
276,274,285127,1,8,0:0:0:0:
276,274,285263,1,0,0:0:0:0:
276,274,285399,1,8,0:0:0:0:
276,274,285536,1,0,0:0:0:0:
276,274,285672,1,0,0:0:0:0:
276,274,285808,1,8,0:0:0:0:
276,274,285945,1,8,0:0:0:0:
276,274,286081,1,0,0:0:0:0:
276,274,286218,1,8,0:0:0:0:
276,274,286286,1,0,0:0:0:0:
276,274,286354,1,8,0:0:0:0:
276,274,286490,1,0,0:0:0:0:
276,274,286558,1,0,0:0:0:0:
276,274,286627,1,8,0:0:0:0:
276,274,286763,1,8,0:0:0:0:
276,274,286899,1,0,0:0:0:0:
276,274,287036,1,0,0:0:0:0:
276,274,287172,1,8,0:0:0:0:
276,274,287240,1,8,0:0:0:0:
276,274,287308,1,0,0:0:0:0:
276,274,287377,1,0,0:0:0:0:
276,274,287445,1,0,0:0:0:0:
276,274,287513,1,0,0:0:0:0:
276,274,287581,1,8,0:0:0:0:
276,274,287649,1,8,0:0:0:0:
276,274,287718,1,0,0:0:0:0:
276,274,287786,1,0,0:0:0:0:
276,274,287854,1,0,0:0:0:0:
276,274,287922,1,0,0:0:0:0:
276,274,287990,1,8,0:0:0:0:
276,274,288058,1,0,0:0:0:0:
276,274,288127,1,0,0:0:0:0:
276,274,288195,1,0,0:0:0:0:
276,274,288263,1,8,0:0:0:0:
276,274,288399,1,0,0:0:0:0:
257,284,288536,1,8,0:0:0:0:
276,274,288604,1,0,0:0:0:0:
276,274,288672,1,0,0:0:0:0:
257,284,288740,1,0,0:0:0:0:
276,274,288808,1,8,0:0:0:0:
276,274,288945,1,0,0:0:0:0:
257,284,289081,1,8,0:0:0:0:
276,274,289218,1,0,0:0:0:0:
257,284,289286,1,0,0:0:0:0:
276,274,289354,1,8,0:0:0:0:
257,284,289490,1,0,0:0:0:0:
257,284,289627,1,8,0:0:0:0:
257,284,289763,1,0,0:0:0:0:
257,284,289899,1,8,0:0:0:0:
257,284,290036,1,0,0:0:0:0:
257,284,290104,1,0,0:0:0:0:
257,284,290172,1,8,0:0:0:0:
276,274,290240,1,0,0:0:0:0:
257,284,290308,1,8,0:0:0:0:
257,284,290377,1,0,0:0:0:0:
257,284,290445,1,8,0:0:0:0:
257,284,290581,1,0,0:0:0:0:
257,284,290718,1,8,0:0:0:0:
257,284,290854,1,0,0:0:0:0:
257,284,290922,1,0,0:0:0:0:
257,284,290990,1,8,0:0:0:0:
237,243,291127,1,0,0:0:0:0:
237,243,291263,1,8,0:0:0:0:
237,243,291331,1,8,0:0:0:0:
237,243,291399,1,0,0:0:0:0:
237,243,291468,1,0,0:0:0:0:
237,243,291536,1,8,0:0:0:0:
237,243,291672,1,0,0:0:0:0:
237,243,291808,1,8,0:0:0:0:
237,243,291945,1,0,0:0:0:0:
237,243,292013,1,0,0:0:0:0:
237,243,292081,1,8,0:0:0:0:
237,243,292218,1,0,0:0:0:0:
237,243,292354,1,8,0:0:0:0:
231,260,292422,1,0,0:0:0:0:
237,243,292490,1,0,0:0:0:0:
237,243,292558,1,0,0:0:0:0:
237,243,292627,1,8,0:0:0:0:
237,243,292763,1,0,0:0:0:0:
237,243,292899,1,8,0:0:0:0:
237,243,293036,1,0,0:0:0:0:
237,243,293104,1,0,0:0:0:0:
237,243,293172,1,8,0:0:0:0:
237,243,293308,1,0,0:0:0:0:
237,243,293445,1,8,0:0:0:0:
237,243,293581,1,0,0:0:0:0:
237,243,293718,1,8,0:0:0:0:
237,243,293854,1,0,0:0:0:0:
237,243,293922,1,0,0:0:0:0:
237,243,293990,1,8,0:0:0:0:
237,243,294058,1,0,0:0:0:0:
237,243,294127,1,8,0:0:0:0:
237,243,294195,1,0,0:0:0:0:
237,243,294263,1,8,0:0:0:0:
237,243,294399,1,0,0:0:0:0:
237,243,294536,1,8,0:0:0:0:
237,243,294604,1,8,0:0:0:0:
237,243,294672,1,0,0:0:0:0:
237,243,294740,1,0,0:0:0:0:
237,243,294808,1,8,0:0:0:0:
237,243,294945,1,0,0:0:0:0:
237,243,295081,1,0,0:0:0:0:
237,243,295218,1,0,0:0:0:0:
237,243,295354,1,8,0:0:0:0:
237,243,295490,1,0,0:0:0:0:
237,243,295627,1,0,0:0:0:0:
237,243,295763,1,0,0:0:0:0:
237,243,295899,1,8,0:0:0:0:
234,223,295968,1,0,0:0:0:0:
237,243,296036,1,8,0:0:0:0:
237,243,296104,1,8,0:0:0:0:
237,243,296172,1,0,0:0:0:0:
237,243,296240,1,8,0:0:0:0:
237,243,296308,1,0,0:0:0:0:
237,243,296377,1,0,0:0:0:0:
237,243,296445,1,8,0:0:0:0:
237,243,296513,1,8,0:0:0:0:
237,243,296581,1,0,0:0:0:0:
237,243,296649,1,0,0:0:0:0:
237,243,296718,1,8,0:0:0:0:
237,243,296786,1,8,0:0:0:0:
237,243,296854,1,0,0:0:0:0:
237,243,296922,1,0,0:0:0:0:
237,243,296990,1,8,0:0:0:0:
237,243,297127,1,0,0:0:0:0:
237,243,297263,1,0,0:0:0:0:
237,243,297399,1,0,0:0:0:0:
237,243,297536,1,8,0:0:0:0:
237,243,297672,1,8,0:0:0:0:
237,243,297808,1,0,0:0:0:0:
237,243,297945,1,0,0:0:0:0:
237,243,298081,1,8,0:0:0:0:
237,243,298149,1,0,0:0:0:0:
237,243,298218,1,0,0:0:0:0:
237,243,298286,1,0,0:0:0:0:
237,243,298354,1,8,0:0:0:0:
237,243,298422,1,8,0:0:0:0:
237,243,298490,1,0,0:0:0:0:
237,243,298558,1,0,0:0:0:0:
237,243,298627,1,8,0:0:0:0:
237,243,298695,1,0,0:0:0:0:
237,243,298763,1,0,0:0:0:0:
237,243,298831,1,0,0:0:0:0:
237,243,298899,1,8,0:0:0:0:
237,243,298968,1,8,0:0:0:0:
237,243,299036,1,0,0:0:0:0:
237,243,299104,1,0,0:0:0:0:
237,243,299172,1,8,0:0:0:0:
280,252,299308,1,0,0:0:0:0:
280,252,299445,1,0,0:0:0:0:
280,252,299581,1,0,0:0:0:0:
280,252,299718,1,8,0:0:0:0:
280,252,299854,1,8,0:0:0:0:
280,252,299990,1,0,0:0:0:0:
280,252,300058,1,0,0:0:0:0:
280,252,300127,1,0,0:0:0:0:
280,252,300195,1,0,0:0:0:0:
280,252,300263,1,8,0:0:0:0:
280,252,300399,1,0,0:0:0:0:
280,252,300536,1,8,0:0:0:0:
288,256,300604,1,8,0:0:0:0:
280,252,300672,1,0,0:0:0:0:
280,252,300740,1,0,0:0:0:0:
280,252,300808,1,8,0:0:0:0:
280,252,300945,1,0,0:0:0:0:
280,252,301081,1,8,0:0:0:0:
276,293,301149,1,8,0:0:0:0:
280,252,301218,1,0,0:0:0:0:
280,252,301286,1,0,0:0:0:0:
280,252,301354,1,8,0:0:0:0:
280,252,301490,1,0,0:0:0:0:
280,252,301627,1,0,0:0:0:0:
280,252,301763,1,0,0:0:0:0:
280,252,301899,1,8,0:0:0:0:
280,252,302036,1,8,0:0:0:0:
280,252,302172,1,0,0:0:0:0:
276,293,302308,1,0,0:0:0:0:
280,252,302445,1,8,0:0:0:0:
279,271,302513,1,0,0:0:0:0:
279,271,302581,1,0,0:0:0:0:
279,271,302649,1,0,0:0:0:0:
279,271,302718,1,8,0:0:0:0:
279,271,302786,1,8,0:0:0:0:
279,271,302854,1,0,0:0:0:0:
279,271,302922,1,0,0:0:0:0:
279,271,302990,1,8,0:0:0:0:
279,271,303058,1,0,0:0:0:0:
279,271,303127,1,0,0:0:0:0:
279,271,303195,1,0,0:0:0:0:
279,271,303263,1,8,0:0:0:0:
279,271,303331,1,8,0:0:0:0:
279,271,303399,1,0,0:0:0:0:
279,271,303468,1,0,0:0:0:0:
279,271,303536,1,8,0:0:0:0:
279,271,303672,1,0,0:0:0:0:
279,271,303808,1,0,0:0:0:0:
279,271,303945,1,0,0:0:0:0:
279,271,304081,1,8,0:0:0:0:
279,271,304218,1,0,0:0:0:0:
279,271,304354,1,8,0:0:0:0:
279,271,304490,1,0,0:0:0:0:
279,271,304627,1,8,0:0:0:0:
279,271,304695,1,0,0:0:0:0:
279,271,304763,1,8,0:0:0:0:
279,271,304831,1,8,0:0:0:0:
279,271,304899,1,0,0:0:0:0:
279,271,304968,1,0,0:0:0:0:
279,271,305036,1,8,0:0:0:0:
279,271,305104,1,8,0:0:0:0:
279,271,305172,1,0,0:0:0:0:
279,271,305240,1,8,0:0:0:0:
279,271,305308,1,0,0:0:0:0:
279,271,305377,1,0,0:0:0:0:
279,271,305445,1,8,0:0:0:0:
279,271,305513,1,0,0:0:0:0:
279,271,305581,1,0,0:0:0:0:
279,271,305649,1,0,0:0:0:0:
276,297,305718,1,8,0:0:0:0:
276,297,305990,1,0,0:0:0:0:
276,297,306263,1,0,0:0:0:0:
276,297,306399,1,8,0:0:0:0:
276,297,306672,1,0,0:0:0:0:
288,288,306808,1,6,0:0:0:0:
276,297,306945,1,0,0:0:0:0:
276,297,307013,1,0,0:0:0:0:
276,297,307081,1,0,0:0:0:0:
269,293,307218,1,6,0:0:0:0:
276,297,307354,1,0,0:0:0:0:
276,297,307422,1,0,0:0:0:0:
276,297,307490,1,0,0:0:0:0:
276,297,307627,1,6,0:0:0:0:
276,297,307763,1,0,0:0:0:0:
276,297,307831,1,0,0:0:0:0:
190,243,307899,1,8,0:0:0:0:
229,268,308036,1,0,0:0:0:0:
269,293,308172,1,8,0:0:0:0:
269,293,308240,1,8,0:0:0:0:
269,293,308308,1,8,0:0:0:0:
269,293,308445,1,0,0:0:0:0:
269,293,308581,1,8,0:0:0:0:
269,293,308649,1,8,0:0:0:0:
269,293,308718,1,0,0:0:0:0:
269,293,308854,1,0,0:0:0:0:
269,293,308990,1,8,0:0:0:0:
269,293,309058,1,0,0:0:0:0:
269,293,309127,1,0,0:0:0:0:
269,293,309195,1,0,0:0:0:0:
269,293,309263,1,8,0:0:0:0:
269,293,309331,1,8,0:0:0:0:
269,293,309399,1,0,0:0:0:0:
269,293,309468,1,0,0:0:0:0:
269,293,309536,1,8,0:0:0:0:
269,293,309604,1,8,0:0:0:0:
269,293,309672,1,0,0:0:0:0:
269,293,309740,1,0,0:0:0:0:
269,293,309808,1,8,0:0:0:0:
269,293,309945,1,0,0:0:0:0:
269,293,310081,1,8,0:0:0:0:
269,293,310149,1,0,0:0:0:0:
269,293,310218,1,0,0:0:0:0:
269,293,310286,1,0,0:0:0:0:
269,293,310354,1,8,0:0:0:0:
269,293,310422,1,8,0:0:0:0:
269,293,310490,1,0,0:0:0:0:
269,293,310558,1,0,0:0:0:0:
269,293,310627,1,0,0:0:0:0:
269,293,310695,1,0,0:0:0:0:
269,293,310763,1,8,0:0:0:0:
269,293,310831,1,0,0:0:0:0:
269,293,310899,1,0,0:0:0:0:
269,293,310968,1,0,0:0:0:0:
269,293,311036,1,0,0:0:0:0:
269,293,311104,1,0,0:0:0:0:
269,293,311172,1,8,0:0:0:0:
269,293,311240,1,8,0:0:0:0:
269,293,311308,1,0,0:0:0:0:
269,293,311377,1,0,0:0:0:0:
269,293,311445,1,0,0:0:0:0:
269,293,311513,1,0,0:0:0:0:
269,293,311581,1,8,0:0:0:0:
269,293,311649,1,0,0:0:0:0:
269,293,311718,1,0,0:0:0:0:
269,293,311786,1,0,0:0:0:0:
269,293,311854,1,0,0:0:0:0:
269,293,311922,1,0,0:0:0:0:
269,293,311990,1,8,0:0:0:0:
269,293,312058,1,8,0:0:0:0:
269,293,312127,1,0,0:0:0:0:
269,293,312195,1,0,0:0:0:0:
269,293,312263,1,8,0:0:0:0:
269,293,312399,1,0,0:0:0:0:
269,293,312536,1,6,0:0:0:0:
269,293,312672,1,0,0:0:0:0:
269,293,312740,1,0,0:0:0:0:
269,293,312808,1,0,0:0:0:0:
269,293,312945,1,6,0:0:0:0:
269,293,313081,1,0,0:0:0:0:
269,293,313149,1,0,0:0:0:0:
269,293,313218,1,0,0:0:0:0:
269,293,313354,1,6,0:0:0:0:
269,293,313490,1,0,0:0:0:0:
269,293,313558,1,0,0:0:0:0:
269,293,313627,1,0,0:0:0:0:
269,293,313763,1,6,0:0:0:0:
269,293,313899,1,0,0:0:0:0:
269,293,313968,1,0,0:0:0:0:
269,293,314036,1,0,0:0:0:0:
269,293,314172,1,8,0:0:0:0:
269,293,314240,1,0,0:0:0:0:
269,293,314308,1,8,0:0:0:0:
269,293,314377,1,8,0:0:0:0:
269,293,314445,1,0,0:0:0:0:
269,293,314581,1,0,0:0:0:0:
269,293,314718,1,8,0:0:0:0:
269,293,314786,1,8,0:0:0:0:
269,293,314854,1,0,0:0:0:0:
269,293,314922,1,0,0:0:0:0:
269,293,314990,1,8,0:0:0:0:
269,293,315263,1,0,0:0:0:0:
269,293,315399,1,0,0:0:0:0:
269,293,315536,1,8,0:0:0:0:
269,293,315672,1,0,0:0:0:0:
269,293,315808,1,8,0:0:0:0:
269,293,315945,1,0,0:0:0:0:
269,293,316013,1,0,0:0:0:0:
269,293,316081,1,8,0:0:0:0:
269,293,316354,1,0,0:0:0:0:
269,293,316490,1,0,0:0:0:0:
269,293,316627,1,8,0:0:0:0:
269,293,316763,1,0,0:0:0:0:
269,293,317036,1,0,0:0:0:0:
269,293,317172,1,8,0:0:0:0:
269,293,317445,1,8,0:0:0:0:
269,293,317581,1,0,0:0:0:0:
269,293,317718,1,8,0:0:0:0:
269,293,317854,1,8,0:0:0:0:
269,293,318127,1,0,0:0:0:0:
269,293,318263,1,8,0:0:0:0:
269,293,318536,1,0,0:0:0:0:
269,293,318672,1,0,0:0:0:0:
269,293,318808,1,8,0:0:0:0:
269,293,318945,1,0,0:0:0:0:
269,293,319081,1,8,0:0:0:0:
269,293,319149,1,8,0:0:0:0:
269,293,319218,1,0,0:0:0:0:
269,293,319286,1,0,0:0:0:0:
269,293,319354,1,8,0:0:0:0:
269,293,319627,1,0,0:0:0:0:
269,293,319763,1,0,0:0:0:0:
269,293,319899,1,8,0:0:0:0:
269,293,320036,1,0,0:0:0:0:
269,293,320172,1,8,0:0:0:0:
269,293,320308,1,0,0:0:0:0:
269,293,320377,1,0,0:0:0:0:
269,293,320445,1,8,0:0:0:0:
269,293,320718,1,0,0:0:0:0:
269,293,320854,1,0,0:0:0:0:
269,293,320990,1,8,0:0:0:0:
269,293,321127,1,0,0:0:0:0:
269,293,321399,1,0,0:0:0:0:
269,293,321536,1,8,0:0:0:0:
269,293,321808,1,8,0:0:0:0:
269,293,321945,1,0,0:0:0:0:
269,293,322081,1,8,0:0:0:0:
478,237,322627,1,8,0:0:0:0:
446,245,322718,1,0,0:0:0:0:
411,254,322808,1,0,0:0:0:0:
373,264,322899,1,8,0:0:0:0:
332,275,322990,1,8,0:0:0:0:
292,286,323081,1,8,0:0:0:0:
292,286,323172,1,0,0:0:0:0:
338,290,323308,1,0,0:0:0:0:
338,290,323445,1,8,0:0:0:0:
338,290,323513,1,8,0:0:0:0:
338,290,323581,1,0,0:0:0:0:
338,290,323649,1,0,0:0:0:0:
338,290,323718,1,8,0:0:0:0:
338,290,323990,1,0,0:0:0:0:
338,290,324127,1,0,0:0:0:0:
338,290,324263,1,8,0:0:0:0:
338,290,324399,1,0,0:0:0:0:
338,290,324536,1,8,0:0:0:0:
338,290,324672,1,0,0:0:0:0:
338,290,324740,1,0,0:0:0:0:
338,290,324808,1,8,0:0:0:0:
338,290,325081,1,0,0:0:0:0:
338,290,325218,1,0,0:0:0:0:
338,290,325354,1,8,0:0:0:0:
338,290,325490,1,0,0:0:0:0:
338,290,325763,1,0,0:0:0:0:
338,290,325899,1,8,0:0:0:0:
326,289,326172,1,8,0:0:0:0:
338,290,326308,1,0,0:0:0:0:
338,290,326445,1,8,0:0:0:0:
289,288,326581,1,8,0:0:0:0:
338,290,326854,1,0,0:0:0:0:
338,290,326990,1,8,0:0:0:0:
338,290,327263,1,0,0:0:0:0:
338,290,327399,1,0,0:0:0:0:
338,290,327536,1,8,0:0:0:0:
338,290,327672,1,0,0:0:0:0:
338,290,327808,1,8,0:0:0:0:
338,290,327877,1,8,0:0:0:0:
338,290,327945,1,0,0:0:0:0:
338,290,328013,1,0,0:0:0:0:
338,290,328081,1,8,0:0:0:0:
338,290,328354,1,0,0:0:0:0:
338,290,328490,1,0,0:0:0:0:
338,290,328627,1,8,0:0:0:0:
338,290,328763,1,0,0:0:0:0:
338,290,328899,1,8,0:0:0:0:
338,290,329036,1,0,0:0:0:0:
338,290,329104,1,0,0:0:0:0:
338,290,329172,1,8,0:0:0:0:
338,290,329445,1,0,0:0:0:0:
338,290,329581,1,0,0:0:0:0:
338,290,329718,1,8,0:0:0:0:
338,290,329786,1,0,0:0:0:0:
338,290,329854,1,0,0:0:0:0:
338,290,329922,1,0,0:0:0:0:
338,290,329990,1,8,0:0:0:0:
338,290,330058,1,0,0:0:0:0:
338,290,330127,1,8,0:0:0:0:
338,290,330195,1,8,0:0:0:0:
338,290,330263,1,0,0:0:0:0:
338,290,330331,1,0,0:0:0:0:
338,290,330399,1,8,0:0:0:0:
338,290,330468,1,0,0:0:0:0:
338,290,330536,1,8,0:0:0:0:
338,290,330604,1,8,0:0:0:0:
338,290,330672,1,0,0:0:0:0:
338,290,330740,1,0,0:0:0:0:
338,290,330808,1,8,0:0:0:0:
338,290,330877,1,0,0:0:0:0:
338,290,330945,1,0,0:0:0:0:
338,290,331013,1,0,0:0:0:0:
338,290,331081,1,0,0:0:0:0:
338,290,331149,1,0,0:0:0:0:
338,290,331218,1,8,0:0:0:0:
338,290,331286,1,0,0:0:0:0:
338,290,331354,1,0,0:0:0:0:
338,290,331422,1,0,0:0:0:0:
338,290,331490,1,0,0:0:0:0:
338,290,331558,1,0,0:0:0:0:
338,290,331627,1,8,0:0:0:0:
338,290,331695,1,0,0:0:0:0:
338,290,331763,1,0,0:0:0:0:
338,290,331831,1,0,0:0:0:0:
338,290,331899,1,8,0:0:0:0:
285,300,332036,1,8,0:0:0:0:
336,290,332172,1,0,0:0:0:0:
289,299,332308,1,8,0:0:0:0:
339,290,332445,1,0,0:0:0:0:
317,294,332513,1,0,0:0:0:0:
289,299,332581,1,8,0:0:0:0:
334,291,332718,1,0,0:0:0:0:
283,300,332854,1,8,0:0:0:0:
317,294,332990,1,0,0:0:0:0:
317,294,333058,1,0,0:0:0:0:
317,294,333127,1,8,0:0:0:0:
317,294,333263,1,0,0:0:0:0:
317,294,333399,1,8,0:0:0:0:
317,294,333536,1,0,0:0:0:0:
317,294,333604,1,0,0:0:0:0:
317,294,333672,1,0,0:0:0:0:
317,294,333808,1,8,0:0:0:0:
317,294,333945,1,0,0:0:0:0:
317,294,334013,1,0,0:0:0:0:
317,294,334081,1,8,0:0:0:0:
317,294,334218,1,0,0:0:0:0:
317,294,334354,1,8,0:0:0:0:
317,294,334422,1,8,0:0:0:0:
317,294,334490,1,0,0:0:0:0:
317,294,334558,1,0,0:0:0:0:
317,294,334627,1,8,0:0:0:0:
317,294,334695,1,0,0:0:0:0:
317,294,334763,1,8,0:0:0:0:
317,294,334831,1,8,0:0:0:0:
317,294,334899,1,0,0:0:0:0:
317,294,334968,1,0,0:0:0:0:
317,294,335036,1,0,0:0:0:0:
317,294,335104,1,0,0:0:0:0:
317,294,335172,1,8,0:0:0:0:
317,294,335308,1,0,0:0:0:0:
317,294,335377,1,0,0:0:0:0:
317,294,335445,1,8,0:0:0:0:
317,294,335581,1,0,0:0:0:0:
317,294,335649,1,0,0:0:0:0:
317,294,335718,1,8,0:0:0:0:
317,294,335854,1,0,0:0:0:0:
317,294,335922,1,0,0:0:0:0:
317,294,335990,1,8,0:0:0:0:
317,294,336058,1,8,0:0:0:0:
317,294,336127,1,0,0:0:0:0:
317,294,336195,1,0,0:0:0:0:
317,294,336263,1,8,0:0:0:0:
301,246,336399,1,0,0:0:0:0:
280,184,336536,1,8,0:0:0:0:
264,138,336604,1,8,0:0:0:0:
264,138,336672,1,0,0:0:0:0:
264,138,336740,1,0,0:0:0:0:
264,138,336808,1,8,0:0:0:0:
264,138,336877,1,0,0:0:0:0:
264,138,336945,1,8,0:0:0:0:
264,138,337013,1,8,0:0:0:0:
264,138,337081,1,0,0:0:0:0:
264,138,337149,1,0,0:0:0:0:
264,138,337218,1,0,0:0:0:0:
264,138,337286,1,0,0:0:0:0:
264,138,337354,1,8,0:0:0:0:
264,138,337422,1,8,0:0:0:0:
264,138,337490,1,0,0:0:0:0:
264,138,337558,1,0,0:0:0:0:
264,138,337627,1,8,0:0:0:0:
264,138,337695,1,0,0:0:0:0:
264,138,337763,1,8,0:0:0:0:
264,138,337831,1,8,0:0:0:0:
264,138,337899,1,0,0:0:0:0:
264,138,337968,1,0,0:0:0:0:
264,138,338036,1,0,0:0:0:0:
264,138,338104,1,0,0:0:0:0:
264,138,338172,1,8,0:0:0:0:
264,138,338240,1,0,0:0:0:0:
264,138,338308,1,8,0:0:0:0:
264,138,338377,1,8,0:0:0:0:
264,138,338445,1,0,0:0:0:0:
264,138,338513,1,0,0:0:0:0:
264,138,338581,1,0,0:0:0:0:
264,138,338649,1,0,0:0:0:0:
264,138,338718,1,8,0:0:0:0:
264,138,338786,1,0,0:0:0:0:
264,138,338854,1,0,0:0:0:0:
264,138,338922,1,0,0:0:0:0:
264,138,338990,1,8,0:0:0:0:
264,138,339058,1,8,0:0:0:0:
264,138,339127,1,0,0:0:0:0:
264,138,339195,1,0,0:0:0:0:
264,138,339263,1,8,0:0:0:0:
264,138,339331,1,0,0:0:0:0:
264,138,339399,1,0,0:0:0:0:
264,138,339468,1,0,0:0:0:0:
264,138,339536,1,8,0:0:0:0:
273,185,339604,1,8,0:0:0:0:
273,185,339672,1,0,0:0:0:0:
280,215,339740,1,0,0:0:0:0:
280,215,339808,1,8,0:0:0:0:
273,185,339877,1,0,0:0:0:0:
280,215,339945,1,0,0:0:0:0:
280,215,340013,1,0,0:0:0:0:
280,215,340081,1,8,0:0:0:0:
273,185,340149,1,8,0:0:0:0:
280,215,340218,1,0,0:0:0:0:
280,215,340286,1,0,0:0:0:0:
280,215,340354,1,8,0:0:0:0:
280,215,340422,1,8,0:0:0:0:
280,215,340490,1,8,0:0:0:0:
280,215,340558,1,8,0:0:0:0:
280,215,340627,1,4,0:0:0:0:
317,278,341036,1,8,0:0:0:0:
317,278,341445,1,8,0:0:0:0:
316,277,341718,1,4,0:0:0:0:
317,278,342127,1,8,0:0:0:0:
317,278,342536,1,0,0:0:0:0:
316,276,342808,1,6,0:0:0:0:
317,278,343627,1,0,0:0:0:0:
292,178,343899,1,4,0:0:0:0:
317,278,344445,1,0,0:0:0:0:
264,66,344990,1,6,0:0:0:0:
310,250,346081,1,4,0:0:0:0:
317,278,346354,1,8,0:0:0:0:
317,278,346627,1,0,0:0:0:0:
317,278,346899,1,0,0:0:0:0:
291,176,347172,1,6,0:0:0:0:
317,278,347990,1,8,0:0:0:0:
317,278,348263,1,0,0:0:0:0:
317,278,348354,1,0,0:0:0:0:
317,278,348445,1,0,0:0:0:0:
317,278,348536,1,8,0:0:0:0:
317,278,348627,1,0,0:0:0:0:
317,278,348718,1,0,0:0:0:0:
314,300,348808,1,8,0:0:0:0:
314,300,348899,1,8,0:0:0:0:
317,278,348990,1,0,0:0:0:0:
317,278,349081,1,8,0:0:0:0:
317,278,349172,1,8,0:0:0:0:
317,278,349263,1,8,0:0:0:0:
317,239,349354,1,4,0:0:0:0:
317,118,349763,1,0,0:0:0:0:
317,285,350172,1,0,0:0:0:0:
317,239,350308,1,0,0:0:0:0:
317,180,350445,1,6,0:0:0:0:
317,285,350718,1,0,0:0:0:0:
317,285,350854,1,6,0:0:0:0:
317,337,351127,1,0,0:0:0:0:
317,290,351263,1,0,0:0:0:0:
317,242,351399,1,0,0:0:0:0:
317,285,351536,1,6,0:0:0:0:
317,242,351808,1,0,0:0:0:0:
317,242,352081,1,8,0:0:0:0:
317,242,352218,1,0,0:0:0:0:
317,242,352354,1,8,0:0:0:0:
317,242,352490,1,0,0:0:0:0:
317,242,352627,1,6,0:0:0:0:
317,242,352899,1,0,0:0:0:0:
317,242,353172,1,8,0:0:0:0:
317,242,353308,1,0,0:0:0:0:
334,285,353445,1,0,0:0:0:0:
317,242,353718,1,6,0:0:0:0:
334,285,353990,1,0,0:0:0:0:
334,285,354127,1,0,0:0:0:0:
334,285,354263,1,8,0:0:0:0:
334,285,354536,1,0,0:0:0:0:
334,285,354808,1,6,0:0:0:0:
334,285,355081,1,0,0:0:0:0:
334,285,355218,1,0,0:0:0:0:
334,285,355354,1,8,0:0:0:0:
334,285,355627,1,0,0:0:0:0:
334,285,355763,1,0,0:0:0:0:
334,285,355899,1,8,0:0:0:0:
334,285,356036,1,0,0:0:0:0:
334,285,356172,1,8,0:0:0:0:
334,285,356308,1,0,0:0:0:0:
334,285,356377,1,0,0:0:0:0:
334,285,356445,1,8,0:0:0:0:
334,285,356581,1,0,0:0:0:0:
334,285,356718,1,8,0:0:0:0:
334,285,356854,1,0,0:0:0:0:
334,285,356990,1,8,0:0:0:0:
334,285,357058,1,8,0:0:0:0:
334,285,357127,1,0,0:0:0:0:
334,285,357195,1,0,0:0:0:0:
334,285,357263,1,8,0:0:0:0:
288,269,357399,1,0,0:0:0:0:
288,269,357468,1,0,0:0:0:0:
288,269,357536,1,0,0:0:0:0:
288,269,357604,1,0,0:0:0:0:
288,269,357672,1,8,0:0:0:0:
288,269,357808,1,0,0:0:0:0:
288,269,357877,1,0,0:0:0:0:
288,320,357945,1,8,0:0:0:0:
288,320,358013,1,0,0:0:0:0:
321,319,358081,1,8,0:0:0:0:
288,320,358218,1,0,0:0:0:0:
288,320,358286,1,0,0:0:0:0:
288,320,358354,1,8,0:0:0:0:
288,320,358490,1,8,0:0:0:0:
288,320,358558,1,0,0:0:0:0:
288,320,358627,1,8,0:0:0:0:
288,320,358763,1,0,0:0:0:0:
288,320,358831,1,0,0:0:0:0:
288,320,358899,1,8,0:0:0:0:
288,320,358968,1,8,0:0:0:0:
288,320,359036,1,0,0:0:0:0:
288,320,359104,1,0,0:0:0:0:
288,320,359172,1,8,0:0:0:0:
320,320,359308,1,0,0:0:0:0:
288,320,359377,1,0,0:0:0:0:
288,288,359445,1,8,0:0:0:0:
288,320,359581,1,8,0:0:0:0:
288,320,359649,1,0,0:0:0:0:
288,320,359718,1,8,0:0:0:0:
320,320,359786,1,8,0:0:0:0:
320,320,359854,1,0,0:0:0:0:
288,320,359922,1,0,0:0:0:0:
288,320,359990,1,8,0:0:0:0:
288,320,360058,1,0,0:0:0:0:
288,320,360127,1,0,0:0:0:0:
288,320,360195,1,0,0:0:0:0:
288,320,360263,1,8,0:0:0:0:
224,288,360399,1,0,0:0:0:0:
224,288,360468,1,0,0:0:0:0:
224,288,360536,1,8,0:0:0:0:
224,288,360604,1,8,0:0:0:0:
224,288,360672,1,0,0:0:0:0:
224,288,360740,1,0,0:0:0:0:
224,288,360808,1,8,0:0:0:0:
224,288,360945,1,0,0:0:0:0:
224,288,361013,1,0,0:0:0:0:
224,288,361081,1,8,0:0:0:0:
224,288,361218,1,0,0:0:0:0:
256,288,361286,1,0,0:0:0:0:
224,288,361354,1,8,0:0:0:0:
224,288,361422,1,0,0:0:0:0:
224,288,361490,1,0,0:0:0:0:
224,288,361558,1,0,0:0:0:0:
224,288,361627,1,8,0:0:0:0:
224,288,361695,1,8,0:0:0:0:
224,288,361763,1,0,0:0:0:0:
224,288,361831,1,0,0:0:0:0:
224,288,361899,1,8,0:0:0:0:
224,288,361968,1,0,0:0:0:0:
224,288,362036,1,0,0:0:0:0:
224,288,362104,1,0,0:0:0:0:
224,288,362172,1,8,0:0:0:0:
224,288,362240,1,8,0:0:0:0:
224,288,362308,1,0,0:0:0:0:
224,288,362377,1,0,0:0:0:0:
224,288,362445,1,8,0:0:0:0:
256,320,362581,1,0,0:0:0:0:
224,320,362649,1,0,0:0:0:0:
224,320,362718,1,8,0:0:0:0:
224,320,362786,1,8,0:0:0:0:
224,320,362854,1,0,0:0:0:0:
224,320,362922,1,0,0:0:0:0:
224,320,362990,1,8,0:0:0:0:
224,320,363058,1,8,0:0:0:0:
224,320,363127,1,0,0:0:0:0:
224,320,363195,1,8,0:0:0:0:
224,320,363263,1,0,0:0:0:0:
224,320,363331,1,0,0:0:0:0:
224,320,363399,1,8,0:0:0:0:
224,320,363468,1,0,0:0:0:0:
224,320,363536,1,8,0:0:0:0:
224,320,363604,1,8,0:0:0:0:
224,320,363672,1,0,0:0:0:0:
224,320,363740,1,0,0:0:0:0:
224,320,363808,1,8,0:0:0:0:
224,320,363877,1,8,0:0:0:0:
224,320,363945,1,8,0:0:0:0:
224,320,364013,1,0,0:0:0:0:
224,320,364081,1,8,0:0:0:0:
224,320,364149,1,8,0:0:0:0:
224,320,364218,1,0,0:0:0:0:
224,320,364286,1,0,0:0:0:0:
224,320,364354,1,8,0:0:0:0:
224,320,364422,1,8,0:0:0:0:
224,320,364490,1,8,0:0:0:0:
224,320,364558,1,0,0:0:0:0:
224,320,364627,1,8,0:0:0:0:
224,320,364695,1,0,0:0:0:0:
224,320,364763,1,0,0:0:0:0:
224,320,364831,1,0,0:0:0:0:
224,320,364899,1,8,0:0:0:0:
224,320,364968,1,0,0:0:0:0:
224,320,365036,1,0,0:0:0:0:
224,320,365104,1,0,0:0:0:0:
224,320,365172,1,8,0:0:0:0:
224,320,365240,1,0,0:0:0:0:
224,320,365308,1,0,0:0:0:0:
224,320,365377,1,0,0:0:0:0:
224,320,365445,1,8,0:0:0:0:
224,320,365513,1,8,0:0:0:0:
224,320,365581,1,0,0:0:0:0:
224,320,365649,1,0,0:0:0:0:
224,320,365718,1,8,0:0:0:0:
224,320,365786,1,0,0:0:0:0:
224,320,365854,1,0,0:0:0:0:
224,320,365922,1,0,0:0:0:0:
224,320,365990,1,8,0:0:0:0:
224,288,366058,1,8,0:0:0:0:
224,256,366127,1,0,0:0:0:0:
224,288,366195,1,8,0:0:0:0:
224,192,366263,1,0,0:0:0:0:
224,224,366331,1,0,0:0:0:0:
224,256,366399,1,8,0:0:0:0:
224,288,366468,1,0,0:0:0:0:
224,288,366536,1,8,0:0:0:0:
224,288,366604,1,8,0:0:0:0:
224,288,366672,1,0,0:0:0:0:
224,288,366740,1,0,0:0:0:0:
256,288,366808,1,8,0:0:0:0:
288,320,366945,1,0,0:0:0:0:
320,320,367013,1,0,0:0:0:0:
320,320,367081,1,8,0:0:0:0:
288,320,367218,1,8,0:0:0:0:
288,320,367286,1,0,0:0:0:0:
288,320,367354,1,8,0:0:0:0:
288,320,367490,1,0,0:0:0:0:
288,320,367558,1,0,0:0:0:0:
288,320,367627,1,8,0:0:0:0:
288,320,367695,1,8,0:0:0:0:
288,320,367763,1,0,0:0:0:0:
288,320,367831,1,0,0:0:0:0:
288,320,367899,1,8,0:0:0:0:
288,320,368036,1,0,0:0:0:0:
288,288,368104,1,0,0:0:0:0:
288,320,368172,1,8,0:0:0:0:
288,320,368308,1,8,0:0:0:0:
288,320,368377,1,0,0:0:0:0:
288,320,368445,1,8,0:0:0:0:
288,320,368513,1,8,0:0:0:0:
288,320,368581,1,0,0:0:0:0:
288,320,368649,1,0,0:0:0:0:
288,320,368718,1,8,0:0:0:0:
288,320,368786,1,0,0:0:0:0:
288,320,368854,1,0,0:0:0:0:
288,320,368922,1,0,0:0:0:0:
288,320,368990,1,8,0:0:0:0:
288,320,369127,1,0,0:0:0:0:
288,320,369195,1,0,0:0:0:0:
288,320,369263,1,8,0:0:0:0:
288,320,369331,1,8,0:0:0:0:
288,320,369399,1,0,0:0:0:0:
288,320,369468,1,0,0:0:0:0:
288,320,369536,1,8,0:0:0:0:
288,320,369672,1,0,0:0:0:0:
288,320,369740,1,0,0:0:0:0:
288,320,369808,1,8,0:0:0:0:
288,320,369945,1,0,0:0:0:0:
288,320,370013,1,0,0:0:0:0:
288,320,370081,1,8,0:0:0:0:
288,320,370149,1,8,0:0:0:0:
288,320,370218,1,0,0:0:0:0:
288,320,370286,1,0,0:0:0:0:
288,320,370354,1,8,0:0:0:0:
288,320,370422,1,0,0:0:0:0:
288,320,370490,1,0,0:0:0:0:
288,320,370558,1,0,0:0:0:0:
288,320,370627,1,8,0:0:0:0:
288,320,370695,1,8,0:0:0:0:
288,320,370763,1,0,0:0:0:0:
288,320,370831,1,0,0:0:0:0:
288,320,370899,1,8,0:0:0:0:
288,320,370968,1,0,0:0:0:0:
288,320,371036,1,0,0:0:0:0:
288,320,371104,1,0,0:0:0:0:
288,320,371172,1,8,0:0:0:0:
288,320,371308,1,0,0:0:0:0:
288,320,371377,1,0,0:0:0:0:
288,320,371445,1,8,0:0:0:0:
288,320,371513,1,0,0:0:0:0:
288,320,371581,1,8,0:0:0:0:
288,320,371649,1,8,0:0:0:0:
288,320,371718,1,8,0:0:0:0:
288,320,371786,1,0,0:0:0:0:
288,320,371854,1,8,0:0:0:0:
288,320,371922,1,0,0:0:0:0:
288,320,371990,1,8,0:0:0:0:
288,320,372058,1,8,0:0:0:0:
288,320,372127,1,0,0:0:0:0:
288,320,372195,1,0,0:0:0:0:
288,320,372263,1,8,0:0:0:0:
288,320,372331,1,0,0:0:0:0:
288,320,372399,1,0,0:0:0:0:
288,320,372468,1,0,0:0:0:0:
288,320,372536,1,8,0:0:0:0:
288,320,372604,1,0,0:0:0:0:
288,320,372672,1,0,0:0:0:0:
288,320,372740,1,0,0:0:0:0:
288,320,372808,1,8,0:0:0:0:
288,320,372877,1,8,0:0:0:0:
288,320,372945,1,0,0:0:0:0:
288,320,373013,1,0,0:0:0:0:
288,320,373081,1,8,0:0:0:0:
288,320,373149,1,8,0:0:0:0:
288,320,373218,1,0,0:0:0:0:
288,320,373286,1,0,0:0:0:0:
288,288,373354,1,8,0:0:0:0:
288,288,373422,1,0,0:0:0:0:
320,288,373490,1,0,0:0:0:0:
288,288,373558,1,0,0:0:0:0:
288,288,373627,1,8,0:0:0:0:
288,288,373695,1,0,0:0:0:0:
288,288,373763,1,0,0:0:0:0:
288,288,373831,1,0,0:0:0:0:
288,288,373899,1,8,0:0:0:0:
288,288,373968,1,8,0:0:0:0:
288,288,374036,1,0,0:0:0:0:
288,288,374104,1,0,0:0:0:0:
288,288,374172,1,8,0:0:0:0:
288,288,374240,1,8,0:0:0:0:
288,288,374308,1,0,0:0:0:0:
288,288,374377,1,8,0:0:0:0:
288,288,374445,1,0,0:0:0:0:
288,288,374513,1,0,0:0:0:0:
288,288,374581,1,8,0:0:0:0:
288,288,374649,1,0,0:0:0:0:
288,288,374718,1,8,0:0:0:0:
288,288,374786,1,8,0:0:0:0:
288,288,374854,1,0,0:0:0:0:
288,288,374922,1,0,0:0:0:0:
320,320,374990,1,8,0:0:0:0:
320,288,375058,1,0,0:0:0:0:
320,320,375127,1,0,0:0:0:0:
320,320,375195,1,0,0:0:0:0:
320,320,375263,1,8,0:0:0:0:
320,320,375331,1,8,0:0:0:0:
288,288,375399,1,8,0:0:0:0:
288,320,375468,1,8,0:0:0:0:
261,287,375536,1,4,0:0:0:0:
288,288,375672,1,0,0:0:0:0:
288,288,375808,1,8,0:0:0:0:
288,288,375945,1,0,0:0:0:0:
288,320,376013,1,0,0:0:0:0:
261,287,376081,1,8,0:0:0:0:
288,320,376149,1,8,0:0:0:0:
261,287,376218,1,0,0:0:0:0:
261,287,376286,1,0,0:0:0:0:
261,287,376354,1,8,0:0:0:0:
261,287,376490,1,0,0:0:0:0:
261,287,376627,1,8,0:0:0:0:
300,310,376763,1,0,0:0:0:0:
300,310,376899,1,0,0:0:0:0:
300,310,376968,1,0,0:0:0:0:
300,310,377036,1,0,0:0:0:0:
300,310,377104,1,0,0:0:0:0:
300,310,377172,1,8,0:0:0:0:
300,310,377308,1,0,0:0:0:0:
300,310,377445,1,0,0:0:0:0:
300,310,377581,1,0,0:0:0:0:
300,310,377718,1,8,0:0:0:0:
300,310,377854,1,0,0:0:0:0:
300,310,377990,1,8,0:0:0:0:
300,310,378058,1,8,0:0:0:0:
300,310,378127,1,0,0:0:0:0:
300,310,378195,1,0,0:0:0:0:
300,310,378263,1,8,0:0:0:0:
300,310,378399,1,0,0:0:0:0:
300,310,378536,1,8,0:0:0:0:
300,310,378604,1,0,0:0:0:0:
300,310,378672,1,8,0:0:0:0:
300,310,378740,1,8,0:0:0:0:
300,310,378808,1,0,0:0:0:0:
300,310,378945,1,8,0:0:0:0:
300,310,379081,1,0,0:0:0:0:
300,310,379218,1,0,0:0:0:0:
300,310,379354,1,8,0:0:0:0:
300,310,379422,1,8,0:0:0:0:
300,310,379490,1,0,0:0:0:0:
300,310,379558,1,0,0:0:0:0:
300,310,379627,1,8,0:0:0:0:
300,310,379763,1,0,0:0:0:0:
300,310,379899,1,8,0:0:0:0:
300,310,380036,1,8,0:0:0:0:
300,310,380172,1,0,0:0:0:0:
300,310,380308,1,0,0:0:0:0:
300,310,380445,1,8,0:0:0:0:
300,310,380581,1,0,0:0:0:0:
300,310,380718,1,0,0:0:0:0:
300,310,380854,1,8,0:0:0:0:
300,310,380990,1,0,0:0:0:0:
300,310,381127,1,8,0:0:0:0:
300,310,381195,1,0,0:0:0:0:
300,310,381263,1,8,0:0:0:0:
300,310,381331,1,8,0:0:0:0:
300,310,381399,1,0,0:0:0:0:
300,310,381468,1,0,0:0:0:0:
300,310,381536,1,8,0:0:0:0:
300,310,381604,1,8,0:0:0:0:
300,310,381672,1,0,0:0:0:0:
300,310,381740,1,0,0:0:0:0:
300,310,381808,1,8,0:0:0:0:
300,310,381877,1,0,0:0:0:0:
300,310,381945,1,8,0:0:0:0:
300,310,382013,1,8,0:0:0:0:
300,310,382081,1,0,0:0:0:0:
300,310,382218,1,0,0:0:0:0:
300,310,382354,1,8,0:0:0:0:
300,310,382490,1,0,0:0:0:0:
300,310,382627,1,8,0:0:0:0:
300,310,382763,1,0,0:0:0:0:
300,310,382899,1,8,0:0:0:0:
349,282,383036,1,0,0:0:0:0:
349,282,383104,1,0,0:0:0:0:
300,310,383172,1,8,0:0:0:0:
332,285,383308,1,0,0:0:0:0:
332,285,383377,1,0,0:0:0:0:
332,285,383445,1,0,0:0:0:0:
332,285,383581,1,8,0:0:0:0:
332,285,383718,1,0,0:0:0:0:
332,285,383786,1,0,0:0:0:0:
332,285,383854,1,0,0:0:0:0:
332,285,383922,1,0,0:0:0:0:
332,285,383990,1,8,0:0:0:0:
332,285,384127,1,0,0:0:0:0:
332,285,384263,1,8,0:0:0:0:
332,285,384331,1,8,0:0:0:0:
332,285,384399,1,0,0:0:0:0:
332,285,384468,1,0,0:0:0:0:
332,285,384536,1,8,0:0:0:0:
332,285,384672,1,0,0:0:0:0:
332,285,384808,1,8,0:0:0:0:
332,285,384877,1,0,0:0:0:0:
332,285,384945,1,0,0:0:0:0:
332,285,385013,1,0,0:0:0:0:
332,285,385081,1,8,0:0:0:0:
332,285,385218,1,8,0:0:0:0:
332,285,385354,1,0,0:0:0:0:
376,251,385490,1,8,0:0:0:0:
332,285,385627,1,8,0:0:0:0:
332,285,385763,1,0,0:0:0:0:
332,285,385899,1,8,0:0:0:0:
332,285,385968,1,8,0:0:0:0:
332,285,386036,1,0,0:0:0:0:
332,285,386104,1,0,0:0:0:0:
332,285,386172,1,8,0:0:0:0:
332,285,386308,1,0,0:0:0:0:
332,285,386445,1,8,0:0:0:0:
332,285,386513,1,8,0:0:0:0:
332,285,386581,1,8,0:0:0:0:
332,285,386649,1,8,0:0:0:0:
332,285,386718,1,0,0:0:0:0:
332,285,386854,1,0,0:0:0:0:
332,285,386990,1,8,0:0:0:0:
332,285,387127,1,0,0:0:0:0:
332,285,387195,1,0,0:0:0:0:
332,285,387263,1,8,0:0:0:0:
332,285,387331,1,0,0:0:0:0:
332,285,387399,1,0,0:0:0:0:
332,285,387468,1,0,0:0:0:0:
332,285,387536,1,8,0:0:0:0:
332,285,387672,1,8,0:0:0:0:
332,285,387808,1,0,0:0:0:0:
332,285,387945,1,0,0:0:0:0:
332,285,388081,1,8,0:0:0:0:
332,285,388218,1,8,0:0:0:0:
332,285,388354,1,0,0:0:0:0:
332,285,388490,1,0,0:0:0:0:
332,285,388627,1,8,0:0:0:0:
317,297,388695,1,0,0:0:0:0:
332,285,388763,1,0,0:0:0:0:
315,299,388831,1,0,0:0:0:0:
332,285,388899,1,8,0:0:0:0:
332,285,389036,1,0,0:0:0:0:
332,285,389172,1,8,0:0:0:0:
332,285,389308,1,8,0:0:0:0:
332,285,389445,1,0,0:0:0:0:
332,285,389581,1,0,0:0:0:0:
332,285,389718,1,8,0:0:0:0:
332,285,389854,1,0,0:0:0:0:
332,285,389922,1,0,0:0:0:0:
332,285,389990,1,8,0:0:0:0:
332,285,390127,1,0,0:0:0:0:
332,285,390263,1,8,0:0:0:0:
332,285,390399,1,0,0:0:0:0:
332,285,390468,1,0,0:0:0:0:
332,285,390536,1,8,0:0:0:0:
360,255,390672,1,8,0:0:0:0:
313,284,390808,1,0,0:0:0:0:
313,284,391081,1,0,0:0:0:0:
313,284,391354,1,8,0:0:0:0:
209,232,391627,1,8,0:0:0:0:
376,378,391899,1,0,0:0:0:0:
369,327,392036,1,8,0:0:0:0:
366,304,392104,1,8,0:0:0:0:
362,277,392172,1,0,0:0:0:0:
362,277,392308,1,8,0:0:0:0:
362,277,392445,1,0,0:0:0:0:
310,277,392513,1,0,0:0:0:0:
310,277,392581,1,0,0:0:0:0:
284,277,392649,1,0,0:0:0:0:
344,298,392718,1,8,0:0:0:0:
362,277,392854,1,8,0:0:0:0:
261,287,392990,1,4,0:0:0:0:
261,287,393127,1,8,0:0:0:0:
261,287,393263,1,0,0:0:0:0:
261,287,393331,1,0,0:0:0:0:
286,285,393399,1,8,0:0:0:0:
261,287,393536,1,0,0:0:0:0:
261,287,393672,1,8,0:0:0:0:
261,287,393740,1,8,0:0:0:0:
261,287,393808,1,0,0:0:0:0:
261,287,393877,1,0,0:0:0:0:
261,287,393945,1,8,0:0:0:0:
261,287,394081,1,0,0:0:0:0:
261,287,394218,1,8,0:0:0:0:
261,287,394354,1,0,0:0:0:0:
261,287,394422,1,0,0:0:0:0:
261,287,394490,1,8,0:0:0:0:
261,287,394627,1,0,0:0:0:0:
261,287,394763,1,8,0:0:0:0:
261,287,394899,1,0,0:0:0:0:
261,287,394968,1,0,0:0:0:0:
287,292,395036,1,8,0:0:0:0:
261,287,395104,1,0,0:0:0:0:
261,287,395172,1,8,0:0:0:0:
287,292,395240,1,8,0:0:0:0:
261,287,395308,1,0,0:0:0:0:
287,292,395377,1,0,0:0:0:0:
261,287,395445,1,8,0:0:0:0:
261,287,395513,1,0,0:0:0:0:
261,287,395581,1,0,0:0:0:0:
287,292,395649,1,0,0:0:0:0:
287,292,395718,1,8,0:0:0:0:
287,292,395786,1,8,0:0:0:0:
287,292,395854,1,0,0:0:0:0:
287,292,395922,1,0,0:0:0:0:
287,292,395990,1,8,0:0:0:0:
287,292,396058,1,0,0:0:0:0:
287,292,396127,1,0,0:0:0:0:
287,292,396195,1,0,0:0:0:0:
287,292,396263,1,8,0:0:0:0:
287,292,396331,1,8,0:0:0:0:
287,292,396399,1,8,0:0:0:0:
287,292,396468,1,0,0:0:0:0:
287,292,396536,1,8,0:0:0:0:
287,292,396604,1,8,0:0:0:0:
287,292,396672,1,0,0:0:0:0:
287,292,396740,1,0,0:0:0:0:
287,292,396808,1,8,0:0:0:0:
287,292,396877,1,0,0:0:0:0:
287,292,396945,1,0,0:0:0:0:
287,292,397013,1,0,0:0:0:0:
287,292,397081,1,8,0:0:0:0:
287,292,397149,1,0,0:0:0:0:
287,292,397218,1,8,0:0:0:0:
287,292,397286,1,8,0:0:0:0:
287,292,397354,1,0,0:0:0:0:
237,288,397490,1,8,0:0:0:0:
284,291,397627,1,0,0:0:0:0:
256,289,397695,1,0,0:0:0:0:
256,289,397763,1,8,0:0:0:0:
284,291,397899,1,0,0:0:0:0:
284,291,398036,1,8,0:0:0:0:
284,291,398104,1,8,0:0:0:0:
284,291,398172,1,0,0:0:0:0:
284,291,398240,1,0,0:0:0:0:
284,291,398308,1,8,0:0:0:0:
284,291,398445,1,0,0:0:0:0:
284,291,398581,1,8,0:0:0:0:
256,289,398718,1,0,0:0:0:0:
256,289,398786,1,0,0:0:0:0:
284,291,398854,1,8,0:0:0:0:
284,291,398990,1,0,0:0:0:0:
284,291,399127,1,8,0:0:0:0:
284,291,399263,1,0,0:0:0:0:
284,291,399331,1,0,0:0:0:0:
284,291,399399,1,8,0:0:0:0:
284,291,399468,1,0,0:0:0:0:
284,291,399536,1,8,0:0:0:0:
284,291,399604,1,8,0:0:0:0:
284,291,399672,1,0,0:0:0:0:
284,291,399740,1,0,0:0:0:0:
284,291,399808,1,0,0:0:0:0:
284,291,399877,1,0,0:0:0:0:
284,291,399945,1,8,0:0:0:0:
284,291,400013,1,8,0:0:0:0:
284,291,400081,1,0,0:0:0:0:
284,291,400149,1,0,0:0:0:0:
284,291,400218,1,0,0:0:0:0:
284,291,400286,1,0,0:0:0:0:
284,291,400354,1,8,0:0:0:0:
284,291,400422,1,8,0:0:0:0:
284,291,400490,1,0,0:0:0:0:
284,291,400558,1,0,0:0:0:0:
271,294,400627,1,0,0:0:0:0:
284,291,400695,1,0,0:0:0:0:
284,291,400763,1,8,0:0:0:0:
284,291,400831,1,8,0:0:0:0:
315,294,400899,1,0,0:0:0:0:
315,294,400968,1,0,0:0:0:0:
315,294,401036,1,0,0:0:0:0:
315,294,401104,1,0,0:0:0:0:
315,294,401172,1,8,0:0:0:0:
315,294,401240,1,8,0:0:0:0:
315,294,401308,1,0,0:0:0:0:
315,294,401377,1,0,0:0:0:0:
315,294,401445,1,8,0:0:0:0:
290,307,401513,1,0,0:0:0:0:
315,294,401581,1,8,0:0:0:0:
315,294,401649,1,8,0:0:0:0:
315,294,401718,1,0,0:0:0:0:
315,294,401854,1,8,0:0:0:0:
315,294,401990,1,0,0:0:0:0:
315,294,402058,1,0,0:0:0:0:
315,294,402127,1,8,0:0:0:0:
315,294,402263,1,0,0:0:0:0:
315,294,402399,1,8,0:0:0:0:
315,294,402468,1,8,0:0:0:0:
315,294,402536,1,0,0:0:0:0:
315,294,402604,1,0,0:0:0:0:
315,294,402672,1,8,0:0:0:0:
315,294,402808,1,0,0:0:0:0:
315,294,402945,1,8,0:0:0:0:
315,294,403081,1,0,0:0:0:0:
315,294,403149,1,0,0:0:0:0:
315,294,403218,1,8,0:0:0:0:
315,294,403354,1,0,0:0:0:0:
315,294,403490,1,8,0:0:0:0:
261,287,403627,1,0,0:0:0:0:
261,287,403695,1,0,0:0:0:0:
287,292,403763,1,8,0:0:0:0:
261,287,403831,1,0,0:0:0:0:
261,287,403899,1,8,0:0:0:0:
287,292,403968,1,8,0:0:0:0:
261,287,404036,1,0,0:0:0:0:
287,292,404104,1,0,0:0:0:0:
261,287,404172,1,8,0:0:0:0:
261,287,404240,1,0,0:0:0:0:
261,287,404308,1,0,0:0:0:0:
287,292,404377,1,0,0:0:0:0:
287,292,404445,1,8,0:0:0:0:
287,292,404513,1,8,0:0:0:0:
287,292,404581,1,0,0:0:0:0:
287,292,404649,1,0,0:0:0:0:
287,292,404718,1,8,0:0:0:0:
287,292,404786,1,0,0:0:0:0:
287,292,404854,1,0,0:0:0:0:
287,292,404922,1,0,0:0:0:0:
287,292,404990,1,8,0:0:0:0:
287,292,405058,1,8,0:0:0:0:
287,292,405127,1,8,0:0:0:0:
287,292,405195,1,0,0:0:0:0:
287,292,405263,1,8,0:0:0:0:
287,292,405331,1,8,0:0:0:0:
287,292,405399,1,0,0:0:0:0:
287,292,405468,1,0,0:0:0:0:
287,292,405536,1,8,0:0:0:0:
287,292,405604,1,0,0:0:0:0:
287,292,405672,1,0,0:0:0:0:
287,292,405740,1,0,0:0:0:0:
287,292,405808,1,8,0:0:0:0:
287,292,405877,1,0,0:0:0:0:
287,292,405945,1,8,0:0:0:0:
287,292,406013,1,8,0:0:0:0:
287,292,406081,1,0,0:0:0:0:
291,346,406218,1,8,0:0:0:0:
288,299,406354,1,0,0:0:0:0:
289,321,406422,1,0,0:0:0:0:
289,321,406490,1,8,0:0:0:0:
289,321,406627,1,0,0:0:0:0:
289,321,406763,1,8,0:0:0:0:
289,321,406831,1,8,0:0:0:0:
289,321,406899,1,0,0:0:0:0:
289,321,406968,1,0,0:0:0:0:
289,321,407036,1,8,0:0:0:0:
289,321,407172,1,0,0:0:0:0:
289,321,407308,1,8,0:0:0:0:
289,321,407445,1,0,0:0:0:0:
289,321,407513,1,0,0:0:0:0:
289,321,407581,1,8,0:0:0:0:
289,321,407718,1,0,0:0:0:0:
289,321,407854,1,8,0:0:0:0:
289,321,407990,1,0,0:0:0:0:
289,321,408058,1,0,0:0:0:0:
289,321,408127,1,8,0:0:0:0:
289,321,408195,1,0,0:0:0:0:
289,321,408263,1,8,0:0:0:0:
289,321,408331,1,8,0:0:0:0:
289,321,408399,1,0,0:0:0:0:
289,321,408468,1,0,0:0:0:0:
289,321,408536,1,0,0:0:0:0:
289,321,408604,1,0,0:0:0:0:
289,321,408672,1,8,0:0:0:0:
289,321,408740,1,0,0:0:0:0:
289,321,408808,1,8,0:0:0:0:
289,321,408877,1,8,0:0:0:0:
289,321,408945,1,0,0:0:0:0:
289,321,409013,1,0,0:0:0:0:
289,321,409081,1,8,0:0:0:0:
289,321,409149,1,0,0:0:0:0:
289,321,409218,1,8,0:0:0:0:
289,321,409286,1,8,0:0:0:0:
289,321,409354,1,0,0:0:0:0:
289,321,409422,1,0,0:0:0:0:
289,321,409490,1,8,0:0:0:0:
289,321,409558,1,0,0:0:0:0:
289,321,409627,1,8,0:0:0:0:
289,321,409695,1,8,0:0:0:0:
269,318,409763,1,8,0:0:0:0:
313,307,409831,1,0,0:0:0:0:
313,307,409899,1,8,0:0:0:0:
269,318,409968,1,8,0:0:0:0:
269,318,410036,1,0,0:0:0:0:
313,307,410104,1,0,0:0:0:0:
313,307,410172,1,8,0:0:0:0:
313,307,410240,1,8,0:0:0:0:
289,321,410308,1,0,0:0:0:0:
269,318,410377,1,0,0:0:0:0:
269,318,410445,1,8,0:0:0:0:
269,318,410513,1,0,0:0:0:0:
269,318,410581,1,0,0:0:0:0:
269,318,410649,1,0,0:0:0:0:
269,318,410718,1,0,0:0:0:0:
269,318,410786,1,0,0:0:0:0:
269,318,410854,1,8,0:0:0:0:
269,318,410922,1,0,0:0:0:0:
269,318,410990,1,0,0:0:0:0:
269,318,411058,1,0,0:0:0:0:
269,318,411127,1,0,0:0:0:0:
269,318,411195,1,0,0:0:0:0:
269,318,411263,1,8,0:0:0:0:
269,318,411331,1,0,0:0:0:0:
269,318,411399,1,0,0:0:0:0:
269,318,411468,1,0,0:0:0:0:
269,318,411536,1,0,0:0:0:0:
269,318,411604,1,0,0:0:0:0:
269,318,411672,1,8,0:0:0:0:
269,318,411740,1,0,0:0:0:0:
269,318,411808,1,0,0:0:0:0:
269,318,411877,1,0,0:0:0:0:
269,318,411945,1,0,0:0:0:0:
269,318,412013,1,0,0:0:0:0:
269,318,412081,1,8,0:0:0:0:
269,318,412149,1,0,0:0:0:0:
269,318,412218,1,0,0:0:0:0:
269,318,412286,1,0,0:0:0:0:
269,318,412354,1,8,0:0:0:0:
269,318,412422,1,0,0:0:0:0:
269,318,412490,1,0,0:0:0:0:
269,318,412558,1,0,0:0:0:0:
269,318,412627,1,8,0:0:0:0:
269,318,412695,1,0,0:0:0:0:
269,318,412763,1,8,0:0:0:0:
269,318,412831,1,8,0:0:0:0:
269,318,412899,1,0,0:0:0:0:
269,318,412968,1,0,0:0:0:0:
269,318,413036,1,8,0:0:0:0:
269,318,413104,1,8,0:0:0:0:
269,318,413172,1,0,0:0:0:0:
269,318,413240,1,0,0:0:0:0:
269,318,413308,1,8,0:0:0:0:
269,318,413377,1,0,0:0:0:0:
269,318,413445,1,8,0:0:0:0:
269,318,413513,1,8,0:0:0:0:
269,318,413581,1,0,0:0:0:0:
269,318,413649,1,0,0:0:0:0:
284,294,413718,1,8,0:0:0:0:
269,318,413786,1,0,0:0:0:0:
269,318,413854,1,8,0:0:0:0:
269,318,413922,1,8,0:0:0:0:
269,318,413990,1,0,0:0:0:0:
269,318,414058,1,0,0:0:0:0:
284,294,414127,1,8,0:0:0:0:
269,318,414195,1,0,0:0:0:0:
284,294,414263,1,8,0:0:0:0:
284,294,414331,1,0,0:0:0:0:
284,294,414399,1,0,0:0:0:0:
284,294,414468,1,0,0:0:0:0:
284,294,414536,1,8,0:0:0:0:
284,294,414604,1,8,0:0:0:0:
284,294,414672,1,0,0:0:0:0:
284,294,414740,1,0,0:0:0:0:
284,294,414808,1,8,0:0:0:0:
284,294,414877,1,0,0:0:0:0:
284,294,414945,1,0,0:0:0:0:
284,294,415013,1,0,0:0:0:0:
284,294,415081,1,0,0:0:0:0:
284,294,415149,1,0,0:0:0:0:
284,294,415218,1,8,0:0:0:0:
284,294,415286,1,0,0:0:0:0:
284,294,415354,1,0,0:0:0:0:
284,294,415422,1,0,0:0:0:0:
284,294,415490,1,0,0:0:0:0:
284,294,415558,1,0,0:0:0:0:
284,294,415627,1,8,0:0:0:0:
284,294,415695,1,0,0:0:0:0:
284,294,415763,1,0,0:0:0:0:
284,294,415831,1,0,0:0:0:0:
284,294,415899,1,0,0:0:0:0:
284,294,415968,1,0,0:0:0:0:
284,294,416036,1,8,0:0:0:0:
284,294,416104,1,0,0:0:0:0:
284,294,416172,1,0,0:0:0:0:
284,294,416240,1,0,0:0:0:0:
284,294,416308,1,0,0:0:0:0:
284,294,416377,1,0,0:0:0:0:
284,294,416445,1,8,0:0:0:0:
284,294,416513,1,0,0:0:0:0:
284,294,416581,1,0,0:0:0:0:
284,294,416649,1,0,0:0:0:0:
284,294,416718,1,8,0:0:0:0:
284,294,416786,1,0,0:0:0:0:
284,294,416854,1,0,0:0:0:0:
284,294,416922,1,0,0:0:0:0:
284,294,416990,1,8,0:0:0:0:
256,192,417127,12,0,421354,0:0:0:0:
