osu file format v14

[General]
AudioFilename: audio.mp3
AudioLeadIn: 0
PreviewTime: 220224
Countdown: 0
SampleSet: Soft
StackLeniency: 0.7
Mode: 2
LetterboxInBreaks: 0
WidescreenStoryboard: 1

[Editor]
Bookmarks: 39482,65664,80928,98383,115837,146383,163837,198747,220565,238019,257655,288200,314382,358018,421291
DistanceSpacing: 1.1
BeatDivisor: 4
GridSize: 8
TimelineZoom: 3.499999

[Metadata]
Title:Angreifer
TitleUnicode:Angreifer
Artist:Unlucky Morpheus
ArtistUnicode:Unlucky Morpheus
Creator:Spectator
Version:Daletto Spec's Vergeltung
Source:
Tags:japanese daletto riven jrock jmetal metal rock j-rock j-metal vampir vampire doujin 紫煉 Shiren gothic symphonic melodic power black 天外冬黄 fuki fuyuki tenge marathon NyalettOwO x3
BeatmapID:3103400
BeatmapSetID:1515823

[Difficulty]
HPDrainRate:6
CircleSize:4.2
OverallDifficulty:9.8
ApproachRate:9.8
SliderMultiplier:2
SliderTickRate:2

[Events]
//Background and Video events
0,0,"daletto.jpg",0,0
//Break Periods
2,340764,347721
//Storyboard Layer 0 (Background)
//Storyboard Layer 1 (Fail)
//Storyboard Layer 2 (Pass)
//Storyboard Layer 3 (Foreground)
//Storyboard Layer 4 (Overlay)
//Storyboard Sound Samples

[TimingPoints]
210,272.727272727273,3,2,20,50,1,0
39482,-129.87012987013,3,2,1,50,0,0
39891,-129.87012987013,3,2,10,50,0,0
40028,-129.87012987013,3,2,1,50,0,0
40164,-129.87012987013,3,2,10,50,0,0
40300,-129.87012987013,3,2,1,50,0,0
40710,-129.87012987013,3,2,10,50,0,0
40846,-129.87012987013,3,2,1,50,0,0
40982,-129.87012987013,3,2,10,50,0,0
41119,-129.87012987013,3,2,1,50,0,0
41255,-129.87012987013,3,2,10,50,0,0
41391,-129.87012987013,3,2,1,50,0,0
41528,-129.87012987013,3,2,10,50,0,0
41664,-129.87012987013,3,2,1,50,0,0
42346,-129.87012987013,3,2,10,50,0,0
42482,-129.87012987013,3,2,1,50,0,0
42619,-129.87012987013,3,2,10,50,0,0
42755,-129.87012987013,3,2,1,50,0,0
43164,-129.87012987013,3,2,10,50,0,0
43300,-129.87012987013,3,2,1,50,0,0
43710,-129.87012987013,3,2,10,50,0,0
43846,-129.87012987013,3,2,1,50,0,0
43982,-129.87012987013,3,2,10,50,0,0
44119,-129.87012987013,3,2,1,50,0,0
44255,-129.87012987013,3,2,10,50,0,0
44391,-129.87012987013,3,2,1,50,0,0
44528,-129.87012987013,3,2,10,50,0,0
44664,-129.87012987013,3,2,1,50,0,0
45073,-129.87012987013,3,2,10,50,0,0
45210,-129.87012987013,3,2,1,50,0,0
45619,-129.87012987013,3,2,10,50,0,0
45755,-129.87012987013,3,2,1,50,0,0
45891,-129.87012987013,3,2,10,50,0,0
46028,-129.87012987013,3,2,1,50,0,0
46164,-129.87012987013,3,2,10,50,0,0
46300,-129.87012987013,3,2,1,50,0,0
46437,-129.87012987013,3,2,10,50,0,0
46573,-129.87012987013,3,2,1,50,0,0
46710,-129.87012987013,3,2,10,50,0,0
46846,-129.87012987013,3,2,1,50,0,0
47255,-129.87012987013,3,2,10,50,0,0
47391,-129.87012987013,3,2,1,50,0,0
47800,-129.87012987013,3,2,10,50,0,0
47937,-129.87012987013,3,2,1,50,0,0
48073,-129.87012987013,3,2,10,50,0,0
48210,-129.87012987013,3,2,1,50,0,0
48891,-129.87012987013,3,2,10,50,0,0
49028,-129.87012987013,3,2,1,50,0,0
49164,-129.87012987013,3,2,10,50,0,0
49300,-129.87012987013,3,2,1,50,0,0
49710,-129.87012987013,3,2,10,50,0,0
49846,-129.87012987013,3,2,1,50,0,0
49982,-129.87012987013,3,2,10,50,0,0
50119,-129.87012987013,3,2,1,50,0,0
50528,-129.87012987013,3,2,10,50,0,0
50664,-129.87012987013,3,2,1,50,0,0
51073,-129.87012987013,3,2,10,50,0,0
51210,-129.87012987013,3,2,1,50,0,0
51346,-129.87012987013,3,2,10,50,0,0
51482,-129.87012987013,3,2,1,50,0,0
51891,-129.87012987013,3,2,10,50,0,0
52028,-129.87012987013,3,2,1,50,0,0
52164,-129.87012987013,3,2,10,50,0,0
52300,-129.87012987013,3,2,1,50,0,0
52778,-129.87012987013,3,2,10,50,0,0
52846,-129.87012987013,3,2,1,50,0,0
53050,-129.87012987013,3,2,10,50,0,0
53119,-129.87012987013,3,2,1,50,0,0
53323,-129.87012987013,3,2,10,50,0,0
53391,-129.87012987013,3,2,1,50,0,0
53800,-129.87012987013,3,2,10,50,0,0
53937,-129.87012987013,3,2,1,50,0,0
54073,-129.87012987013,3,2,10,50,0,0
54210,-129.87012987013,3,2,1,50,0,0
54346,-129.87012987013,3,2,10,50,0,0
54482,-129.87012987013,3,2,1,50,0,0
54619,-129.87012987013,3,2,10,50,0,0
54755,-129.87012987013,3,2,1,50,0,0
55164,-129.87012987013,3,2,10,50,0,0
55300,-129.87012987013,3,2,1,50,0,0
55437,-129.87012987013,3,2,10,50,0,0
55573,-129.87012987013,3,2,1,50,0,0
56255,-129.87012987013,3,2,10,50,0,0
56391,-129.87012987013,3,2,1,50,0,0
56528,-129.87012987013,3,2,10,50,0,0
56664,-129.87012987013,3,2,1,50,0,0
57073,-129.87012987013,3,2,10,50,0,0
57210,-129.87012987013,3,2,1,50,0,0
57619,-129.87012987013,3,2,10,50,0,0
57755,-129.87012987013,3,2,1,50,0,0
57891,-129.87012987013,3,2,10,50,0,0
58028,-129.87012987013,3,2,1,50,0,0
58164,-129.87012987013,3,2,10,50,0,0
58300,-129.87012987013,3,2,1,50,0,0
58437,-129.87012987013,3,2,10,50,0,0
58573,-129.87012987013,3,2,3,50,0,0
58641,-129.87012987013,3,2,10,50,0,0
58846,-129.87012987013,3,2,3,50,0,0
58914,-129.87012987013,3,2,10,50,0,0
59119,-129.87012987013,3,2,1,50,0,0
59528,-129.87012987013,3,2,10,50,0,0
59664,-129.87012987013,3,2,1,50,0,0
59800,-129.87012987013,3,2,10,50,0,0
59937,-129.87012987013,3,2,1,50,0,0
60346,-129.87012987013,3,2,10,50,0,0
60482,-129.87012987013,3,2,1,50,0,0
60619,-129.87012987013,3,2,10,50,0,0
60755,-129.87012987013,3,2,1,50,0,0
60891,-129.87012987013,3,2,10,50,0,0
61028,-129.87012987013,3,2,1,50,0,0
61164,-129.87012987013,3,2,10,50,0,0
61300,-129.87012987013,3,2,1,50,0,0
61710,-129.87012987013,3,2,10,50,0,0
61846,-129.87012987013,3,2,1,50,0,0
61982,-129.87012987013,3,2,10,50,0,0
62119,-129.87012987013,3,2,1,50,0,0
62800,-129.87012987013,3,2,10,50,0,0
62937,-129.87012987013,3,2,1,50,0,0
63073,-129.87012987013,3,2,10,50,0,0
63210,-129.87012987013,3,2,1,50,0,0
63619,-129.87012987013,3,2,10,50,0,0
63755,-129.87012987013,3,2,1,50,0,0
63891,-129.87012987013,3,2,10,50,0,0
64028,-129.87012987013,3,2,1,50,0,0
64164,-129.87012987013,3,2,10,50,0,0
64300,-129.87012987013,3,2,1,50,0,0
64437,-129.87012987013,3,2,10,50,0,0
64573,-129.87012987013,3,2,1,50,0,0
64982,-129.87012987013,3,2,10,50,0,0
65119,-129.87012987013,3,2,1,50,0,0
65255,-129.87012987013,3,2,10,50,0,0
65391,-129.87012987013,3,2,1,50,0,0
65528,-129.87012987013,3,2,10,50,0,0
65664,-117.647058823529,3,2,1,50,0,0
65937,-117.647058823529,3,2,2,60,0,0
66482,-117.647058823529,3,2,1,60,0,0
66755,-117.647058823529,3,2,2,60,0,0
67300,-117.647058823529,3,2,1,60,0,0
67573,-117.647058823529,3,2,3,60,0,0
68323,-117.647058823529,3,2,10,60,0,0
68391,-100,3,2,3,60,0,0
68596,-100,3,2,10,60,0,0
68664,-100,3,2,3,60,0,0
68869,-100,3,2,10,60,0,0
68937,-117.647058823529,3,2,1,60,0,0
69141,-117.647058823529,3,2,10,60,0,0
69210,-117.647058823529,3,2,2,60,0,0
69755,-117.647058823529,3,2,1,60,0,0
70028,-117.647058823529,3,2,2,60,0,0
70573,-117.647058823529,3,2,1,60,0,0
70846,-117.647058823529,3,2,3,60,0,0
71391,-100,3,2,3,60,0,0
71596,-100,3,2,10,60,0,0
71663,-100,3,2,3,60,0,0
71869,-100,3,2,10,60,0,0
71936,-100,3,2,3,60,0,0
72141,-100,3,2,10,60,0,0
72210,-117.647058823529,3,2,1,60,0,0
72414,-117.647058823529,3,2,10,60,0,0
72482,-117.647058823529,3,2,2,60,0,0
73028,-117.647058823529,3,2,1,60,0,0
73300,-117.647058823529,3,2,2,60,0,0
73846,-117.647058823529,3,2,1,60,0,0
74664,-100,3,2,3,60,0,0
74869,-100,3,2,10,60,0,0
74936,-100,3,2,3,60,0,0
75142,-100,3,2,10,60,0,0
75209,-100,3,2,3,60,0,0
75414,-100,3,2,10,60,0,0
75482,-111.111111111111,3,2,1,60,0,0
75499,-111.111111111111,3,2,2,60,0,0
76232,-111.111111111111,3,2,10,60,0,0
76300,-111.111111111111,3,2,1,60,0,0
76317,-111.111111111111,3,2,2,60,0,0
77050,-111.111111111111,3,2,10,60,0,0
77119,-111.111111111111,3,2,1,60,0,0
77136,-111.111111111111,3,2,2,60,0,0
77869,-111.111111111111,3,2,10,60,0,0
77937,-100,3,2,1,60,0,0
78747,272.727272727273,4,2,1,60,1,0
78747,-90.9090909090909,4,2,1,60,0,0
78764,-90.9090909090909,4,2,2,60,0,0
79769,-90.9090909090909,4,2,10,60,0,0
79837,-90.9090909090909,4,2,3,60,0,0
80042,-90.9090909090909,4,2,10,60,0,0
80110,-90.9090909090909,4,2,3,60,0,0
80315,-90.9090909090909,4,2,10,60,0,0
80383,-90.9090909090909,4,2,3,60,0,0
80587,-90.9090909090909,4,2,10,60,0,0
80656,-90.9090909090909,4,2,3,60,0,0
80928,-133.333333333333,4,2,3,65,0,0
81065,-133.333333333333,4,2,4,65,0,0
82019,-133.333333333333,4,2,1,65,0,0
82292,-133.333333333333,4,2,4,65,0,0
83110,-133.333333333333,4,2,1,65,0,0
83247,-133.333333333333,4,2,4,65,0,0
84201,-100,4,2,1,65,0,0
84337,-100,4,2,2,65,0,0
84610,-100,4,2,3,65,0,0
84747,-100,4,2,2,65,0,0
85019,-100,4,2,1,65,0,0
85974,-100,4,2,4,65,0,0
86383,-100,4,2,1,65,0,0
87065,-100,4,2,4,65,0,0
87474,-100,4,2,3,65,0,0
88701,-100,4,2,2,65,0,0
89656,-90.9090909090909,4,2,3,70,0,1
89724,-90.9090909090909,4,2,3,70,0,0
89928,-90.9090909090909,4,2,2,70,0,0
91837,-90.9090909090909,4,2,1,70,0,0
92042,-90.9090909090909,4,2,3,70,0,0
94156,-90.9090909090909,4,2,2,70,0,0
96201,-90.9090909090909,4,2,3,70,0,0
97837,-90.9090909090909,4,2,2,70,0,0
98110,-90.9090909090909,4,2,3,70,0,0
98656,-90.9090909090909,4,2,2,70,0,0
100565,-90.9090909090909,4,2,3,70,0,0
100769,-90.9090909090909,4,2,10,70,0,0
100837,-90.9090909090909,4,2,3,70,0,0
103019,-90.9090909090909,4,2,2,70,0,0
104928,-90.9090909090909,4,2,1,70,0,0
104997,-90.9090909090909,4,2,10,70,0,0
105065,-90.9090909090909,4,2,4,70,0,0
105337,-90.9090909090909,4,2,3,70,0,0
105406,-90.9090909090909,4,2,10,70,0,0
105474,-90.9090909090909,4,2,2,70,0,0
105747,-90.9090909090909,4,2,1,70,0,0
105815,-90.9090909090909,4,2,10,70,0,0
105883,-90.9090909090909,4,2,2,70,0,0
106156,-90.9090909090909,4,2,1,70,0,0
106292,-90.9090909090909,4,2,2,70,0,0
106565,-90.9090909090909,4,2,1,70,0,0
107110,-90.9090909090909,4,2,3,70,0,0
113997,-90.9090909090909,4,2,10,70,0,0
114065,-90.9090909090909,4,2,3,70,0,0
114406,-90.9090909090909,4,2,10,70,0,0
114474,-90.9090909090909,4,2,3,70,0,0
114815,-90.9090909090909,4,2,10,70,0,0
114883,-90.9090909090909,4,2,3,70,0,0
115224,-90.9090909090909,4,2,10,70,0,0
115292,-90.9090909090909,4,2,2,70,0,0
115837,-90.9090909090909,4,2,1,70,0,0
116110,-90.9090909090909,4,2,3,70,0,0
124156,-90.9090909090909,4,2,2,70,0,0
124565,-90.9090909090909,4,2,3,60,0,0
124837,-90.9090909090909,4,2,5,60,0,0
125247,-90.9090909090909,4,2,1,60,0,0
125315,-90.9090909090909,4,2,5,60,0,0
129610,-90.9090909090909,4,2,1,60,0,0
129678,-90.9090909090909,4,2,5,60,0,0
132201,-90.9090909090909,4,2,3,60,0,0
132837,-90.9090909090909,4,2,2,60,0,0
133292,-90.9090909090909,4,2,3,60,0,0
133565,-90.9090909090909,4,2,5,60,0,0
133974,-90.9090909090909,4,2,1,60,0,0
134042,-90.9090909090909,4,2,5,60,0,0
138337,-90.9090909090909,4,2,1,60,0,0
138405,-90.9090909090909,4,2,5,60,0,0
139837,-90.9090909090909,4,2,3,60,0,0
140928,-90.9090909090909,4,2,1,60,0,0
142019,-90.9090909090909,4,2,3,60,0,0
144201,-90.9090909090909,4,2,1,60,0,0
145565,-90.9090909090909,4,2,2,60,0,0
146383,-90.9090909090909,4,2,3,80,0,1
154360,-90.9090909090909,4,2,2,80,0,1
155110,-90.9090909090909,4,2,3,80,0,1
162747,-90.9090909090909,4,2,2,80,0,1
163292,-90.9090909090909,4,2,3,80,0,1
163701,-90.9090909090909,4,2,3,80,0,0
163837,-90.9090909090909,4,2,3,70,0,1
163974,-90.9090909090909,4,2,2,70,0,0
166019,-90.9090909090909,4,2,3,70,0,0
168337,-90.9090909090909,4,2,2,70,0,0
170383,-90.9090909090909,4,2,3,70,0,0
172019,-90.9090909090909,4,2,2,70,0,0
172292,-90.9090909090909,4,2,3,70,0,0
172565,-90.9090909090909,4,2,1,70,0,0
172701,-90.9090909090909,4,2,2,70,0,0
174747,-90.9090909090909,4,2,3,70,0,0
177065,-90.9090909090909,4,2,2,70,0,0
179110,-90.9090909090909,4,2,1,70,0,0
179247,-90.9090909090909,4,2,4,70,0,0
179519,-90.9090909090909,4,2,1,70,0,0
179656,-90.9090909090909,4,2,2,70,0,0
179928,-90.9090909090909,4,2,1,70,0,0
180065,-90.9090909090909,4,2,2,70,0,0
180747,-90.9090909090909,4,2,3,70,0,0
181292,-90.9090909090909,4,2,2,70,0,0
182383,-90.9090909090909,4,2,3,70,0,0
182519,-90.9090909090909,4,2,2,70,0,0
182587,-90.9090909090909,4,2,3,70,0,0
182656,-90.9090909090909,4,2,2,70,0,0
183406,-90.9090909090909,4,2,3,70,0,0
188178,-90.9090909090909,4,2,1,70,0,0
188247,-90.9090909090909,4,2,3,70,0,0
188587,-90.9090909090909,4,2,1,70,0,0
188656,-90.9090909090909,4,2,3,70,0,0
188997,-90.9090909090909,4,2,1,70,0,0
189065,-90.9090909090909,4,2,3,70,0,0
189406,-90.9090909090909,4,2,1,70,0,0
189474,-90.9090909090909,4,2,2,70,0,0
190019,-90.9090909090909,4,2,3,70,0,0
196906,-90.9090909090909,4,2,1,70,0,0
196974,-90.9090909090909,4,2,3,70,0,0
197315,-90.9090909090909,4,2,1,70,0,0
197383,-90.9090909090909,4,2,3,70,0,0
197724,-90.9090909090909,4,2,1,70,0,0
197792,-90.9090909090909,4,2,3,70,0,0
198133,-90.9090909090909,4,2,1,70,0,0
198747,-90.9090909090909,4,2,3,70,0,0
199019,-90.9090909090909,4,2,5,70,0,0
200110,-90.9090909090909,4,2,1,70,0,0
200178,-90.9090909090909,4,2,5,70,0,0
206383,-90.9090909090909,4,2,3,70,0,0
207747,-90.9090909090909,4,2,5,70,0,0
214019,-90.9090909090909,4,2,3,70,0,0
215110,-90.9090909090909,4,2,1,70,0,0
216201,-90.9090909090909,4,2,3,70,0,0
218383,-90.9090909090909,4,2,1,70,0,0
219747,-90.9090909090909,4,2,2,70,0,0
220565,-90.9090909090909,4,2,3,80,0,1
228474,-90.9090909090909,4,2,1,80,0,1
228542,-90.9090909090909,4,2,2,80,0,1
229292,-90.9090909090909,4,2,3,80,0,1
236928,-90.9090909090909,4,2,2,80,0,1
237747,-90.9090909090909,4,2,1,80,0,1
238019,272.727272727273,3,2,3,70,1,0
240269,-100,3,2,3,50,0,0
240337,-100,3,2,3,50,0,0
240473,-100,3,2,2,70,0,0
241291,-100,3,2,3,70,0,0
241837,-100,3,2,2,70,0,0
242382,-100,3,2,3,70,0,0
244019,-100,3,2,2,70,0,0
244564,-100,3,2,5,70,0,0
250700,-100,3,2,2,70,0,0
251109,-100,3,2,5,70,0,0
257109,-100,3,2,2,70,0,0
257382,-100,3,2,3,70,0,0
257450,-100,3,2,2,70,0,0
257655,272.727272727273,4,2,3,70,1,0
257655,-133.333333333333,4,2,3,70,0,0
257791,-133.333333333333,4,2,4,70,0,0
258745,-133.333333333333,4,2,1,70,0,0
259018,-133.333333333333,4,2,4,70,0,0
259836,-133.333333333333,4,2,1,70,0,0
259973,-133.333333333333,4,2,4,70,0,0
260927,-100,4,2,1,70,0,0
261064,-100,4,2,2,70,0,0
261336,-100,4,2,3,70,0,0
261473,-100,4,2,2,70,0,0
261745,-100,4,2,1,70,0,0
262700,-100,4,2,4,70,0,0
263109,-100,4,2,1,70,0,0
263791,-100,4,2,4,70,0,0
264200,-100,4,2,3,70,0,0
265359,-100,4,2,10,70,0,0
265427,-100,4,2,2,70,0,0
266382,-80,4,2,3,70,0,0
266859,-80,4,2,5,70,0,0
266995,-80,4,2,3,70,0,0
267541,-80,4,2,4,70,0,0
267950,-80,4,2,5,70,0,0
268086,-80,4,2,3,70,0,0
268564,-100,4,2,3,70,0,0
269518,-80,4,2,3,70,0,0
269723,-80,4,2,4,70,0,0
270132,-80,4,2,5,70,0,0
270268,-80,4,2,3,70,0,0
270473,-100,4,2,3,70,0,0
274564,-100,4,2,2,70,0,0
275109,-80,4,2,3,70,0,0
275586,-80,4,2,5,70,0,0
275723,-80,4,2,3,70,0,0
275927,-100,4,2,3,70,0,0
278927,-80,4,2,5,70,0,0
279063,-80,4,2,3,70,0,0
279200,-100,4,2,3,70,0,0
288200,-100,4,2,3,75,0,1
288268,-100,4,2,3,75,0,0
305927,-38.4615384615385,4,2,3,75,0,0
306882,-100,4,2,3,75,0,0
307155,-37.037037037037,4,2,3,75,0,0
307564,-100,4,2,3,75,0,0
308109,-37.037037037037,4,2,3,75,0,0
308518,-100,4,2,3,75,0,0
310018,-90.9090909090909,4,2,3,75,0,0
313291,-37.037037037037,4,2,3,75,0,0
314109,-90.9090909090909,4,2,3,70,0,0
314655,-90.9090909090909,4,2,5,70,0,0
315064,-90.9090909090909,4,2,1,70,0,0
315132,-90.9090909090909,4,2,5,70,0,0
319427,-90.9090909090909,4,2,1,70,0,0
319495,-90.9090909090909,4,2,5,70,0,0
322018,-90.9090909090909,4,2,3,70,0,0
322564,-90.9090909090909,4,2,20,70,0,0
322836,-90.9090909090909,4,2,3,70,0,0
323245,-90.9090909090909,4,2,5,70,0,0
323791,-90.9090909090909,4,2,1,70,0,0
323859,-90.9090909090909,4,2,5,70,0,0
328155,-90.9090909090909,4,2,1,70,0,0
328223,-90.9090909090909,4,2,5,70,0,0
329655,-90.9090909090909,4,2,3,70,0,0
330745,-90.9090909090909,4,2,1,70,0,0
331836,-90.9090909090909,4,2,3,70,0,0
334018,-90.9090909090909,4,2,1,70,0,0
336200,-90.9090909090909,4,2,3,70,0,0
339745,-90.9090909090909,4,2,2,70,0,0
340564,-90.9090909090909,4,2,3,70,0,0
348655,-90.9090909090909,4,2,2,70,0,0
349018,-90.9090909090909,4,2,3,70,0,0
352836,-90.9090909090909,4,2,2,70,0,0
353109,-90.9090909090909,4,2,3,70,0,0
356927,-90.9090909090909,4,2,2,70,0,0
357609,-90.9090909090909,4,2,3,70,0,0
357677,-90.9090909090909,4,2,25,70,0,0
358018,-90.9090909090909,4,2,3,80,0,1
375405,-83.3333333333333,4,2,3,80,0,0
375473,-83.3333333333333,4,2,3,80,0,1
379836,-90.9090909090909,4,2,3,80,0,1
383109,-90.9090909090909,4,2,2,80,0,1
384132,-83.3333333333333,4,2,2,80,0,0
384200,-83.3333333333333,4,2,3,90,0,1
386382,-90.9090909090909,4,2,3,90,0,1
392655,-90.9090909090909,4,2,2,90,0,1
392791,-90.9090909090909,4,2,3,90,0,0
392927,-90.9090909090909,4,2,3,75,0,1
393064,-90.9090909090909,4,2,2,75,0,0
395109,-90.9090909090909,4,2,3,75,0,0
397427,-90.9090909090909,4,2,2,75,0,0
399473,-90.9090909090909,4,2,3,75,0,0
401109,-90.9090909090909,4,2,2,75,0,0
401382,-90.9090909090909,4,2,3,75,0,0
401655,-90.9090909090909,4,2,1,75,0,0
401791,-90.9090909090909,4,2,2,75,0,0
403836,-90.9090909090909,4,2,3,75,0,0
406155,-90.9090909090909,4,2,2,75,0,0
408200,-90.9090909090909,4,2,1,75,0,0
408336,-90.9090909090909,4,2,4,75,0,0
408609,-90.9090909090909,4,2,1,75,0,0
408677,-90.9090909090909,4,2,10,75,0,0
408745,-90.9090909090909,4,2,2,75,0,0
409018,-90.9090909090909,4,2,1,75,0,0
409086,-90.9090909090909,4,2,10,75,0,0
409155,-90.9090909090909,4,2,2,75,0,0
409427,-90.9090909090909,4,2,1,75,0,0
409564,-90.9090909090909,4,2,3,75,0,0
413859,-90.9090909090909,4,2,2,75,0,0
414064,-90.9090909090909,4,2,3,75,0,0
414268,-90.9090909090909,4,2,2,75,0,0
414473,-90.9090909090909,4,2,3,75,0,0
416927,-90.9090909090909,4,2,66,80,0,1
416995,-90.9090909090909,4,2,66,75,0,0
417200,-90.9090909090909,4,2,66,70,0,0
417609,-90.9090909090909,4,2,66,65,0,0
418155,-90.9090909090909,4,2,66,60,0,0
418700,-90.9090909090909,4,2,66,55,0,0
419245,-90.9090909090909,4,2,66,50,0,0
419655,-90.9090909090909,4,2,66,45,0,0
420200,-90.9090909090909,4,2,66,40,0,0
420745,-90.9090909090909,4,2,66,35,0,0
421018,-90.9090909090909,4,2,4,30,0,0
421291,-90.9090909090909,4,2,4,20,0,0

[Colours]
Combo1 : 219,199,102
Combo2 : 147,89,98
Combo3 : 192,61,100
Combo4 : 116,116,116

[HitObjects]
376,288,39482,6,0,L|368:128,1,153.99999694519,4|0,3:2|0:0,0:0:0:0:
176,160,40028,1,2,3:2:0:0:
368,344,40300,2,0,B|480:232|480:232|368:120,1,307.999993890381,10|2,0:0|3:2,0:0:0:0:
152,224,41119,6,0,L|160:64,1,153.99999694519,2|2,3:2|3:2,0:0:0:0:
272,104,41664,1,2,0:0:0:0:
56,352,41937,2,0,P|56:312|280:88,1,384.999992362976,10|0,0:0|0:0,0:0:0:0:
480,216,42755,6,0,L|360:96,2,153.99999694519,4|0|2,3:2|0:0|3:2,0:0:0:0:
256,200,43573,2,0,L|136:80,1,153.99999694519,10|2,0:0|0:0,0:0:0:0:
368,112,44119,1,2,0:0:0:0:
152,344,44391,6,0,B|40:232|40:232|152:120,1,307.999993890381,2|0,3:2|0:0,0:0:0:0:
368,296,45210,2,0,B|368:256|368:216|336:184|304:152|264:152|224:152|224:152|392:152,1,384.999992362976,10|0,0:0|0:0,0:0:0:0:
176,176,46028,5,4,3:1:0:0:
296,176,46300,2,0,B|304:96|304:96|288:24,1,153.99999694519,2|2,3:2|3:2,0:0:0:0:
72,240,46846,2,0,P|40:208|176:72,1,307.999993890381,10|2,0:0|0:0,0:0:0:0:
392,160,47664,5,2,3:2:0:0:
392,160,47937,2,0,L|280:48,1,153.99999694519,2|2,3:2|0:0,0:0:0:0:
64,296,48482,2,0,L|336:24,1,384.999992362976,10|0,0:0|0:0,0:0:0:0:
144,320,49300,6,0,B|32:208|32:208|144:96,1,307.999993890381,4|2,3:2|3:2,0:0:0:0:
360,224,50119,2,0,B|416:168|416:168|360:112,1,153.99999694519,10|0,0:0|0:0,0:0:0:0:
144,128,50664,1,2,0:0:0:0:
360,192,50937,6,0,P|400:192|480:112,2,153.99999694519,2|2|2,3:2|3:2|0:0,0:0:0:0:
144,176,51755,2,0,L|304:176,1,153.99999694519,10|2,0:0|0:0,0:0:0:0:
80,152,52300,1,2,0:0:0:0:
416,176,52573,5,12,3:0:0:0:
208,160,52846,1,12,0:3:0:0:
424,168,53119,1,12,0:3:0:0:
56,288,53391,2,0,P|56:248|232:72,1,307.999993890381,12|2,0:1|0:2,0:0:0:0:
448,208,54210,6,0,P|408:208|328:128,2,153.99999694519,2|2|2,3:2|3:2|0:0,0:0:0:0:
232,216,55028,2,0,B|112:216|112:216|232:208|232:208|88:208,1,384.999992362976,10|0,0:0|0:0,0:0:0:0:
296,208,55846,6,0,P|336:208|416:128,2,153.99999694519,4|0|2,3:2|0:0|3:2,0:0:0:0:
80,208,56664,2,0,L|200:88,1,153.99999694519,10|0,0:0|0:0,0:0:0:0:
408,128,57210,1,2,0:0:0:0:
184,288,57482,6,0,B|184:208|184:208|336:208|336:208|336:288,1,307.999993890381,2|2,3:2|0:0,0:0:0:0:
120,176,58300,1,10,0:0:0:0:
328,160,58573,1,2,0:3:0:0:
112,168,58846,1,2,0:3:0:0:
447,254,59119,6,0,L|335:142,1,153.99999694519,4|0,3:2|0:0,0:0:0:0:
112,128,59664,1,2,3:2:0:0:
328,232,59937,2,0,B|440:120|440:120|328:8,1,307.999993890381,10|2,0:0|0:0,0:0:0:0:
112,240,60755,6,0,P|152:240|232:160,2,153.99999694519,2|2|2,3:2|3:2|0:0,0:0:0:0:
328,336,61573,2,0,B|248:328|248:328|440:320|440:136,1,384.999992362976,10|0,0:0|0:0,0:0:0:0:
232,256,62391,6,0,B|112:248|112:248|216:240|216:240|128:232,1,307.999993890381,4|2,3:1|3:2,0:0:0:0:
352,208,63210,2,0,L|232:88,1,153.99999694519,10|0,0:0|0:0,0:0:0:0:
464,112,63755,1,2,0:0:0:0:
240,240,64028,6,0,P|200:240|120:160,2,153.99999694519,2|2|2,3:2|3:2|0:0,0:0:0:0:
456,176,64846,1,12,0:1:0:0:
248,232,65119,1,12,0:0:0:0:
464,168,65392,1,12,0:1:0:0:
64,192,65664,6,0,L|256:166,1,170.000003242493,4|2,0:2|3:0,0:0:0:0:
104,152,66073,1,2,3:0:0:0:
232,169,66210,1,2,3:0:0:0:
104,152,66346,1,2,3:0:0:0:
414,125,66482,6,0,L|222:146,1,170.000003242493,4|8,0:1|3:0,0:0:0:0:
126,130,66891,1,8,3:0:0:0:
246,144,67028,1,8,3:0:0:0:
365,161,67164,1,8,3:0:0:0:
147,247,67300,6,0,P|95:211|173:151,1,170.000003242493,4|8,0:0|0:3,0:0:0:0:
269,109,67710,1,8,0:3:0:0:
42,68,67846,1,8,0:3:0:0:
161,30,67982,1,8,0:3:0:0:
394,79,68119,6,0,L|401:239,1,127.50000243187,4|0,3:0|0:0,0:0:0:0:
246,175,68391,2,0,L|69:194,1,150,4|0,3:1|0:0,0:0:0:0:
267,174,68664,2,0,L|444:193,1,150,4|0,3:0|0:0,0:0:0:0:
224,324,68937,6,0,P|162:300|155:192,1,170.000003242493,4|2,0:2|3:0,0:0:0:0:
270,243,69346,1,2,3:0:0:0:
393,206,69482,1,2,3:0:0:0:
270,243,69619,1,2,3:0:0:0:
31,143,69755,6,0,L|229:114,1,170.000003242493,4|8,0:1|3:0,0:0:0:0:
80,101,70164,1,8,3:0:0:0:
198,116,70300,1,8,3:0:0:0:
80,101,70437,1,8,3:0:0:0:
331,86,70573,6,0,L|332:278,1,170.000003242493,4|8,0:0|0:1,0:0:0:0:
207,276,70982,1,8,0:1:0:0:
475,315,71119,1,8,0:1:0:0:
352,340,71255,1,8,0:1:0:0:
119,337,71391,6,0,P|79:308|141:235,1,150,4|0,3:0|0:0,0:0:0:0:
322,176,71664,2,0,L|169:159,1,150,4|0,3:1|0:0,0:0:0:0:
20,92,71937,2,0,L|173:75,1,150,4|0,3:0|0:0,0:0:0:0:
358,127,72210,6,0,P|323:202|218:228,1,170.000003242493,4|2,0:2|3:0,0:0:0:0:
125,227,72619,1,2,3:0:0:0:
243,231,72755,1,2,3:0:0:0:
361,235,72891,1,2,3:0:0:0:
131,127,73028,6,0,P|166:202|271:228,1,170.000003242493,4|8,0:1|3:0,0:0:0:0:
364,227,73437,1,8,3:0:0:0:
246,231,73573,1,8,3:0:0:0:
128,235,73709,1,8,3:0:0:0:
365,308,73846,6,0,L|165:299,1,170.000003242493,4|8,0:0|0:1,0:0:0:0:
75,292,74255,1,8,0:1:0:0:
318,209,74391,1,8,0:1:0:0:
198,202,74528,1,8,0:1:0:0:
404,212,74664,6,0,P|446:187|379:123,1,150,4|0,3:0|0:0,0:0:0:0:
180,125,74937,2,0,L|354:109,1,150,4|0,3:1|0:0,0:0:0:0:
488,222,75210,2,0,L|314:206,1,150,4|0,3:0|0:0,0:0:0:0:
156,307,75482,6,0,B|66:299|66:299|159:308|217:278|231:247|231:247|251:196|251:144|125:93,1,449.99998626709,4|0,3:1|0:0,0:0:0:0:
433,14,76300,2,0,B|440:374|440:374|448:269,1,449.99998626709,4|0,3:1|0:0,0:0:0:0:
205,314,77119,2,0,B|113:313|113:313|55:261|43:203|43:203|56:137|119:95|119:95|218:94,1,449.99998626709,4|0,3:1|0:0,0:0:0:0:
449,174,77937,6,0,P|435:122|320:80,1,150,12|0,3:0|0:0,0:0:0:0:
170,74,78210,2,0,L|13:73,1,150,12|0,3:0|0:0,0:0:0:0:
212,223,78482,2,0,L|367:223,1,150,12|0,3:0|0:0,0:0:0:0:
168,360,78747,6,0,B|59:380|-35:275|-3:150|91:98|172:116|172:116|171:115|171:115|281:109|281:109|280:109|280:109|171:115|171:115|170:115|170:115|171:115|171:115|17:122,1,770.000023498536,4|0,3:1|0:0,0:0:0:0:
256,184,79837,5,2,0:3:0:0:
456,129,80110,1,2,0:3:0:0:
256,184,80383,1,2,0:3:0:0:
56,129,80656,1,2,0:3:0:0:
464,384,80928,6,0,P|464:344|96:-24,1,600.000022888185
312,184,82156,1,8,0:1:0:0:
80,384,83110,6,0,P|80:344|400:24,1,525.000020027161,4|0,3:1|0:0,0:0:0:0:
184,144,84201,5,12,0:1:0:0:
312,144,84337,2,0,L|320:40,1,100,8|8,3:0|3:0,0:0:0:0:
96,96,84610,2,0,L|168:24,1,100,12|4,0:1|3:0,0:0:0:0:
296,24,84883,1,4,3:0:0:0:
72,136,85019,2,0,L|64:32,1,100,12|0,0:1|3:0,0:0:0:0:
320,152,85292,5,12,3:0:0:0:
192,152,85428,2,0,L|184:352,1,200,12|12,3:0|3:0,0:0:0:0:
392,312,85837,2,0,P|464:240|344:120,1,300,4|2,0:1|0:0,0:0:0:0:
120,152,86383,5,12,3:0:0:0:
248,152,86519,2,0,L|256:352,1,200,12|12,3:0|3:0,0:0:0:0:
48,312,86928,2,0,L|264:104,1,300,4|2,0:2|0:0,0:0:0:0:
48,200,87474,6,0,P|48:144|144:48,1,200,12|8,0:2|0:1,0:0:0:0:
280,48,87883,1,8,0:1:0:0:
144,104,88019,2,0,L|136:208,1,100,8|8,0:1|0:1,0:0:0:0:
376,144,88292,2,0,L|488:144,1,100,8|8,0:1|0:1,0:0:0:0:
152,240,88565,5,6,3:2:0:0:
272,240,88701,1,4,3:0:0:0:
152,240,88837,1,2,3:0:0:0:
88,240,88906,1,2,3:0:0:0:
56,240,88974,2,0,L|64:184,1,50,10|2,3:0|3:0,0:0:0:0:
280,120,89110,2,0,L|344:120,1,50,2|2,3:0|3:0,0:0:0:0:
248,104,89247,2,0,L|184:104,1,50,10|4,3:0|3:0,0:0:0:0:
416,160,89383,2,0,L|408:104,1,50,8|8,0:1|0:1,0:0:0:0:
192,160,89519,2,0,L|128:160,1,50,8|8,0:1|0:1,0:0:0:0:
400,256,89656,6,0,L|512:256,1,110.000003356934,4|8,3:0|3:1,0:0:0:0:
296,144,89928,2,0,L|344:96,1,55.0000016784668,2|0,3:2|3:0,0:0:0:0:
416,96,90065,1,8,3:1:0:0:
296,96,90201,1,2,3:2:0:0:
80,88,90337,1,8,3:1:0:0:
200,96,90474,2,0,L|208:40,1,55.0000016784668,2|0,3:2|3:0,0:0:0:0:
128,48,90610,1,8,3:1:0:0:
344,104,90747,6,0,L|224:104,1,110.000003356934,2|8,3:2|3:1,0:0:0:0:
352,72,91019,2,0,L|360:16,1,55.0000016784668,2|0,3:2|3:0,0:0:0:0:
184,168,91156,2,0,L|264:88,1,110.000003356934,8|2,3:1|3:2,0:0:0:0:
392,72,91428,1,8,3:1:0:0:
176,64,91565,1,2,3:2:0:0:
104,64,91633,2,0,L|64:24,1,55.0000016784668,0|8,3:0|3:1,0:0:0:0:
320,208,91837,6,0,P|376:208|376:112,1,165.000005035401,4|4,3:1|0:0,0:0:0:0:
184,168,92110,2,0,L|192:112,1,55.0000016784668,2|8,0:2|0:2,0:0:0:0:
280,128,92247,2,0,L|288:72,1,55.0000016784668,2|8,0:0|0:2,0:0:0:0:
96,112,92383,6,0,L|40:112,1,55.0000016784668,2|8,0:0|0:2,0:0:0:0:
128,80,92520,2,0,L|184:80,1,55.0000016784668,2|8,0:0|0:2,0:0:0:0:
264,88,92656,2,0,L|208:88,1,55.0000016784668,2|8,0:0|0:2,0:0:0:0:
128,88,92792,2,0,L|200:88,1,55.0000016784668,2|8,0:0|0:2,0:0:0:0:
376,176,92928,6,0,L|368:120,1,55.0000016784668,2|8,0:0|0:2,0:0:0:0:
288,128,93065,2,0,L|280:72,1,55.0000016784668,2|8,0:0|0:2,0:0:0:0:
360,80,93201,1,2,0:0:0:0:
440,72,93269,1,8,0:2:0:0:
464,40,93337,1,2,0:0:0:0:
440,72,93406,1,8,0:2:0:0:
200,128,93474,6,0,L|128:128,1,55.0000016784668,10|8,0:0|0:0,0:0:0:0:
384,136,93610,2,0,L|448:136,1,55.0000016784668,10|8,0:0|0:0,0:0:0:0:
200,104,93747,2,0,L|80:104,1,110.000003356934,8|8,0:0|0:1,0:0:0:0:
96,80,93951,1,8,0:1:0:0:
328,144,94019,6,0,L|448:144,1,110.000003356934,4|8,3:1|3:1,0:0:0:0:
224,160,94292,2,0,L|160:160,1,55.0000016784668,2|0,3:2|3:0,0:0:0:0:
232,144,94428,1,8,3:1:0:0:
112,128,94565,1,2,3:2:0:0:
328,104,94701,1,8,3:1:0:0:
208,96,94837,2,0,L|248:56,1,55.0000016784668,2|0,3:2|3:0,0:0:0:0:
328,48,94974,1,8,3:1:0:0:
112,216,95110,5,2,3:2:0:0:
224,216,95247,1,8,3:1:0:0:
320,120,95383,2,0,L|256:120,1,55.0000016784668,2|0,3:2|3:0,0:0:0:0:
80,128,95519,1,8,3:1:0:0:
200,128,95656,1,2,3:2:0:0:
88,120,95792,1,8,3:1:0:0:
304,88,95928,2,0,L|264:48,1,55.0000016784668,2|0,3:2|3:0,0:0:0:0:
184,40,96065,1,8,3:1:0:0:
400,224,96201,6,0,L|408:168,1,55.0000016784668,12|0,1:0|0:0,0:0:0:0:
328,160,96337,2,0,L|288:120,1,55.0000016784668,0|0,3:0|3:0,0:0:0:0:
208,120,96474,2,0,L|136:120,1,55.0000016784668,0|0,3:0|3:0,0:0:0:0:
376,96,96610,6,0,L|464:96,1,55.0000016784668,12|0,1:3|0:0,0:0:0:0:
352,80,96747,2,0,L|280:80,1,55.0000016784668,0|0,3:0|3:0,0:0:0:0:
376,72,96883,2,0,L|448:72,1,55.0000016784668,0|0,3:0|3:0,0:0:0:0:
208,240,97019,6,0,L|224:176,1,55.0000016784668,12|0,1:0|0:0,0:0:0:0:
304,200,97156,2,0,L|320:144,1,55.0000016784668,0|0,3:0|3:0,0:0:0:0:
400,184,97292,2,0,L|416:128,1,55.0000016784668,0|0,3:0|3:0,0:0:0:0:
192,112,97428,6,0,L|128:112,1,55.0000016784668,12|0,1:0|0:0,0:0:0:0:
224,88,97565,2,0,L|240:32,1,55.0000016784668,0|0,3:0|3:0,0:0:0:0:
152,56,97701,2,0,L|136:112,1,55.0000016784668,0|0,3:0|3:0,0:0:0:0:
360,240,97837,5,2,3:0:0:0:
424,240,97906,1,2,3:0:0:0:
456,240,97974,2,0,L|448:184,1,55.0000016784668,2|2,3:0|3:0,0:0:0:0:
224,120,98110,2,0,L|160:120,1,55.0000016784668,8|8,3:0|3:0,0:0:0:0:
392,120,98247,2,0,L|456:120,1,55.0000016784668,8|8,3:0|3:0,0:0:0:0:
172,221,98383,6,0,L|51:241,1,110.000003356934,12|0,3:0|3:0,0:0:0:0:
323,152,98656,2,0,L|252:143,1,55.0000016784668,2|0,3:2|3:0,0:0:0:0:
199,157,98792,1,8,3:1:0:0:
444,207,98928,2,0,L|458:343,1,110.000003356934,2|8,3:2|3:1,0:0:0:0:
320,303,99201,2,0,L|391:294,1,55.0000016784668,2|0,3:2|3:0,0:0:0:0:
444,308,99337,1,8,3:1:0:0:
184,217,99474,6,0,L|319:204,1,110.000003356934,2|8,3:2|3:1,0:0:0:0:
86,126,99747,2,0,L|22:118,1,55.0000016784668,2|0,3:2|3:0,0:0:0:0:
182,116,99883,2,0,L|312:102,1,110.000003356934,8|2,3:1|3:2,0:0:0:0:
182,116,100156,1,8,3:1:0:0:
404,105,100292,2,0,L|482:96,2,55.0000016784668,2|0|8,3:2|3:0|3:1,0:0:0:0:
179,245,100565,6,0,P|124:219|195:177,1,165.000005035401,4|0,3:1|0:0,0:0:0:0:
345,75,100837,2,0,L|340:162,1,55.0000016784668,2|8,0:2|0:2,0:0:0:0:
262,111,100974,2,0,L|257:198,1,55.0000016784668,2|8,0:0|0:2,0:0:0:0:
413,195,101110,6,0,L|490:202,1,55.0000016784668,2|8,0:0|0:2,0:0:0:0:
267,268,101247,2,0,L|190:275,1,55.0000016784668,2|8,0:0|0:2,0:0:0:0:
406,309,101383,1,2,0:0:0:0:
461,297,101451,1,8,0:2:0:0:
481,245,101519,1,2,0:0:0:0:
457,193,101587,1,8,0:2:0:0:
255,213,101656,6,0,L|237:131,1,55.0000016784668,2|8,0:0|0:2,0:0:0:0:
404,117,101792,2,0,L|316:109,1,55.0000016784668,2|8,0:0|0:2,0:0:0:0:
171,138,101928,2,0,L|160:74,1,55.0000016784668,2|8,0:0|0:2,0:0:0:0:
243,80,102065,2,0,L|310:81,1,55.0000016784668,2|8,0:0|0:2,0:0:0:0:
122,213,102201,6,0,L|30:212,1,55.0000016784668,10|8,0:0|0:0,0:0:0:0:
259,297,102337,2,0,L|351:296,1,55.0000016784668,10|8,0:0|0:0,0:0:0:0:
122,362,102474,2,0,L|112:245,1,110.000003356934,8|8,0:0|0:1,0:0:0:0:
170,242,102678,1,8,0:1:0:0:
360,156,102747,6,0,L|209:136,1,110.000003356934,4|8,3:1|3:1,0:0:0:0:
463,117,103019,2,0,L|456:44,1,55.0000016784668,2|0,3:2|3:0,0:0:0:0:
387,40,103156,1,8,3:1:0:0:
152,156,103292,2,0,L|303:136,1,110.000003356934,2|8,3:2|3:1,0:0:0:0:
49,117,103564,2,0,L|56:44,1,55.0000016784668,2|0,3:2|3:0,0:0:0:0:
125,40,103701,1,8,3:1:0:0:
377,93,103837,6,0,L|250:79,1,110.000003356934,2|8,3:2|3:1,0:0:0:0:
378,184,104110,2,0,L|446:173,1,55.0000016784668,2|0,3:2|3:0,0:0:0:0:
248,272,104247,2,0,L|139:287,1,110.000003356934,8|2,3:1|3:2,0:0:0:0:
260,282,104519,2,0,L|265:209,1,55.0000016784668,8|0,3:1|0:0,0:0:0:0:
72,136,104656,2,0,L|181:121,1,110.000003356934,2|8,3:2|3:1,0:0:0:0:
419,204,104928,5,4,3:1:0:0:
192,212,105065,2,0,L|115:202,1,55.0000016784668,2|2,0:3|0:3,0:0:0:0:
363,122,105201,2,0,L|369:52,1,55.0000016784668,2|0,0:3|0:0,0:0:0:0:
184,89,105337,5,2,3:3:0:0:
299,154,105474,2,0,L|294:52,1,55.0000016784668,2|2,0:3|0:3,0:0:0:0:
135,20,105610,2,0,L|207:11,1,55.0000016784668,2|0,0:3|0:0,0:0:0:0:
391,190,105747,6,0,L|396:326,1,110.000003356934,4|8,0:2|0:3,0:0:0:0:
281,305,106019,2,0,L|208:294,1,55.0000016784668,8|8,0:3|0:3,0:0:0:0:
82,337,106156,6,0,L|74:243,1,55.0000016784668,4|0,3:0|0:0,0:0:0:0:
215,203,106292,2,0,L|300:189,1,55.0000016784668,4|4,3:0|3:0,0:0:0:0:
136,200,106428,1,4,3:0:0:0:
94,166,106497,1,4,3:0:0:0:
77,114,106565,5,4,0:1:0:0:
96,63,106633,1,0,3:0:0:0:
168,48,106701,2,0,L|251:47,1,55.0000016784668,0|0,3:0|3:0,0:0:0:0:
368,144,106837,2,0,L|429:143,1,55.0000016784668,8|8,0:1|0:1,0:0:0:0:
237,156,106974,2,0,L|176:155,1,55.0000016784668,8|8,0:1|0:1,0:0:0:0:
374,224,107110,6,0,L|494:237,1,110.000003356934,4|8,3:1|0:1,0:0:0:0:
291,340,107383,2,0,L|283:265,1,55.0000016784668,2|0,3:2|3:0,0:0:0:0:
354,257,107519,1,8,0:1:0:0:
217,248,107656,2,0,L|97:261,1,110.000003356934,2|8,3:2|0:1,0:0:0:0:
336,140,107928,2,0,L|273:133,1,55.0000016784668,2|0,3:2|3:0,0:0:0:0:
216,147,108065,1,8,0:1:0:0:
459,68,108201,6,0,L|470:215,1,110.000003356934,2|0,3:2|0:0,0:0:0:0:
208,265,108474,2,0,L|271:258,1,55.0000016784668,2|0,3:2|3:0,0:0:0:0:
328,272,108611,1,8,0:1:0:0:
204,182,108747,1,2,3:2:0:0:
331,124,108883,2,0,L|258:119,1,55.0000016784668,8|0,0:1|0:0,0:0:0:0:
117,189,109019,2,0,L|-4:186,1,110.000003356934,2|8,3:2|0:1,0:0:0:0:
321,148,109292,6,0,L|328:263,1,110.000003356934,4|8,3:1|0:1,0:0:0:0:
94,277,109565,2,0,L|157:270,1,55.0000016784668,2|0,3:2|3:0,0:0:0:0:
214,284,109702,1,8,0:1:0:0:
406,193,109837,2,0,L|326:198,1,55.0000016784668,2|0,3:2|0:0,0:0:0:0:
182,184,109974,1,8,0:1:0:0:
393,301,110110,2,0,L|507:295,1,110.000003356934,2|8,3:2|0:1,0:0:0:0:
196,241,110383,6,0,L|188:102,1,110.000003356934,2|8,3:2|0:1,0:0:0:0:
476,117,110656,2,0,L|396:122,1,55.0000016784668,2|0,3:2|3:0,0:0:0:0:
186,95,110792,2,0,L|314:91,1,110.000003356934,8|2,0:1|3:2,0:0:0:0:
186,95,111065,1,8,0:1:0:0:
428,220,111201,2,0,L|503:212,2,55.0000016784668,2|0|8,3:2|3:0|0:1,0:0:0:0:
166,201,111474,6,0,L|56:204,1,110.000003356934,4|8,3:3|0:1,0:0:0:0:
298,148,111747,2,0,L|286:69,1,55.0000016784668,2|0,3:2|3:0,0:0:0:0:
216,69,111883,1,8,0:1:0:0:
356,57,112019,2,0,L|465:60,1,110.000003356934,2|8,3:2|0:1,0:0:0:0:
219,284,112292,2,0,L|292:276,1,55.0000016784668,2|0,3:2|3:0,0:0:0:0:
345,306,112428,1,8,0:1:0:0:
86,235,112565,6,0,L|209:220,1,110.000003356934,2|8,3:2|0:1,0:0:0:0:
426,235,112837,1,2,3:2:0:0:
375,228,112905,1,0,3:0:0:0:
316,221,112973,1,8,0:1:0:0:
72,293,113110,2,0,L|62:171,1,110.000003356934,2|8,3:2|0:1,0:0:0:0:
190,119,113383,2,0,L|123:114,1,55.0000016784668,2|0,3:2|3:0,0:0:0:0:
64,135,113519,1,8,0:1:0:0:
317,177,113656,5,12,0:1:0:0:
66,233,113792,2,0,L|201:217,1,110.000003356934
423,147,114065,1,12,0:3:0:0:
316,90,114201,1,0,0:0:0:0:
419,51,114337,1,0,0:0:0:0:
184,198,114474,5,12,0:1:0:0:
435,254,114610,2,0,L|300:238,1,110.000003356934
44,165,114883,1,12,3:1:0:0:
162,109,115019,1,0,0:0:0:0:
44,71,115155,1,0,0:0:0:0:
277,135,115292,6,0,L|349:146,1,55.0000016784668,2|2,3:0|3:0,0:0:0:0:
253,142,115428,2,0,L|244:217,1,55.0000016784668,2|2,3:0|3:0,0:0:0:0:
387,269,115565,2,0,L|478:274,1,55.0000016784668,8|4,3:0|3:0,0:0:0:0:
244,333,115701,2,0,L|158:339,1,55.0000016784668,8|8,0:1|0:1,0:0:0:0:
376,176,115837,6,0,L|488:176,1,110.000003356934,4|8,3:1|0:1,0:0:0:0:
280,144,116110,2,0,L|288:88,1,55.0000016784668,2|0,3:2|3:0,0:0:0:0:
360,88,116247,1,8,0:1:0:0:
240,80,116383,1,2,3:2:0:0:
368,80,116519,1,8,0:1:0:0:
160,88,116656,1,2,3:2:0:0:
88,88,116724,2,0,L|48:48,1,55.0000016784668,0|8,3:0|0:1,0:0:0:0:
272,144,116928,6,0,L|392:144,1,110.000003356934,2|8,3:2|0:1,0:0:0:0:
256,112,117201,2,0,L|192:112,1,55.0000016784668,2|0,3:2|3:0,0:0:0:0:
264,104,117337,1,8,0:1:0:0:
64,200,117474,2,0,L|72:88,1,110.000003356934,2|8,3:2|0:1,0:0:0:0:
280,104,117747,2,0,L|240:64,1,55.0000016784668,2|0,3:2|3:0,0:0:0:0:
168,64,117883,1,8,0:1:0:0:
368,96,118019,6,0,L|480:96,1,110.000003356934,4|8,3:1|0:1,0:0:0:0:
264,152,118292,2,0,L|304:112,1,55.0000016784668,2|0,3:2|3:0,0:0:0:0:
376,104,118428,1,8,0:1:0:0:
256,80,118565,1,2,3:2:0:0:
384,80,118701,1,8,0:1:0:0:
176,104,118837,2,0,L|112:104,1,55.0000016784668,2|0,3:2|3:0,0:0:0:0:
184,96,118974,1,8,0:1:0:0:
432,168,119110,5,2,3:2:0:0:
312,168,119247,1,8,0:1:0:0:
440,160,119383,2,0,L|448:104,1,55.0000016784668,2|0,3:2|3:0,0:0:0:0:
376,112,119519,1,8,0:1:0:0:
168,216,119656,2,0,L|304:216,1,110.000003356934,4|8,0:1|0:0,0:0:0:0:
72,168,119928,1,4,0:3:0:0:
296,160,120065,1,8,0:0:0:0:
48,256,120201,6,0,L|40:144,1,110.000003356934,4|8,3:3|0:1,0:0:0:0:
160,168,120474,2,0,L|120:128,1,55.0000016784668,2|0,3:2|0:0,0:0:0:0:
48,120,120610,1,8,0:1:0:0:
264,96,120747,1,2,3:2:0:0:
152,96,120883,1,8,0:1:0:0:
272,88,121019,2,0,L|280:32,1,55.0000016784668,2|0,3:2|0:0,0:0:0:0:
208,32,121156,1,8,0:1:0:0:
416,192,121292,6,0,L|424:80,1,110.000003356934,2|8,3:2|0:1,0:0:0:0:
224,144,121565,2,0,L|272:96,1,55.0000016784668,2|0,3:2|3:0,0:0:0:0:
336,96,121701,1,8,0:1:0:0:
120,256,121837,1,2,3:2:0:0:
240,256,121974,1,8,0:1:0:0:
112,248,122110,2,0,L|32:248,1,55.0000016784668,2|0,3:2|3:0,0:0:0:0:
120,240,122247,1,8,0:1:0:0:
440,144,122383,5,12,0:1:0:0:
320,144,122519,1,0,0:0:0:0:
448,136,122656,1,0,0:0:0:0:
208,168,122792,2,0,L|288:88,1,110.000003356934,12|0,0:1|0:0,0:0:0:0:
408,80,123065,1,0,0:0:0:0:
168,176,123201,5,12,0:1:0:0:
288,176,123337,2,0,L|296:64,1,110.000003356934
56,136,123610,1,12,0:1:0:0:
176,136,123746,1,0,0:0:0:0:
48,128,123883,1,0,0:0:0:0:
288,184,124019,6,0,L|408:184,1,110.000003356934,12|2,0:3|3:0,0:0:0:0:
352,160,124224,1,2,3:0:0:0:
272,152,124292,2,0,L|280:208,1,55.0000016784668,8|8,3:0|3:0,0:0:0:0:
360,120,124428,2,0,L|304:120,1,55.0000016784668,4|4,3:0|3:0,0:0:0:0:
88,216,124565,6,0,P|48:176|144:80,1,220.000006713867,4|0,3:0|0:0,0:0:0:0:
256,80,124974,1,0,3:0:0:0:
376,240,125110,2,0,P|416:200|320:104,1,220.000006713867,12|0,0:2|3:0,0:0:0:0:
208,104,125519,1,0,3:0:0:0:
328,248,125656,6,0,L|320:24,1,220.000006713867,4|0,0:0|0:0,0:0:0:0:
200,128,126065,1,0,3:0:0:0:
320,128,126201,2,0,L|328:240,1,110.000003356934,12|0,0:0|0:0,0:0:0:0:
448,128,126474,2,0,L|440:240,1,110.000003356934,0|0,3:0|3:0,0:0:0:0:
152,248,126747,6,0,P|152:192|264:80,1,220.000006713867
376,248,127156,2,0,P|376:192|264:80,1,220.000006713867
144,200,127565,1,0,3:0:0:0:
264,208,127701,2,0,L|272:96,1,110.000003356934,0|4,3:0|0:0,0:0:0:0:
64,88,127974,5,8,3:2:0:0:
184,88,128110,1,0,0:0:0:0:
56,80,128247,1,0,3:0:0:0:
256,112,128383,2,0,L|248:232,1,110.000003356934,12|0,0:0|0:0,0:0:0:0:
448,184,128656,2,0,L|456:72,1,110.000003356934,0|0,3:0|3:0,0:0:0:0:
192,280,128928,6,0,P|136:280|136:152,1,220.000006713867,4|0,3:2|0:0,0:0:0:0:
264,136,129337,1,0,3:0:0:0:
136,240,129474,2,0,L|328:48,1,220.000006713867,12|0,0:0|3:0,0:0:0:0:
168,88,129883,1,0,3:0:0:0:
296,296,130019,6,0,L|136:136,1,220.000006713867,4|0,0:2|0:0,0:0:0:0:
264,128,130428,1,0,3:0:0:0:
136,120,130565,2,0,L|144:232,1,110.000003356934,12|0,0:0|0:0,0:0:0:0:
344,128,130837,2,0,L|456:128,1,110.000003356934,0|0,3:0|3:0,0:0:0:0:
176,208,131110,5,4,0:2:0:0:
296,208,131246,1,2,0:0:0:0:
168,200,131383,1,2,0:0:0:0:
376,136,131519,1,2,3:2:0:0:
256,128,131656,2,0,L|264:16,1,110.000003356934,14|2,0:0|0:0,0:0:0:0:
472,96,131928,2,0,L|360:96,1,110.000003356934,2|2,3:2|3:2,0:0:0:0:
96,160,132201,5,6,3:0:0:0:
296,144,132747,2,0,L|304:64,1,73.3333355712891,2|2,0:3|0:3,0:0:0:0:
216,72,132928,1,2,0:3:0:0:
128,144,133019,2,0,L|120:64,1,73.3333355712891,8|4,0:3|0:3,0:0:0:0:
208,72,133200,1,4,0:3:0:0:
432,248,133292,6,0,P|432:192|320:80,1,220.000006713867,4|0,3:0|0:0,0:0:0:0:
200,104,133701,1,0,3:0:0:0:
72,248,133837,2,0,P|72:192|184:80,1,220.000006713867,12|0,0:2|3:0,0:0:0:0:
312,72,134247,1,0,3:0:0:0:
184,272,134383,6,0,L|192:48,1,220.000006713867,4|0,0:0|0:0,0:0:0:0:
64,88,134792,1,0,3:0:0:0:
192,112,134928,2,0,L|200:224,1,110.000003356934,12|0,0:0|0:0,0:0:0:0:
72,240,135201,2,0,L|80:128,1,110.000003356934,0|0,3:0|3:0,0:0:0:0:
320,224,135474,6,0,P|376:224|376:96,1,220.000006713867,4|0,3:2|0:0,0:0:0:0:
248,216,135883,2,0,P|192:216|192:88,1,220.000006713867,0|0,3:0|0:0,0:0:0:0:
320,80,136292,1,0,3:0:0:0:
192,64,136428,2,0,L|200:176,1,110.000003356934,0|4,3:0|0:0,0:0:0:0:
416,176,136701,6,0,L|336:96,1,110.000003356934,10|0,3:2|0:0,0:0:0:0:
208,80,136974,1,0,3:0:0:0:
424,88,137110,2,0,L|432:208,1,110.000003356934,12|0,0:0|0:0,0:0:0:0:
208,200,137383,2,0,L|328:200,1,110.000003356934,0|0,3:0|3:0,0:0:0:0:
88,232,137656,6,0,P|88:176|200:64,1,220.000006713867,4|0,3:2|0:0,0:0:0:0:
320,128,138065,1,0,3:0:0:0:
192,256,138201,2,0,L|360:88,1,220.000006713867,12|0,0:0|3:0,0:0:0:0:
224,112,138610,1,0,3:0:0:0:
352,256,138747,6,0,L|192:96,1,220.000006713867,4|0,0:2|0:0,0:0:0:0:
320,104,139156,1,0,3:0:0:0:
192,112,139292,2,0,L|200:224,1,110.000003356934,12|0,0:0|0:0,0:0:0:0:
424,224,139565,2,0,L|432:112,1,110.000003356934,0|0,3:0|3:0,0:0:0:0:
208,152,139837,5,4,0:1:0:0:
328,152,139974,2,0,L|320:40,1,110.000003356934,0|8,0:0|0:1,0:0:0:0:
112,200,140247,2,0,L|208:104,1,110.000003356934,4|0,3:3|0:0,0:0:0:0:
312,104,140519,1,8,0:1:0:0:
104,200,140656,2,0,L|112:88,1,110.000003356934,8|0,0:1|3:0,0:0:0:0:
368,152,140928,5,12,0:0:0:0:
256,152,141065,1,0,3:0:0:0:
376,144,141201,1,4,3:0:0:0:
160,144,141337,1,12,0:0:0:0:
272,144,141474,1,0,3:0:0:0:
152,136,141610,1,4,3:0:0:0:
368,144,141747,1,12,0:0:0:0:
152,144,141883,1,4,3:0:0:0:
432,256,142019,6,0,L|440:144,1,110.000003356934,4|0,0:2|3:0,0:0:0:0:
232,120,142292,1,8,3:1:0:0:
344,120,142428,2,0,L|352:8,1,110.000003356934,0|0,3:0|3:0,0:0:0:0:
144,208,142701,1,8,3:1:0:0:
256,208,142837,2,0,L|264:96,1,110.000003356934,0|0,3:0|3:0,0:0:0:0:
56,120,143110,5,8,3:0:0:0:
176,120,143247,1,0,3:0:0:0:
48,112,143383,1,0,3:0:0:0:
255,106,143519,1,8,3:0:0:0:
135,106,143656,1,0,3:0:0:0:
263,98,143792,1,0,3:0:0:0:
464,168,143928,2,0,L|456:280,1,110.000003356934,8|0,3:0|3:0,0:0:0:0:
224,160,144201,6,0,L|104:160,1,110.000003356934,4|0,3:0|3:0,0:0:0:0:
344,128,144474,2,0,L|352:256,1,110.000003356934,8|0,3:1|3:0,0:0:0:0:
224,112,144747,1,4,3:0:0:0:
352,128,144883,2,0,L|344:248,1,110.000003356934,0|8,3:0|3:1,0:0:0:0:
472,112,145156,1,0,3:0:0:0:
104,200,145292,6,0,L|96:128,1,55.0000016784668,8|8,0:1|0:1,0:0:0:0:
176,144,145428,2,0,L|184:88,1,55.0000016784668,4|4,3:0|3:0,0:0:0:0:
104,88,145565,2,0,L|168:88,1,55.0000016784668,8|8,0:1|0:1,0:0:0:0:
240,88,145701,2,0,L|328:88,1,55.0000016784668,8|8,0:1|0:1,0:0:0:0:
72,208,145837,6,0,L|64:152,1,55.0000016784668,2|2,3:0|3:0,0:0:0:0:
144,168,145974,2,0,L|208:168,1,55.0000016784668,2|2,3:0|3:0,0:0:0:0:
424,176,146110,2,0,L|344:176,1,55.0000016784668,8|8,3:0|3:0,0:0:0:0:
144,136,146247,2,0,L|80:136,1,55.0000016784668,4|4,3:0|3:0,0:0:0:0:
340,289,146383,6,0,L|467:285,1,110.000003356934,14|0,3:0|3:0,0:0:0:0:
313,208,146656,1,10,3:0:0:0:
178,190,146792,1,0,3:2:0:0:
237,177,146860,1,0,3:0:0:0:
386,118,146928,1,10,3:0:0:0:
377,101,147065,2,0,L|288:94,1,55.0000016784668,0|0,3:0|3:0,0:0:0:0:
164,150,147201,2,0,L|43:140,1,110.000003356934,10|0,3:0|3:0,0:0:0:0:
289,262,147474,6,0,L|410:248,1,110.000003356934,10|0,3:0|3:0,0:0:0:0:
248,214,147747,2,0,L|114:199,1,110.000003356934,10|0,3:0|3:2,0:0:0:0:
198,193,147951,1,0,3:0:0:0:
386,80,148019,2,0,L|394:237,1,110.000003356934,10|0,3:0|3:0,0:0:0:0:
330,197,148224,1,0,3:0:0:0:
180,102,148292,2,0,L|46:87,1,110.000003356934,10|0,3:0|3:0,0:0:0:0:
298,263,148565,6,0,L|437:246,1,110.000003356934,10|0,3:0|3:0,0:0:0:0:
179,161,148837,2,0,L|40:144,1,110.000003356934,10|0,3:0|3:0,0:0:0:0:
134,130,149041,1,0,3:0:0:0:
318,45,149110,2,0,L|317:188,1,110.000003356934,10|0,3:0|3:0,0:0:0:0:
250,155,149315,1,0,3:0:0:0:
52,229,149383,2,0,L|169:236,1,110.000003356934,10|0,3:3|3:0,0:0:0:0:
227,237,149587,1,0,3:0:0:0:
440,243,149656,5,14,3:0:0:0:
227,237,149792,2,0,L|219:144,1,55.0000016784668,0|0,3:0|3:0,0:0:0:0:
412,164,149928,2,0,P|452:152|477:77,1,110.000003356934,10|0,3:0|3:0,0:0:0:0:
415,76,150133,1,0,3:0:0:0:
253,102,150201,2,0,L|110:88,1,110.000003356934,10|0,3:0|3:0,0:0:0:0:
204,98,150406,1,0,3:0:0:0:
419,226,150474,2,0,L|267:214,1,110.000003356934,10|0,3:0|3:0,0:0:0:0:
92,271,150747,5,12,3:1:0:0:
203,243,150883,2,0,L|209:175,1,55.0000016784668,0|0,3:0|3:0,0:0:0:0:
26,123,151019,2,0,L|162:100,1,110.000003356934,10|0,3:0|3:0,0:0:0:0:
273,217,151292,1,10,3:0:0:0:
152,189,151428,2,0,L|146:121,1,55.0000016784668,0|0,3:0|3:0,0:0:0:0:
343,97,151564,2,0,L|489:75,1,110.000003356934,10|0,3:0|3:0,0:0:0:0:
238,273,151837,6,0,L|143:260,1,55.0000016784668,10|0,3:0|3:0,0:0:0:0:
364,206,151974,2,0,L|371:125,1,55.0000016784668,0|0,3:0|3:0,0:0:0:0:
173,85,152110,2,0,L|305:64,1,110.000003356934,10|0,3:0|3:0,0:0:0:0:
56,120,152383,1,10,3:0:0:0:
304,81,152519,2,0,L|232:95,1,55.0000016784668,0|0,3:0|3:0,0:0:0:0:
36,104,152655,2,0,L|168:83,1,110.000003356934,10|0,3:0|3:0,0:0:0:0:
364,326,152928,6,0,L|500:325,1,110.000003356934,12|0,3:1|3:0,0:0:0:0:
328,267,153201,2,0,P|272:242|261:171,1,110.000003356934,10|0,3:0|3:0,0:0:0:0:
315,184,153406,1,0,3:0:0:0:
465,126,153474,2,0,L|319:106,1,110.000003356934,10|0,3:0|3:0,0:0:0:0:
46,142,153747,2,0,L|174:120,1,110.000003356934,10|0,3:0|3:0,0:0:0:0:
469,234,154019,6,0,L|401:223,1,55.0000016784668,12|0,3:1|3:0,0:0:0:0:
254,177,154156,2,0,L|338:170,1,55.0000016784668,0|0,3:0|3:1,0:0:0:0:
468,107,154292,2,0,L|474:192,1,55.0000016784668,8|0,3:0|3:0,0:0:0:0:
299,187,154428,2,0,L|296:269,1,55.0000016784668,8|8,3:1|3:0,0:0:0:0:
463,326,154565,2,0,L|408:328,1,55.0000016784668,2|2,3:0|3:0,0:0:0:0:
182,344,154701,1,4,3:0:0:0:
429,341,154837,2,0,L|434:202,1,110.000003356934,8|0,1:0|3:1,0:0:0:0:
181,236,155110,6,0,L|56:237,1,110.000003356934,12|0,3:0|3:0,0:0:0:0:
323,172,155383,1,10,3:0:0:0:
193,132,155519,2,0,L|189:186,1,55.0000016784668,0|0,3:2|3:0,0:0:0:0:
346,268,155656,2,0,L|488:250,1,110.000003356934,10|0,3:0|3:0,0:0:0:0:
397,236,155860,1,0,3:0:0:0:
248,102,155928,2,0,L|106:84,1,110.000003356934,10|0,3:0|3:0,0:0:0:0:
197,70,156132,1,0,3:0:0:0:
373,39,156201,6,0,L|377:178,1,110.000003356934,10|0,3:0|3:0,0:0:0:0:
249,214,156474,1,10,3:0:0:0:
380,164,156610,2,0,L|299:158,1,55.0000016784668,0|0,3:2|3:0,0:0:0:0:
107,72,156747,2,0,L|99:229,1,110.000003356934,10|0,3:0|3:0,0:0:0:0:
163,189,156952,1,0,3:0:0:0:
313,94,157019,2,0,L|447:79,1,110.000003356934,10|0,3:0|3:0,0:0:0:0:
368,111,157224,1,0,3:0:0:0:
197,305,157292,6,0,L|331:290,1,110.000003356934,12|0,3:1|3:0,0:0:0:0:
41,218,157565,2,0,L|29:70,1,110.000003356934,10|0,3:0|3:0,0:0:0:0:
91,96,157769,1,0,3:0:0:0:
268,92,157837,2,0,L|129:63,1,110.000003356934,10|0,3:0|3:0,0:0:0:0:
218,50,158042,1,0,3:0:0:0:
388,174,158110,2,0,L|400:26,1,110.000003356934,10|0,3:0|3:0,0:0:0:0:
338,52,158314,1,0,3:0:0:0:
117,163,158383,5,10,3:0:0:0:
336,131,158519,2,0,L|408:134,1,55.0000016784668,0|0,3:0|3:0,0:0:0:0:
188,247,158656,2,0,L|48:243,1,110.000003356934,10|0,3:0|3:0,0:0:0:0:
138,245,158860,1,0,3:0:0:0:
333,298,158928,2,0,P|376:280|407:195,1,110.000003356934,10|0,3:0|3:0,0:0:0:0:
349,207,159133,1,0,3:0:0:0:
170,118,159201,2,0,L|286:120,1,110.000003356934,12|0,3:1|3:0,0:0:0:0:
79,172,159474,5,12,3:1:0:0:
282,121,159610,2,0,L|287:197,1,55.0000016784668,0|0,3:0|3:0,0:0:0:0:
79,172,159747,1,10,3:0:0:0:
191,208,159883,1,0,3:0:0:0:
79,172,160019,1,10,3:0:0:0:
280,247,160156,2,0,L|285:323,1,55.0000016784668,0|0,3:0|3:0,0:0:0:0:
77,298,160293,1,10,3:0:0:0:
199,335,160429,1,0,3:0:0:0:
459,228,160565,6,0,L|363:218,1,55.0000016784668,10|0,3:0|3:0,0:0:0:0:
201,225,160701,2,0,L|134:220,1,55.0000016784668,0|0,3:0|3:0,0:0:0:0:
359,129,160837,2,0,L|484:142,1,110.000003356934,10|0,3:0|3:0,0:0:0:0:
201,116,161110,1,10,3:0:0:0:
318,64,161247,2,0,L|322:131,1,55.0000016784668,0|0,3:0|3:0,0:0:0:0:
148,233,161383,2,0,L|23:246,1,110.000003356934,10|0,3:0|3:0,0:0:0:0:
323,214,161656,6,0,L|328:332,1,110.000003356934,14|0,3:0|3:0,0:0:0:0:
38,244,161928,2,0,L|148:233,1,110.000003356934,8|0,3:2|3:0,0:0:0:0:
207,245,162133,1,0,3:0:0:0:
420,145,162201,2,0,L|290:131,1,110.000003356934,12|0,3:1|3:0,0:0:0:0:
79,48,162474,2,0,L|209:34,1,110.000003356934,12|0,3:1|3:0,0:0:0:0:
307,101,162747,6,0,L|243:92,1,55.0000016784668,2|2,3:0|3:0,0:0:0:0:
93,257,162883,2,0,L|83:188,1,55.0000016784668,8|8,3:0|3:0,0:0:0:0:
259,195,163019,2,0,L|331:210,1,55.0000016784668,4|4,3:0|3:0,0:0:0:0:
253,195,163156,2,0,L|181:210,1,55.0000016784668,4|4,3:0|3:0,0:0:0:0:
397,277,163292,5,2,3:0:0:0:
451,251,163360,1,0,3:0:0:0:
465,192,163428,1,0,3:0:0:0:
442,134,163497,1,0,3:0:0:0:
234,99,163565,2,0,L|302:92,1,55.0000016784668,8|8,0:1|0:1,0:0:0:0:
489,45,163701,2,0,L|393:37,1,55.0000016784668,8|8,0:1|0:1,0:0:0:0:
184,176,163837,6,0,L|48:176,1,110.000003356934,4|8,3:0|3:1,0:0:0:0:
272,128,164110,1,2,3:2:0:0:
344,128,164178,2,0,L|400:72,1,55.0000016784668,0|8,3:0|3:1,0:0:0:0:
264,64,164383,1,2,3:2:0:0:
464,104,164519,1,8,3:1:0:0:
352,96,164656,2,0,L|392:56,1,55.0000016784668,2|0,3:2|3:0,0:0:0:0:
464,48,164792,1,8,3:1:0:0:
248,168,164928,6,0,L|240:56,1,110.000003356934,2|8,3:2|3:1,0:0:0:0:
360,136,165201,2,0,L|304:136,1,55.0000016784668,2|0,3:2|3:0,0:0:0:0:
136,128,165337,1,8,3:1:0:0:
248,120,165474,2,0,L|256:232,1,110.000003356934,2|8,3:2|3:1,0:0:0:0:
56,152,165747,2,0,L|48:96,1,55.0000016784668,2|0,3:2|3:0,0:0:0:0:
120,96,165883,1,8,3:1:0:0:
368,232,166019,6,0,P|424:232|424:136,1,165.000005035401,4|0,3:1|0:0,0:0:0:0:
232,96,166292,2,0,L|176:96,1,55.0000016784668,2|8,0:2|0:2,0:0:0:0:
256,80,166428,2,0,L|312:80,1,55.0000016784668,2|8,0:0|0:2,0:0:0:0:
112,248,166565,6,0,L|104:192,1,55.0000016784668,2|8,0:0|0:2,0:0:0:0:
184,176,166701,2,0,L|224:136,1,55.0000016784668,2|8,0:0|0:2,0:0:0:0:
304,128,166837,2,0,L|368:128,1,55.0000016784668,2|8,0:0|0:2,0:0:0:0:
280,112,166974,2,0,L|208:112,1,55.0000016784668,2|8,0:0|0:2,0:0:0:0:
415,240,167110,6,0,L|424:184,1,55.0000016784668,2|8,0:0|0:2,0:0:0:0:
344,184,167247,2,0,L|336:128,1,55.0000016784668,2|8,0:0|0:2,0:0:0:0:
416,128,167383,2,0,L|472:128,1,55.0000016784668,2|8,0:0|0:2,0:0:0:0:
392,112,167519,2,0,L|328:112,1,55.0000016784668,2|8,0:0|0:2,0:0:0:0:
144,120,167656,6,0,L|232:120,1,55.0000016784668,10|8,0:0|0:0,0:0:0:0:
392,80,167792,2,0,L|400:136,1,55.0000016784668,10|8,0:0|0:0,0:0:0:0:
208,200,167928,2,0,L|88:200,1,110.000003356934,8|8,0:0|0:1,0:0:0:0:
176,152,168133,1,8,0:1:0:0:
400,232,168201,6,0,L|408:120,1,110.000003356934,4|8,3:1|3:1,0:0:0:0:
208,104,168474,2,0,L|216:48,1,55.0000016784668,2|0,3:2|3:0,0:0:0:0:
288,48,168610,1,8,3:1:0:0:
408,48,168747,1,2,3:2:0:0:
208,160,168883,1,8,3:1:0:0:
328,160,169019,1,2,3:2:0:0:
336,152,169087,1,0,3:0:0:0:
344,144,169156,1,8,3:1:0:0:
136,128,169292,5,2,3:2:0:0:
248,112,169428,1,8,3:1:0:0:
128,104,169565,2,0,L|120:48,1,55.0000016784668,2|0,3:2|3:0,0:0:0:0:
288,120,169701,1,8,3:1:0:0:
176,104,169837,1,2,3:2:0:0:
296,112,169974,1,8,3:1:0:0:
96,208,170110,2,0,L|40:208,1,55.0000016784668,2|0,3:2|3:0,0:0:0:0:
104,200,170247,1,8,3:1:0:0:
336,192,170383,6,0,L|400:192,1,55.0000016784668,12|0,1:0|0:0,0:0:0:0:
312,160,170519,2,0,L|320:104,1,55.0000016784668,0|0,0:0|3:0,0:0:0:0:
400,128,170656,2,0,L|408:72,1,55.0000016784668,0|0,3:0|0:0,0:0:0:0:
208,264,170792,5,12,1:3:0:0:
184,232,170860,1,0,0:0:0:0:
208,264,170929,1,0,3:0:0:0:
280,264,170997,1,0,3:0:0:0:
352,256,171065,2,0,L|272:256,1,55.0000016784668,0|0,3:0|0:0,0:0:0:0:
96,80,171201,6,0,L|32:80,1,55.0000016784668,12|0,1:0|0:0,0:0:0:0:
112,64,171337,2,0,L|168:64,1,55.0000016784668,0|0,3:0|3:0,0:0:0:0:
96,120,171474,2,0,L|40:120,1,55.0000016784668,0|0,3:0|0:0,0:0:0:0:
240,168,171610,6,0,L|248:112,1,55.0000016784668,12|0,1:0|0:0,0:0:0:0:
168,112,171747,2,0,L|104:112,1,55.0000016784668,0|0,3:0|3:0,0:0:0:0:
192,88,171883,2,0,L|248:88,1,55.0000016784668,0|0,3:0|3:0,0:0:0:0:
448,176,172019,5,2,3:0:0:0:
472,144,172087,1,2,3:0:0:0:
448,176,172156,1,2,3:0:0:0:
368,176,172224,1,2,3:0:0:0:
168,128,172292,2,0,L|224:128,1,55.0000016784668,8|8,3:0|3:0,0:0:0:0:
424,128,172428,2,0,L|480:128,1,55.0000016784668,8|8,3:0|3:0,0:0:0:0:
232,208,172565,6,0,L|112:208,1,110.000003356934,12|0,3:1|3:0,0:0:0:0:
320,144,172837,2,0,L|384:144,1,55.0000016784668,2|0,3:2|3:0,0:0:0:0:
312,128,172974,1,8,3:1:0:0:
432,96,173110,1,2,3:2:0:0:
232,96,173247,1,8,3:1:0:0:
352,80,173383,2,0,L|312:40,1,55.0000016784668,2|0,3:2|3:0,0:0:0:0:
240,32,173519,1,8,3:1:0:0:
40,184,173656,5,2,3:2:0:0:
152,184,173792,1,8,3:1:0:0:
32,176,173928,2,0,L|96:176,1,55.0000016784668,2|0,3:2|3:0,0:0:0:0:
256,112,174065,1,8,3:1:0:0:
368,112,174201,1,2,3:2:0:0:
248,104,174337,1,8,3:1:0:0:
448,160,174474,1,2,3:2:0:0:
456,152,174542,1,0,3:0:0:0:
464,144,174610,1,8,3:1:0:0:
208,168,174747,6,0,L|40:168,1,165.000005035401,4|0,3:1|0:0,0:0:0:0:
240,112,175019,2,0,L|248:56,1,55.0000016784668,6|8,0:2|0:2,0:0:0:0:
168,64,175156,2,0,L|160:120,1,55.0000016784668,2|8,0:0|0:2,0:0:0:0:
352,120,175292,5,2,0:0:0:0:
424,104,175360,1,8,0:2:0:0:
448,72,175428,2,0,L|456:128,1,55.0000016784668,2|8,0:0|0:0,0:0:0:0:
376,64,175565,2,0,L|312:64,1,55.0000016784668,2|8,0:0|0:2,0:0:0:0:
400,48,175701,2,0,L|464:48,1,55.0000016784668,2|8,0:0|0:2,0:0:0:0:
264,192,175837,6,0,L|200:192,1,55.0000016784668,2|8,0:0|0:2,0:0:0:0:
288,168,175974,2,0,L|360:168,1,55.0000016784668,2|8,0:0|0:2,0:0:0:0:
264,160,176110,1,2,0:0:0:0:
192,136,176178,1,8,0:2:0:0:
168,104,176246,1,2,0:0:0:0:
192,136,176314,1,8,0:2:0:0:
392,120,176383,6,0,L|400:64,1,55.0000016784668,10|8,0:0|0:0,0:0:0:0:
208,72,176519,2,0,L|152:72,1,55.0000016784668,10|8,0:0|0:0,0:0:0:0:
352,152,176656,2,0,L|480:152,1,110.000003356934,8|8,0:0|0:1,0:0:0:0:
384,128,176860,1,8,0:1:0:0:
184,200,176928,6,0,L|320:200,1,110.000003356934,4|8,3:1|3:1,0:0:0:0:
96,160,177201,2,0,L|144:112,1,55.0000016784668,2|0,3:2|3:0,0:0:0:0:
208,96,177337,1,8,3:1:0:0:
88,96,177474,1,2,3:2:0:0:
288,80,177610,1,8,3:1:0:0:
168,96,177747,2,0,L|176:40,1,55.0000016784668,2|0,3:2|3:0,0:0:0:0:
248,56,177883,1,8,3:1:0:0:
448,112,178019,5,2,3:2:0:0:
336,112,178156,1,8,3:1:0:0:
456,104,178292,2,0,L|384:104,1,55.0000016784668,2|0,3:2|3:0,0:0:0:0:
232,176,178428,1,8,3:1:0:0:
336,176,178565,1,2,3:2:0:0:
424,80,178701,1,8,3:1:0:0:
224,80,178837,2,0,L|264:40,1,55.0000016784668,2|0,3:2|3:0,0:0:0:0:
336,40,178974,1,8,3:1:0:0:
80,160,179110,6,0,L|72:104,1,55.0000016784668,4|0,3:1|0:0,0:0:0:0:
152,104,179247,2,0,L|160:48,1,55.0000016784668,2|2,0:3|0:3,0:0:0:0:
80,48,179383,2,0,L|72:104,1,55.0000016784668,2|2,0:3|0:3,0:0:0:0:
288,152,179519,6,0,L|360:152,1,55.0000016784668,2|0,3:3|0:0,0:0:0:0:
264,144,179655,1,2,0:3:0:0:
192,120,179723,1,2,0:3:0:0:
168,88,179791,1,2,0:3:0:0:
192,120,179859,1,2,0:3:0:0:
408,224,179928,6,0,L|416:168,1,55.0000016784668,4|0,0:2|0:0,0:0:0:0:
336,176,180065,2,0,L|296:136,1,55.0000016784668,8|8,0:3|0:3,0:0:0:0:
216,128,180201,2,0,L|160:128,1,55.0000016784668,8|0,0:3|0:0,0:0:0:0:
376,160,180337,6,0,L|384:104,1,55.0000016784668
304,104,180474,2,0,L|296:48,1,55.0000016784668,4|4,0:3|0:3,0:0:0:0:
376,48,180610,2,0,L|384:104,1,55.0000016784668,4|0,0:3|0:0,0:0:0:0:
168,120,180747,5,8,3:0:0:0:
96,96,180815,1,0,0:0:0:0:
72,64,180883,2,0,L|80:120,1,55.0000016784668,0|0,3:0|0:0,0:0:0:0:
296,120,181019,2,0,L|368:120,1,55.0000016784668,8|8,0:1|0:1,0:0:0:0:
224,88,181156,1,8,0:1:0:0:
96,80,181224,1,8,0:1:0:0:
376,160,181292,5,8,3:1:0:0:
392,136,181565,1,2,0:0:0:0:
408,104,181837,1,2,0:0:0:0:
424,80,182110,1,2,0:0:0:0:
40,144,182383,6,0,L|32:88,1,55.0000016784668,10|8,3:0|3:0,0:0:0:0:
200,112,182519,2,0,L|272:112,1,55.0000016784668,8|8,3:0|3:0,0:0:0:0:
424,168,182656,1,8,3:0:0:0:
448,136,182724,1,2,3:0:0:0:
424,168,182793,1,8,3:1:0:0:
344,168,182861,1,2,3:0:0:0:
176,144,182928,6,0,L|120:144,1,55.0000016784668,2|0,3:0|3:0,0:0:0:0:
200,128,183065,2,0,L|264:128,1,55.0000016784668,8|8,3:1|3:0,0:0:0:0:
424,88,183201,2,0,L|368:88,1,55.0000016784668,8|8,3:0|3:0,0:0:0:0:
200,88,183337,2,0,L|144:88,1,55.0000016784668,8|8,3:0|3:0,0:0:0:0:
368,240,183474,6,0,L|488:240,1,110.000003356934,4|8,3:1|0:1,0:0:0:0:
272,152,183747,2,0,L|320:104,1,55.0000016784668,2|0,3:2|3:0,0:0:0:0:
384,104,183883,1,8,0:1:0:0:
272,80,184019,1,2,3:2:0:0:
392,80,184156,1,8,0:1:0:0:
192,80,184292,1,2,3:2:0:0:
120,80,184360,2,0,L|80:40,1,55.0000016784668,0|8,3:0|0:1,0:0:0:0:
312,184,184565,6,0,L|232:104,1,110.000003356934,2|0,3:2|0:0,0:0:0:0:
112,136,184837,2,0,L|120:80,1,55.0000016784668,2|0,3:2|3:0,0:0:0:0:
288,88,184974,1,8,0:1:0:0:
400,88,185110,1,2,3:2:0:0:
280,80,185247,1,8,0:1:0:0:
480,88,185383,2,0,L|440:48,1,55.0000016784668,2|0,3:2|3:0,0:0:0:0:
368,40,185519,1,8,0:1:0:0:
168,144,185656,6,0,L|48:144,1,110.000003356934,4|8,3:3|0:1,0:0:0:0:
256,128,185928,2,0,L|264:72,1,55.0000016784668,2|0,3:2|3:0,0:0:0:0:
192,72,186065,1,8,0:1:0:0:
304,64,186201,1,2,3:2:0:0:
184,56,186337,1,8,0:1:0:0:
384,112,186474,2,0,L|448:112,1,55.0000016784668,2|0,3:2|3:0,0:0:0:0:
376,104,186610,1,8,0:1:0:0:
176,224,186747,6,0,L|64:224,1,110.000003356934,2|8,3:2|0:1,0:0:0:0:
272,136,187019,1,2,3:2:0:0:
344,136,187087,2,0,L|392:88,1,55.0000016784668,0|8,3:0|0:1,0:0:0:0:
184,96,187292,1,2,3:2:0:0:
296,96,187428,1,8,0:1:0:0:
176,88,187565,1,2,3:2:0:0:
168,80,187633,1,0,3:0:0:0:
160,72,187701,1,8,0:1:0:0:
376,88,187837,5,12,0:1:0:0:
264,88,187974,1,0,0:0:0:0:
384,80,188110,1,0,0:0:0:0:
184,112,188247,2,0,L|192:224,1,110.000003356934,12|0,0:3|0:0,0:0:0:0:
312,144,188519,1,0,0:0:0:0:
112,96,188656,5,12,0:1:0:0:
224,96,188793,1,0,0:0:0:0:
104,88,188929,1,0,0:0:0:0:
304,120,189065,2,0,L|224:40,1,110.000003356934,12|0,3:1|0:0,0:0:0:0:
104,64,189337,1,0,0:0:0:0:
312,216,189474,6,0,L|320:160,1,55.0000016784668,2|2,3:0|3:0,0:0:0:0:
240,152,189610,2,0,L|176:152,1,55.0000016784668,2|2,3:0|3:0,0:0:0:0:
352,120,189747,1,8,3:0:0:0:
424,104,189815,1,4,3:0:0:0:
448,72,189883,1,8,0:1:0:0:
424,104,189951,1,8,0:1:0:0:
200,120,190019,6,0,L|80:120,1,110.000003356934,4|8,3:1|0:1,0:0:0:0:
296,104,190292,2,0,L|360:104,1,55.0000016784668,2|0,3:2|3:0,0:0:0:0:
288,96,190428,1,8,0:1:0:0:
400,72,190565,1,2,3:2:0:0:
280,72,190701,1,8,0:1:0:0:
480,184,190837,1,2,3:2:0:0:
472,176,190906,1,0,3:0:0:0:
464,168,190974,1,8,0:1:0:0:
256,144,191110,6,0,L|368:144,1,110.000003356934,2|8,3:2|0:1,0:0:0:0:
160,120,191383,2,0,L|208:72,1,55.0000016784668,2|0,3:2|3:0,0:0:0:0:
272,72,191519,1,8,0:1:0:0:
160,72,191656,1,2,3:2:0:0:
48,72,191792,1,8,0:1:0:0:
248,128,191928,2,0,L|200:80,1,55.0000016784668,2|0,3:2|3:0,0:0:0:0:
136,80,192064,1,8,0:1:0:0:
336,176,192201,6,0,L|448:176,1,110.000003356934,4|8,3:1|0:1,0:0:0:0:
240,80,192474,1,2,3:2:0:0:
168,80,192542,2,0,L|160:24,1,55.0000016784668,0|8,0:0|0:1,0:0:0:0:
272,40,192747,1,2,3:2:0:0:
152,32,192883,1,8,0:1:0:0:
352,112,193019,1,2,3:2:0:0:
424,112,193087,2,0,L|464:72,1,55.0000016784668,0|8,0:0|0:1,0:0:0:0:
256,168,193292,5,2,3:2:0:0:
368,176,193428,1,8,0:1:0:0:
248,160,193565,2,0,L|192:160,1,55.0000016784668,2|0,3:2|3:0,0:0:0:0:
360,80,193701,2,0,L|480:80,1,110.000003356934,8|4,0:1|0:1,0:0:0:0:
256,64,193974,1,8,0:0:0:0:
464,152,194110,2,0,L|424:112,1,55.0000016784668,4|0,0:3|3:0,0:0:0:0:
352,96,194247,1,8,0:0:0:0:
144,176,194383,6,0,L|136:64,1,110.000003356934,4|8,3:3|0:1,0:0:0:0:
336,128,194656,2,0,L|296:88,1,55.0000016784668,2|0,3:2|0:0,0:0:0:0:
224,80,194792,1,8,0:1:0:0:
336,48,194928,1,2,3:2:0:0:
216,48,195065,1,8,0:1:0:0:
416,136,195201,1,2,3:2:0:0:
424,128,195269,1,0,3:0:0:0:
432,120,195337,1,8,0:1:0:0:
216,136,195474,6,0,L|96:136,1,110.000003356934,2|8,3:2|0:1,0:0:0:0:
312,144,195747,2,0,L|320:88,1,55.0000016784668,2|0,3:2|3:0,0:0:0:0:
248,96,195883,1,8,0:1:0:0:
448,208,196019,1,2,3:2:0:0:
336,208,196156,1,8,0:1:0:0:
456,200,196292,2,0,L|416:160,1,55.0000016784668,2|0,3:2|3:0,0:0:0:0:
344,152,196428,1,8,0:1:0:0:
144,104,196565,5,12,0:3:0:0:
256,104,196701,1,0,0:0:0:0:
136,96,196837,1,0,0:0:0:0:
360,136,196974,1,12,0:1:0:0:
248,128,197110,2,0,L|240:240,1,110.000003356934
464,104,197383,5,12,0:1:0:0:
352,104,197519,1,0,0:0:0:0:
472,96,197655,1,0,0:0:0:0:
248,144,197792,2,0,L|328:64,1,110.000003356934,12|0,0:3|0:0,0:0:0:0:
448,64,198065,1,0,0:0:0:0:
224,200,198201,6,0,L|216:144,1,55.0000016784668,8|8,0:1|0:1,0:0:0:0:
296,152,198337,2,0,L|304:96,1,55.0000016784668,0|0,3:0|3:0,0:0:0:0:
136,104,198474,2,0,L|24:104,1,110.000003356934,4|8,3:0|0:1,0:0:0:0:
104,72,198678,1,8,0:1:0:0:
328,209,198747,5,4,3:0:0:0:
466,180,198883,1,0,0:0:0:0:
470,255,199156,1,0,3:0:0:0:
210,300,199292,1,12,0:2:0:0:
197,207,199565,1,0,3:0:0:0:
335,178,199701,1,0,3:0:0:0:
342,295,199974,6,0,L|349:70,1,220.000006713867,8|0,3:2|3:0,0:0:0:0:
115,216,200383,2,0,L|109:92,1,110.000003356934,12|8,0:0|0:0,0:0:0:0:
227,73,200656,1,0,3:0:0:0:
100,107,200792,1,0,3:0:0:0:
352,199,200928,5,4,3:2:0:0:
221,170,201064,1,0,0:0:0:0:
203,301,201337,1,0,3:0:0:0:
463,256,201473,1,12,0:0:0:0:
472,155,201747,1,0,3:0:0:0:
334,126,201883,1,0,3:0:0:0:
325,206,202156,5,8,3:2:0:0:
98,269,202292,2,0,L|91:153,1,110.000003356934,0|0,0:0|3:0,0:0:0:0:
328,234,202565,2,0,P|317:172|175:79,1,220.000006713867,12|0,0:0|3:0,0:0:0:0:
61,107,202974,1,0,3:0:0:0:
335,189,203110,5,4,3:2:0:0:
203,160,203246,1,0,0:0:0:0:
184,305,203519,1,0,3:0:0:0:
444,260,203655,1,12,0:0:0:0:
447,171,203928,1,0,3:0:0:0:
309,142,204064,1,0,3:0:0:0:
48,294,204201,6,0,L|41:64,1,220.000006713867,4|0,0:2|0:0,0:0:0:0:
167,97,204610,1,0,3:0:0:0:
417,142,204747,1,12,0:0:0:0:
417,249,205019,1,0,3:0:0:0:
284,194,205156,1,0,3:0:0:0:
20,191,205292,6,0,P|34:131|71:62,1,110.000003356934,4|2,0:2|0:0,0:0:0:0:
188,88,205565,1,2,0:0:0:0:
56,87,205701,1,2,3:2:0:0:
322,266,205837,1,14,0:0:0:0:
195,269,205974,1,2,0:0:0:0:
476,160,206110,1,2,3:2:0:0:
345,163,206247,1,2,3:2:0:0:
48,170,206383,1,6,3:0:0:0:
329,248,206928,5,2,3:0:0:0:
297,173,207019,1,2,3:0:0:0:
224,137,207110,1,2,3:0:0:0:
422,100,207201,1,8,0:1:0:0:
342,115,207292,1,8,0:1:0:0:
422,100,207383,1,8,0:1:0:0:
176,150,207474,5,4,3:0:0:0:
38,121,207610,1,0,0:0:0:0:
25,266,207883,1,0,3:0:0:0:
285,221,208019,1,12,0:2:0:0:
291,136,208292,1,0,3:0:0:0:
153,107,208428,1,0,3:0:0:0:
140,252,208701,5,8,3:2:0:0:
400,207,208837,1,0,0:0:0:0:
412,102,208974,1,0,3:0:0:0:
154,349,209110,2,0,P|74:304|60:176,1,220.000006713867,12|0,0:0|3:0,0:0:0:0:
176,166,209519,1,0,3:0:0:0:
427,118,209656,5,4,3:2:0:0:
296,90,209792,1,0,0:0:0:0:
301,220,210065,1,0,3:0:0:0:
41,175,210201,1,12,0:0:0:0:
32,283,210474,1,0,3:0:0:0:
170,254,210610,1,0,3:0:0:0:
178,155,210883,5,8,3:2:0:0:
415,97,211019,2,0,L|422:219,1,110.000003356934,0|0,0:0|3:0,0:0:0:0:
171,324,211292,2,0,P|189:252|336:192,1,220.000006713867,12|0,0:0|3:0,0:0:0:0:
444,220,211701,1,0,3:0:0:0:
237,122,211837,5,4,3:2:0:0:
99,93,211973,1,0,0:0:0:0:
82,187,212246,1,0,3:0:0:0:
342,142,212382,1,12,0:0:0:0:
354,51,212656,1,0,3:0:0:0:
216,22,212792,1,0,3:0:0:0:
460,82,212928,5,4,0:2:0:0:
469,203,213065,1,8,3:2:0:0:
353,237,213201,1,0,0:0:0:0:
469,203,213337,1,0,3:0:0:0:
159,223,213474,1,12,0:0:0:0:
152,124,213610,1,8,0:0:0:0:
474,123,213747,1,0,3:0:0:0:
339,84,213883,1,0,3:0:0:0:
124,315,214019,6,0,P|149:241|280:169,1,220.000006713867,4|8,0:1|0:1,0:0:0:0:
54,158,214428,2,0,L|275:86,1,220.000006713867,4|8,3:3|0:1,0:0:0:0:
34,88,214837,1,8,0:1:0:0:
155,115,214974,1,0,0:0:0:0:
410,168,215110,6,0,L|319:179,1,55.0000016784668,12|0,0:0|0:0,0:0:0:0:
161,212,215247,1,0,3:0:0:0:
35,234,215383,1,4,3:0:0:0:
272,285,215519,1,12,0:0:0:0:
264,191,215656,1,0,3:0:0:0:
135,145,215792,1,4,3:0:0:0:
427,60,215928,1,12,0:0:0:0:
313,74,216064,1,4,3:0:0:0:
36,100,216201,6,0,L|24:228,1,110.000003356934,4|0,0:2|0:0,0:0:0:0:
299,204,216474,2,0,L|182:230,1,110.000003356934,8|0,3:1|3:0,0:0:0:0:
329,223,216747,1,0,3:0:0:0:
339,324,216883,1,8,3:1:0:0:
61,317,217019,2,0,L|168:340,1,110.000003356934,0|0,3:0|3:0,0:0:0:0:
399,261,217292,5,8,3:0:0:0:
277,232,217428,2,0,L|266:122,1,110.000003356934,0|0,3:0|3:0,0:0:0:0:
497,142,217701,1,8,3:0:0:0:
379,100,217837,1,0,3:0:0:0:
497,142,217974,1,0,3:0:0:0:
187,89,218110,1,8,3:0:0:0:
310,44,218247,1,0,3:0:0:0:
187,89,218383,6,0,L|173:184,1,55.0000016784668,4|0,3:0|3:0,0:0:0:0:
368,183,218519,2,0,L|504:200,1,110.000003356934,0|8,3:0|3:1,0:0:0:0:
207,316,218792,1,0,3:0:0:0:
334,280,218928,1,4,3:0:0:0:
207,316,219065,1,0,3:0:0:0:
486,234,219201,1,8,3:1:0:0:
356,210,219337,1,0,3:0:0:0:
143,262,219474,6,0,L|134:155,1,55.0000016784668,8|8,0:1|0:1,0:0:0:0:
220,210,219610,2,0,L|211:124,1,55.0000016784668,4|4,3:0|3:0,0:0:0:0:
139,125,219747,2,0,L|55:120,1,55.0000016784668,8|8,0:1|0:1,0:0:0:0:
169,60,219883,2,0,L|253:55,1,55.0000016784668,8|8,0:1|0:1,0:0:0:0:
391,181,220019,6,0,L|396:100,1,55.0000016784668,2|2,3:0|3:0,0:0:0:0:
231,277,220156,2,0,L|236:196,1,55.0000016784668,2|2,3:0|3:0,0:0:0:0:
432,285,220292,2,0,L|372:281,1,55.0000016784668,8|8,3:0|3:0,0:0:0:0:
175,140,220428,2,0,L|115:136,1,55.0000016784668,4|4,3:0|3:0,0:0:0:0:
336,144,220565,6,0,L|464:144,1,110.000003356934,14|0,3:0|3:0,0:0:0:0:
320,80,220837,1,10,3:0:0:0:
448,80,220974,2,0,L|408:40,1,55.0000016784668,0|0,3:2|3:0,0:0:0:0:
336,32,221110,1,10,3:0:0:0:
128,56,221247,1,0,3:0:0:0:
328,192,221383,2,0,L|336:80,1,110.000003356934,10|0,3:0|3:0,0:0:0:0:
264,80,221587,1,0,3:0:0:0:
72,144,221656,5,10,3:0:0:0:
184,144,221792,1,0,3:0:0:0:
64,136,221928,1,10,3:0:0:0:
312,160,222065,1,0,3:2:0:0:
208,160,222201,1,10,3:0:0:0:
112,72,222337,2,0,L|120:128,1,55.0000016784668,0|0,3:0|3:0,0:0:0:0:
320,96,222474,2,0,L|432:96,1,110.000003356934,10|0,3:0|3:0,0:0:0:0:
352,56,222678,1,0,3:0:0:0:
128,184,222747,6,0,L|120:72,1,110.000003356934,10|0,3:0|3:0,0:0:0:0:
256,112,223019,2,0,L|264:56,1,55.0000016784668,10|0,3:0|3:0,0:0:0:0:
192,64,223156,1,0,3:0:0:0:
56,104,223292,2,0,L|48:48,1,55.0000016784668,10|0,3:0|3:0,0:0:0:0:
120,56,223429,1,0,3:0:0:0:
336,160,223565,2,0,L|296:120,1,55.0000016784668,10|0,3:3|3:0,0:0:0:0:
224,112,223701,1,0,3:0:0:0:
440,96,223837,5,14,3:0:0:0:
328,96,223974,2,0,L|368:56,1,55.0000016784668,0|0,3:0|3:0,0:0:0:0:
440,48,224110,1,10,3:0:0:0:
328,40,224247,1,0,3:0:0:0:
112,120,224383,1,10,3:0:0:0:
224,120,224520,2,0,L|184:80,1,55.0000016784668,0|0,3:0|3:0,0:0:0:0:
112,72,224656,1,10,3:0:0:0:
328,144,224792,2,0,L|408:144,1,55.0000016784668,0|0,3:0|3:0,0:0:0:0:
168,224,224928,6,0,L|48:224,1,110.000003356934,12|0,3:1|3:0,0:0:0:0:
272,152,225201,2,0,L|160:152,1,110.000003356934,10|0,3:0|3:0,0:0:0:0:
376,224,225474,2,0,L|384:112,1,110.000003356934,10|0,3:0|3:0,0:0:0:0:
312,112,225678,1,0,3:0:0:0:
240,112,225747,2,0,L|232:224,1,110.000003356934,10|0,3:0|3:0,0:0:0:0:
448,192,226019,6,0,L|456:80,1,110.000003356934,10|0,3:0|3:0,0:0:0:0:
376,104,226224,1,0,3:0:0:0:
208,80,226292,1,10,3:0:0:0:
312,80,226428,1,0,3:0:0:0:
200,72,226565,1,10,3:0:0:0:
320,72,226701,2,0,L|328:128,1,55.0000016784668,0|0,3:0|3:0,0:0:0:0:
160,168,226837,2,0,L|48:168,1,110.000003356934,10|0,3:0|3:0,0:0:0:0:
128,128,227042,1,0,3:0:0:0:
352,224,227110,6,0,L|464:224,1,110.000003356934,12|0,3:1|3:0,0:0:0:0:
264,176,227383,2,0,L|256:288,1,110.000003356934,10|0,3:0|3:0,0:0:0:0:
56,272,227656,2,0,L|64:160,1,110.000003356934,10|0,3:0|3:0,0:0:0:0:
264,144,227928,2,0,L|216:96,1,55.0000016784668,10|0,3:0|3:0,0:0:0:0:
152,96,228065,1,0,3:0:0:0:
360,200,228201,6,0,L|368:144,1,55.0000016784668,8|0,3:1|3:0,0:0:0:0:
288,184,228337,2,0,L|280:128,1,55.0000016784668,8|0,3:1|3:0,0:0:0:0:
472,112,228474,2,0,L|400:112,1,55.0000016784668,4|2,3:2|3:0,0:0:0:0:
192,208,228610,2,0,L|136:208,1,55.0000016784668,2|2,3:3|3:0,0:0:0:0:
224,184,228747,6,0,L|280:184,1,55.0000016784668,8|8,3:0|3:0,0:0:0:0:
208,160,228883,1,8,3:0:0:0:
136,160,228951,1,8,3:0:0:0:
112,128,229019,1,4,3:0:0:0:
136,160,229087,1,4,3:0:0:0:
368,112,229156,2,0,L|448:112,1,55.0000016784668,4|4,3:0|3:0,0:0:0:0:
144,288,229292,6,0,L|136:176,1,110.000003356934,12|0,3:0|3:0,0:0:0:0:
264,160,229565,1,10,3:0:0:0:
136,144,229701,2,0,L|72:144,1,55.0000016784668,0|0,3:2|3:0,0:0:0:0:
144,136,229837,1,10,3:0:0:0:
360,120,229974,1,0,3:0:0:0:
144,120,230110,2,0,L|32:120,1,110.000003356934,10|0,3:0|3:0,0:0:0:0:
112,96,230315,1,0,3:0:0:0:
328,80,230383,5,10,3:0:0:0:
216,80,230519,2,0,L|208:192,1,110.000003356934,0|10,3:0|3:0,0:0:0:0:
416,136,230792,1,0,3:2:0:0:
304,136,230928,1,10,3:0:0:0:
424,128,231065,2,0,L|352:128,1,55.0000016784668,0|0,3:0|3:0,0:0:0:0:
152,192,231201,2,0,L|144:80,1,110.000003356934,10|0,3:0|3:0,0:0:0:0:
224,96,231406,1,0,3:0:0:0:
440,112,231474,6,0,L|328:112,1,110.000003356934,12|0,3:1|3:0,0:0:0:0:
456,224,231747,2,0,L|464:168,1,55.0000016784668,10|0,3:0|3:0,0:0:0:0:
392,176,231883,1,0,3:0:0:0:
264,184,232019,2,0,L|304:144,1,55.0000016784668,10|0,3:0|3:0,0:0:0:0:
376,128,232156,1,0,3:0:0:0:
152,112,232292,2,0,L|80:112,1,55.0000016784668,10|0,3:0|3:0,0:0:0:0:
160,104,232428,1,0,3:0:0:0:
400,96,232565,5,10,3:0:0:0:
280,96,232701,1,0,3:0:0:0:
296,80,232769,1,0,3:0:0:0:
312,64,232837,1,10,3:0:0:0:
432,56,232974,1,0,3:0:0:0:
208,128,233110,1,10,3:0:0:0:
328,128,233247,2,0,L|336:72,1,55.0000016784668,0|0,3:0|3:0,0:0:0:0:
264,80,233383,1,12,3:1:0:0:
48,112,233519,2,0,L|112:112,1,55.0000016784668,0|0,3:0|3:0,0:0:0:0:
328,216,233656,6,0,L|448:216,1,110.000003356934,12|0,3:1|3:0,0:0:0:0:
216,176,233928,2,0,L|208:64,1,110.000003356934,10|0,3:0|3:0,0:0:0:0:
432,96,234201,2,0,L|320:96,1,110.000003356934,10|0,3:0|3:0,0:0:0:0:
384,64,234406,1,0,3:0:0:0:
448,64,234474,2,0,L|312:64,1,110.000003356934,10|0,3:0|3:0,0:0:0:0:
112,216,234747,6,0,L|104:104,1,110.000003356934,10|0,3:0|3:0,0:0:0:0:
176,112,234951,1,0,3:0:0:0:
392,136,235019,1,10,3:0:0:0:
304,136,235156,1,0,3:0:0:0:
392,136,235292,1,10,3:0:0:0:
504,128,235428,2,0,L|448:128,1,55.0000016784668,0|0,3:0|3:0,0:0:0:0:
248,112,235565,1,10,3:0:0:0:
360,104,235701,2,0,L|304:104,1,55.0000016784668,0|0,3:0|3:0,0:0:0:0:
104,168,235837,5,14,3:0:0:0:
216,168,235974,1,0,3:0:0:0:
96,160,236110,2,0,L|88:104,1,55.0000016784668,8|0,3:2|3:0,0:0:0:0:
160,112,236247,1,0,3:0:0:0:
400,112,236383,2,0,L|288:112,1,110.000003356934,12|0,3:1|3:0,0:0:0:0:
48,152,236656,2,0,L|192:152,1,110.000003356934,12|0,3:1|3:0,0:0:0:0:
384,208,236928,6,0,L|464:208,1,55.0000016784668,2|2,3:0|3:0,0:0:0:0:
360,184,237065,2,0,L|352:128,1,55.0000016784668,8|8,3:0|3:0,0:0:0:0:
432,144,237201,2,0,L|424:88,1,55.0000016784668,4|4,3:0|3:0,0:0:0:0:
208,144,237337,2,0,L|200:88,1,55.0000016784668,4|4,3:0|3:0,0:0:0:0:
280,96,237474,2,0,L|328:48,1,55.0000016784668,4|4,3:0|3:0,0:0:0:0:
400,56,237610,2,0,L|344:56,1,55.0000016784668,0|0,3:0|3:0,0:0:0:0:
128,240,237747,2,0,P|72:240|72:144,1,165.000005035401,12|0,0:1|3:0,0:0:0:0:
285,302,238019,6,0,L|293:174,1,100,6|0,3:0|3:0,0:0:0:0:
160,158,238291,2,0,L|272:144,1,100,0|0,3:0|3:0,0:0:0:0:
119,124,238564,2,0,L|112:24,1,100,0|0,3:0|0:0,0:0:0:0:
379,275,238837,6,0,L|372:175,1,100,0|0,3:0|0:0,0:0:0:0:
236,147,239109,2,0,L|229:47,1,100,0|0,3:0|0:0,0:0:0:0:
369,147,239382,2,0,L|362:47,1,100,0|0,3:0|0:0,0:0:0:0:
75,286,239655,6,0,L|212:266,1,100,6|0,3:0|3:0,0:0:0:0:
311,308,239928,2,0,L|317:203,1,100,0|0,3:0|3:0,0:0:0:0:
179,168,240200,1,0,3:0:0:0:
292,110,240309,6,0,L|364:104,2,40,8|8|8,0:3|0:3|0:3,0:0:0:0:
147,220,240473,2,0,L|39:206,1,100,8|8,3:0|3:0,0:0:0:0:
301,204,240746,2,0,L|307:315,1,100,2|2,3:0|3:0,0:0:0:0:
79,327,241019,2,0,L|178:339,1,100,2|2,3:0|3:0,0:0:0:0:
448,343,241291,6,0,L|456:215,1,100,6|0,3:0|3:0,0:0:0:0:
323,199,241563,2,0,L|435:185,1,100,0|0,3:0|3:0,0:0:0:0:
286,151,241837,5,4,0:2:0:0:
418,121,241973,1,4,0:2:0:0:
146,84,242109,1,4,0:2:0:0:
278,54,242245,1,4,0:2:0:0:
146,84,242382,1,4,0:0:0:0:
379,147,242519,1,4,0:0:0:0:
60,165,242655,1,4,0:0:0:0:
456,303,242928,6,0,L|466:193,1,100,6|0,3:0|3:0,0:0:0:0:
206,80,243200,2,0,L|336:76,1,100,0|0,3:0|3:0,0:0:0:0:
56,303,243473,2,0,L|46:193,1,100,0|0,3:0|3:0,0:0:0:0:
293,218,243746,5,8,3:0:0:0:
343,205,243814,1,0,3:0:0:0:
343,205,243882,1,0,3:0:0:0:
293,218,243950,1,0,3:0:0:0:
145,184,244019,2,0,L|139:122,3,50,8|2|8|2,3:0|3:0|3:0|3:0,0:0:0:0:
283,62,244291,2,0,L|288:112,3,50,8|2|8|2,3:1|3:0|3:0|3:0,0:0:0:0:
121,254,244564,6,0,L|0:237,1,100,4|2,3:0|3:3,0:0:0:0:
121,254,244837,1,0,0:0:0:0:
256,315,244973,2,0,L|260:191,1,100,0|2,3:0|0:0,0:0:0:0:
125,164,245246,1,0,3:0:0:0:
384,120,245382,1,8,0:2:0:0:
162,104,245655,6,0,L|304:86,1,100,2|0,0:0|3:0,0:0:0:0:
143,28,245928,2,0,L|285:10,1,100,2|0,0:0|0:0,0:0:0:0:
466,168,246200,5,4,3:2:0:0:
241,213,246337,2,0,L|99:197,1,100,0|2,3:0|0:0,0:0:0:0:
279,207,246609,2,0,L|285:335,1,100,0|2,3:0|0:0,0:0:0:0:
146,306,246882,1,0,3:0:0:0:
454,334,247019,1,12,0:0:0:0:
321,312,247291,6,0,L|325:192,1,100,2|0,0:0|3:0,0:0:0:0:
459,182,247564,1,2,0:0:0:0:
121,254,247837,6,0,L|0:237,1,100,0|0,3:0|3:0,0:0:0:0:
121,254,248110,1,2,0:0:0:0:
256,315,248246,2,0,L|260:191,1,100,0|2,3:0|0:0,0:0:0:0:
125,164,248519,1,0,3:0:0:0:
388,118,248655,1,8,0:0:0:0:
152,160,248928,6,0,L|10:142,1,100,2|0,0:0|3:0,0:0:0:0:
171,84,249201,2,0,L|29:66,1,100,2|0,0:0|0:0,0:0:0:0:
298,243,249473,5,0,3:0:0:0:
418,227,249609,1,0,3:0:0:0:
152,174,249746,1,2,0:0:0:0:
408,163,249882,2,0,L|418:54,1,100,0|2,3:0|0:0,0:0:0:0:
281,28,250155,1,0,3:0:0:0:
38,177,250291,5,12,0:0:0:0:
290,246,250428,2,0,L|294:180,1,50,0|8,0:0|0:0,0:0:0:0:
139,101,250564,1,8,0:0:0:0:
16,83,250700,1,8,3:0:0:0:
268,360,250837,1,2,3:0:0:0:
391,342,250973,1,8,3:0:0:0:
142,338,251109,6,0,L|149:215,1,100,0|0,3:0|3:0,0:0:0:0:
281,195,251382,1,2,0:0:0:0:
146,132,251519,2,0,L|19:148,1,100,0|2,3:0|0:0,0:0:0:0:
146,132,251791,1,0,3:0:0:0:
400,198,251928,1,12,0:0:0:0:
208,118,252200,6,0,P|265:117|339:115,1,100,2|0,0:0|3:0,0:0:0:0:
448,74,252473,1,2,3:2:0:0:
65,299,252746,5,4,3:2:0:0:
76,201,252882,2,0,L|201:177,1,100,0|2,3:0|0:0,0:0:0:0:
314,152,253155,2,0,L|204:134,1,100,0|2,3:0|0:0,0:0:0:0:
314,152,253428,1,0,3:0:0:0:
43,79,253564,1,12,0:0:0:0:
266,155,253837,6,0,P|252:114|184:62,1,100,2|0,0:0|3:0,0:0:0:0:
82,72,254110,1,2,3:2:0:0:
466,168,254382,5,4,3:2:0:0:
353,205,254519,2,0,L|211:189,1,100,0|2,3:0|0:0,0:0:0:0:
377,197,254791,2,0,L|383:325,1,100,0|2,3:0|0:0,0:0:0:0:
244,296,255064,1,0,3:0:0:0:
482,330,255201,1,8,0:0:0:0:
241,235,255473,6,0,L|374:218,1,100,2|0,0:0|3:0,0:0:0:0:
191,158,255746,2,0,L|70:143,1,100,2|0,3:2|0:0,0:0:0:0:
381,131,256019,5,12,0:2:0:0:
90,232,256155,1,12,0:0:0:0:
212,250,256291,1,0,3:0:0:0:
479,210,256428,1,12,0:0:0:0:
357,228,256564,1,0,3:0:0:0:
479,210,256700,1,8,0:0:0:0:
233,160,256837,5,2,3:2:0:0:
479,127,256973,1,8,0:0:0:0:
365,137,257109,1,8,3:0:0:0:
479,127,257246,1,8,3:0:0:0:
232,304,257382,2,0,L|224:240,1,50,8|8,3:1|3:1,0:0:0:0:
296,256,257519,2,0,L|352:256,1,50,8|2,3:0|3:0,0:0:0:0:
80,384,257655,6,0,P|80:344|448:-24,1,600.000022888185,4|8,3:1|0:1,0:0:0:0:
232,184,258883,1,8,0:1:0:0:
432,384,259837,6,0,P|432:344|112:24,1,525.000020027161,4|0,3:1|0:0,0:0:0:0:
376,160,260927,5,12,0:1:0:0:
248,160,261063,2,0,L|256:56,1,100,8|8,3:0|3:0,0:0:0:0:
56,192,261336,1,12,0:1:0:0:
184,192,261472,2,0,L|176:88,1,100,4|4,3:0|3:0,0:0:0:0:
376,96,261745,2,0,L|488:96,1,100,12|0,0:1|3:0,0:0:0:0:
200,144,262018,5,12,3:0:0:0:
328,144,262154,2,0,L|336:344,1,200,12|12,3:0|3:0,0:0:0:0:
128,304,262563,2,0,P|56:232|176:112,1,300,4|2,0:1|0:0,0:0:0:0:
400,144,263109,5,12,3:0:0:0:
272,144,263245,2,0,L|264:344,1,200,12|12,3:0|3:0,0:0:0:0:
472,304,263655,2,0,P|472:248|304:80,1,300,4|2,0:2|0:0,0:0:0:0:
72,208,264200,6,0,L|216:64,1,200,12|8,0:2|0:1,0:0:0:0:
80,64,264609,1,8,0:1:0:0:
216,64,264745,2,0,L|96:64,1,100,8|8,0:1|0:1,0:0:0:0:
352,128,265018,2,0,L|480:128,1,100,8|8,0:1|0:1,0:0:0:0:
216,224,265291,5,2,3:0:0:0:
336,224,265427,1,4,3:0:0:0:
216,224,265563,1,2,3:0:0:0:
184,192,265632,1,2,3:0:0:0:
216,224,265700,1,2,3:0:0:0:
296,224,265768,1,2,3:0:0:0:
448,184,265836,1,8,3:0:0:0:
480,152,265905,1,2,3:0:0:0:
448,184,265973,1,8,3:0:0:0:
368,184,266041,1,4,3:0:0:0:
216,128,266109,2,0,L|144:128,1,50,8|0,3:0|3:0,0:0:0:0:
368,120,266245,2,0,L|440:120,1,50,0|8,3:0|3:0,0:0:0:0:
160,320,266382,6,0,B|32:312|32:312|160:304|160:304|208:256|264:200|280:136|264:88|232:48|200:24|144:24|96:48|80:64|72:80|80:152,1,750,4|0,3:0|3:0,0:0:0:0:
320,296,267336,6,0,B|408:264|440:232|464:200|472:168|456:128|440:96|424:72|384:48|344:40|304:40|280:40|264:48|240:48|216:48|208:48|208:48|472:48,1,750,0|0,3:0|0:0,0:0:0:0:
344,88,268291,1,0,3:0:0:0:
456,88,268427,1,0,3:0:0:0:
176,200,268564,6,0,L|168:96,1,100,2|0,3:3|3:0,0:0:0:0:
304,192,268836,2,0,L|312:88,1,100,0|0,0:0|3:0,0:0:0:0:
184,104,269109,1,10,3:3:0:0:
320,104,269245,1,0,0:0:0:0:
80,104,269382,1,0,3:0:0:0:
320,320,269518,6,0,B|384:272|424:216|432:176|416:120|392:80|328:56|256:56|216:80|200:120|200:168|232:208|272:224|312:240|392:248|440:208|456:176|464:144|464:96|456:56,1,750,0|0,3:0|0:0,0:0:0:0:
248,80,270473,2,0,L|368:80,1,100,0|0,3:0|3:0,0:0:0:0:
128,200,270745,5,2,3:3:0:0:
48,168,270836,2,0,L|56:96,1,66.6666666666667
136,200,271018,1,0,0:0:0:0:
152,176,271064,1,0,0:0:0:0:
136,200,271109,1,0,0:0:0:0:
96,200,271155,1,0,3:0:0:0:
48,200,271200,1,0,0:0:0:0:
96,200,271245,1,0,0:0:0:0:
264,160,271291,6,0,L|352:160,1,66.6666666666667,10|0,3:3|0:0,0:0:0:0:
256,152,271473,1,0,0:0:0:0:
408,96,271564,2,0,L|496:96,1,66.6666666666667,0|0,3:0|0:0,0:0:0:0:
400,88,271746,1,0,0:0:0:0:
168,200,271836,6,0,L|160:160,3,33.3333333333333,0|0|0|0,0:0|0:0|0:0|3:0,0:0:0:0:
254,152,272064,1,0,0:0:0:0:
174,144,272155,1,0,0:0:0:0:
254,152,272245,1,0,3:0:0:0:
307,151,272314,1,0,3:0:0:0:
161,86,272382,6,0,L|111:86,1,50,10|0,3:3|3:0,0:0:0:0:
192,80,272518,2,0,L|256:80,1,50,0|0,3:0|3:0,0:0:0:0:
416,64,272655,2,0,L|360:64,1,50,0|0,3:0|3:0,0:0:0:0:
192,144,272791,2,0,L|128:144,1,50,0|0,3:0|3:0,0:0:0:0:
344,144,272927,5,2,3:3:0:0:
424,144,273018,2,0,L|432:72,1,66.6666666666667,0|0,3:0|3:0,0:0:0:0:
224,128,273200,1,0,3:0:0:0:
304,128,273291,2,0,L|312:56,1,66.6666666666667,0|0,3:0|3:0,0:0:0:0:
104,112,273473,6,0,L|48:112,1,50,10|0,3:3|3:0,0:0:0:0:
112,104,273609,1,0,3:0:0:0:
328,96,273745,2,0,L|280:48,1,50,0|0,3:0|3:0,0:0:0:0:
216,56,273882,1,0,3:0:0:0:
432,248,274018,5,2,3:3:0:0:
424,216,274109,1,0,3:0:0:0:
376,216,274200,1,0,3:0:0:0:
304,216,274291,1,0,3:0:0:0:
224,216,274382,1,0,3:0:0:0:
304,216,274473,1,0,3:0:0:0:
120,128,274564,5,8,3:1:0:0:
40,128,274655,2,0,L|48:48,1,66.6666666666667,8|2,3:0|3:0,0:0:0:0:
256,128,274836,2,0,L|208:80,1,66.6666666666667
128,128,275018,1,0,0:0:0:0:
392,312,275109,6,0,P|392:96|384:312,1,625,4|0,3:1|0:0,0:0:0:0:
440,256,275927,1,0,3:0:0:0:
336,264,276064,1,0,3:0:0:0:
80,280,276200,6,0,P|72:224|248:96,1,300,2|0,3:3|0:0,0:0:0:0:
112,160,276745,2,0,L|104:56,1,100,10|0,3:3|3:0,0:0:0:0:
240,88,277018,2,0,L|232:192,1,100,0|0,3:0|3:0,0:0:0:0:
448,144,277291,6,0,L|328:144,1,100,2|0,3:3|3:0,0:0:0:0:
464,208,277564,2,0,L|472:104,1,100,0|0,3:0|3:0,0:0:0:0:
264,176,277836,2,0,L|384:176,1,100,10|0,3:3|3:0,0:0:0:0:
248,240,278109,2,0,L|240:136,1,100,0|0,3:0|3:0,0:0:0:0:
24,152,278382,6,0,L|136:152,1,100,2|0,3:3|3:0,0:0:0:0:
344,128,278655,1,0,3:0:0:0:
128,280,278791,2,0,P|128:224|224:128,1,200,0|0,3:0|0:0,0:0:0:0:
96,160,279200,2,0,L|88:56,1,100,0|0,3:0|3:0,0:0:0:0:
424,168,279473,6,0,L|432:112,1,50
352,112,279609,2,0,L|296:112,1,50,0|0,3:0|3:0,0:0:0:0:
128,176,279745,2,0,L|120:120,1,50,0|0,3:0|3:0,0:0:0:0:
200,120,279881,2,0,L|256:120,1,50,0|0,3:0|3:0,0:0:0:0:
32,264,280018,6,0,L|24:192,1,66.6666666666667
184,192,280200,1,0,3:0:0:0:
344,176,280291,2,0,L|288:176,1,50,0|0,3:0|3:0,0:0:0:0:
216,176,280427,2,0,L|272:176,1,50,0|0,3:0|3:0,0:0:0:0:
448,160,280564,6,0,L|456:128,2,33.3333333333333
312,96,280700,2,0,L|232:96,1,50,0|0,3:0|3:0,0:0:0:0:
64,120,280836,2,0,L|72:64,1,50,0|0,3:0|3:0,0:0:0:0:
256,72,280973,2,0,L|312:72,1,50,0|0,3:0|3:0,0:0:0:0:
488,192,281109,2,0,L|408:192,1,66.6666666666667
240,176,281291,1,0,0:0:0:0:
416,232,281382,2,0,L|424:128,1,100
104,144,281655,6,0,L|96:40,1,100,4|0,3:0|3:0,0:0:0:0:
304,104,281927,1,8,3:0:0:0:
96,64,282064,2,0,L|200:64,1,100,4|0,3:0|0:0,0:0:0:0:
400,96,282336,2,0,L|280:96,1,100,0|8,3:0|3:0,0:0:0:0:
408,88,282609,1,0,3:0:0:0:
192,232,282745,6,0,L|312:232,1,100,12|0,3:0|3:0,0:0:0:0:
80,128,283018,1,0,3:0:0:0:
296,208,283155,2,0,L|144:56,1,200,12|0,3:0|3:0,0:0:0:0:
368,88,283564,2,0,L|376:192,1,100,8|0,3:0|3:0,0:0:0:0:
152,128,283836,6,0,L|32:128,1,100,0|0,3:0|3:0,0:0:0:0:
264,120,284109,1,8,3:3:0:0:
160,120,284245,2,0,L|168:224,1,100,8|8,3:2|3:2,0:0:0:0:
376,120,284518,2,0,L|272:120,1,100,8|8,3:0|3:2,0:0:0:0:
384,112,284791,1,8,3:2:0:0:
168,232,284927,6,0,L|240:160,1,100,8|8,3:0|3:2,0:0:0:0:
352,120,285200,1,8,3:2:0:0:
144,128,285336,1,8,3:0:0:0:
248,128,285472,2,0,L|240:232,1,100,8|8,3:2|3:2,0:0:0:0:
32,176,285745,2,0,L|160:176,1,100,8|8,3:0|3:2,0:0:0:0:
336,144,286018,6,0,L|224:144,1,100,8|8,3:2|3:2,0:0:0:0:
440,112,286291,2,0,L|320:112,1,100,8|8,3:0|3:2,0:0:0:0:
448,104,286564,1,8,3:2:0:0:
240,160,286700,2,0,L|360:160,1,100,8|8,3:0|3:2,0:0:0:0:
232,152,286973,1,8,3:2:0:0:
24,176,287109,6,0,L|32:120,1,50,8|8,3:0|3:0,0:0:0:0:
104,128,287245,2,0,L|184:128,1,50,8|8,3:2|3:2,0:0:0:0:
80,112,287382,2,0,L|144:112,1,50,8|8,3:2|3:2,0:0:0:0:
328,184,287518,1,0,3:0:0:0:
360,152,287586,1,0,3:0:0:0:
328,184,287655,5,8,3:2:0:0:
256,184,287723,1,0,3:0:0:0:
184,176,287791,2,0,L|248:176,1,50,8|0,3:2|3:0,0:0:0:0:
432,248,287927,2,0,P|472:208|416:152,1,150,12|0,3:0|0:0,0:0:0:0:
253,255,288200,5,12,3:0:0:0:
34,193,288336,1,0,3:0:0:0:
240,149,288473,2,0,L|371:134,1,100,8|2,3:2|3:1,0:0:0:0:
94,297,288745,2,0,L|101:149,1,100,8|0,3:0|3:0,0:0:0:0:
230,163,289018,2,0,L|108:151,1,100,2|0,3:1|3:0,0:0:0:0:
385,184,289291,5,8,3:0:0:0:
76,298,289427,1,0,3:0:0:0:
196,275,289564,1,8,3:2:0:0:
76,298,289700,1,2,3:1:0:0:
394,203,289836,2,0,L|468:211,2,50,8|0|0,3:0|3:0|3:0,0:0:0:0:
270,314,290109,1,2,3:1:0:0:
393,289,290245,1,0,3:0:0:0:
140,328,290382,6,0,L|131:212,1,100,8|0,3:0|3:0,0:0:0:0:
265,232,290655,2,0,L|276:114,1,100,8|2,3:2|3:1,0:0:0:0:
149,124,290927,1,8,3:0:0:0:
275,76,291064,1,0,3:0:0:0:
149,124,291200,2,0,L|38:113,1,100,2|0,3:1|3:0,0:0:0:0:
260,182,291473,5,8,3:0:0:0:
462,109,291609,1,0,3:0:0:0:
260,182,291745,2,0,L|149:171,1,100,8|2,3:2|3:1,0:0:0:0:
389,122,292018,2,0,L|395:246,1,100,8|0,3:0|3:0,0:0:0:0:
253,267,292291,1,2,3:1:0:0:
200,279,292359,1,0,3:0:0:0:
147,292,292427,1,0,3:0:0:0:
409,175,292564,6,0,L|416:298,1,100,8|0,3:0|3:0,0:0:0:0:
287,263,292836,2,0,L|280:386,1,100,8|2,3:2|3:1,0:0:0:0:
145,149,293109,2,0,L|152:272,1,100,8|0,3:0|3:0,0:0:0:0:
23,237,293382,6,0,L|16:360,1,100,2|0,3:1|3:0,0:0:0:0:
152,259,293655,1,8,3:0:0:0:
382,207,293791,1,0,3:0:0:0:
152,259,293927,2,0,L|37:246,1,100,8|2,3:2|3:1,0:0:0:0:
268,69,294200,2,0,L|275:203,1,100,8|0,3:0|3:0,0:0:0:0:
146,192,294473,1,2,3:1:0:0:
200,184,294541,1,0,3:0:0:0:
254,176,294609,1,0,3:0:0:0:
465,181,294745,5,8,3:0:0:0:
241,98,294882,1,0,3:0:0:0:
473,202,295018,1,8,3:2:0:0:
340,240,295155,1,2,3:1:0:0:
474,193,295291,1,8,3:0:0:0:
478,89,295428,1,0,3:0:0:0:
347,93,295564,1,0,3:0:0:0:
480,55,295701,1,0,3:0:0:0:
234,149,295836,5,10,3:1:0:0:
470,181,295973,2,0,L|474:260,1,50,8|0,3:2|3:0,0:0:0:0:
305,268,296109,2,0,L|220:277,1,50,8|0,3:2|3:0,0:0:0:0:
408,329,296245,2,0,L|473:340,1,50,2|0,3:1|3:0,0:0:0:0:
248,347,296382,1,8,3:0:0:0:
353,302,296518,1,0,3:0:0:0:
136,261,296655,1,8,3:2:0:0:
44,215,296791,1,0,3:0:0:0:
333,128,296927,5,8,3:0:0:0:
49,51,297064,1,0,3:0:0:0:
161,78,297200,1,8,3:2:0:0:
49,51,297336,1,2,3:1:0:0:
315,204,297473,1,8,3:0:0:0:
189,178,297609,1,0,3:0:0:0:
446,58,297745,1,2,3:1:0:0:
458,159,297882,1,0,3:0:0:0:
192,268,298018,5,8,3:0:0:0:
459,212,298155,1,0,3:0:0:0:
188,245,298291,2,0,L|194:168,1,50,8|0,3:2|3:0,0:0:0:0:
274,189,298427,2,0,L|349:184,1,50,2|0,3:1|3:0,0:0:0:0:
173,110,298564,1,8,3:0:0:0:
41,69,298700,1,0,3:0:0:0:
305,65,298836,1,2,3:1:0:0:
437,24,298972,1,0,3:0:0:0:
191,327,299109,5,8,3:0:0:0:
311,291,299245,1,0,3:0:0:0:
97,231,299382,1,8,3:2:0:0:
47,184,299450,1,0,3:0:0:0:
96,130,299518,1,2,3:1:0:0:
321,139,299655,1,8,3:0:0:0:
76,39,299791,1,0,3:0:0:0:
196,3,299927,2,0,L|266:22,1,50,2|0,3:1|3:0,0:0:0:0:
182,19,300064,2,0,L|126:29,1,50,0|0,3:0|3:0,0:0:0:0:
299,101,300200,5,8,3:0:0:0:
422,55,300336,1,0,3:0:0:0:
200,196,300473,1,8,3:2:0:0:
328,235,300609,2,0,L|242:245,1,50,2|0,3:1|3:0,0:0:0:0:
67,298,300745,1,8,3:0:0:0:
62,177,300882,1,0,3:0:0:0:
287,123,301018,1,2,3:1:0:0:
161,80,301155,1,0,3:0:0:0:
445,100,301291,5,8,3:0:0:0:
449,210,301427,1,0,3:0:0:0:
312,182,301564,1,8,3:2:0:0:
434,233,301701,1,2,3:1:0:0:
181,173,301836,1,8,3:0:0:0:
177,283,301972,1,0,3:0:0:0:
314,255,302109,1,2,3:1:0:0:
192,306,302246,1,0,3:0:0:0:
440,143,302382,5,8,3:0:0:0:
319,106,302518,1,0,3:0:0:0:
114,146,302655,1,8,3:2:0:0:
62,160,302723,1,0,3:0:0:0:
62,160,302791,1,2,3:1:0:0:
114,146,302859,1,0,3:0:0:0:
287,189,302927,1,8,3:0:0:0:
405,224,303064,1,0,3:0:0:0:
158,258,303200,1,2,3:1:0:0:
145,357,303336,1,0,3:0:0:0:
460,143,303473,5,8,3:0:0:0:
334,112,303609,1,0,3:0:0:0:
460,63,303745,1,2,3:1:0:0:
209,180,303882,2,0,L|203:104,1,50,0|0,3:0|3:0,0:0:0:0:
394,284,304018,1,12,3:0:0:0:
401,180,304155,1,0,3:0:0:0:
194,62,304291,1,12,3:0:0:0:
321,40,304427,1,0,3:0:0:0:
64,93,304564,5,8,3:0:0:0:
318,129,304700,2,0,L|322:211,1,50,8|0,3:2|3:0,0:0:0:0:
125,220,304836,2,0,L|51:228,1,50,8|0,3:2|3:0,0:0:0:0:
225,303,304973,2,0,L|317:318,1,50,8|0,3:0|3:0,0:0:0:0:
76,275,305109,1,8,3:2:0:0:
28,268,305177,1,8,3:2:0:0:
28,268,305245,1,8,3:2:0:0:
76,275,305314,1,8,3:2:0:0:
231,186,305382,1,10,3:0:0:0:
115,171,305518,1,0,0:0:0:0:
344,107,305655,5,12,3:3:0:0:
117,69,305791,1,0,0:0:0:0:
63,62,305859,1,0,0:0:0:0:
234,81,305927,2,0,B|492:45|492:45|492:307|492:307|377:61,2,779.999964294435,8|8|8,3:2|3:0|3:0,0:0:0:0:
358,43,306882,5,0,0:0:0:0:
234,81,307018,1,0,3:0:0:0:
483,289,307155,2,0,B|485:20|485:20|184:64,1,540.000002059937,8|0,3:0|0:0,0:0:0:0:
486,154,307564,1,8,3:0:0:0:
365,184,307700,1,0,0:0:0:0:
62,280,307836,5,8,3:0:0:0:
57,173,307973,1,0,0:0:0:0:
320,159,308109,2,0,B|53:111|53:111|106:-13|106:-13|187:132,1,540.000002059937,8|0,3:0|3:0,0:0:0:0:
439,142,308518,5,8,3:0:0:0:
192,192,308609,1,0,0:0:0:0:
155,184,308655,1,0,3:0:0:0:
192,192,308700,1,0,0:0:0:0:
312,71,308745,1,0,0:0:0:0:
349,63,308791,1,0,3:0:0:0:
196,77,308836,1,0,0:0:0:0:
111,54,308927,1,8,3:0:0:0:
320,277,309064,5,0,3:0:0:0:
403,234,309155,1,0,0:0:0:0:
254,170,309200,1,0,3:2:0:0:
219,160,309245,1,0,0:0:0:0:
254,170,309291,1,0,0:0:0:0:
399,125,309336,1,8,3:0:0:0:
434,115,309381,1,0,0:0:0:0:
399,125,309427,1,0,0:0:0:0:
256,51,309473,5,0,3:2:0:0:
140,60,309609,1,0,3:0:0:0:
104,49,309655,1,0,0:0:0:0:
140,60,309700,1,0,0:0:0:0:
327,83,309745,1,12,3:0:0:0:
449,44,309882,1,0,3:0:0:0:
205,180,310018,6,0,L|282:177,1,55.0000016784668,12|0,3:0|3:0,0:0:0:0:
445,256,310155,2,0,L|365:249,1,55.0000016784668,0|0,3:0|3:0,0:0:0:0:
206,290,310291,2,0,L|104:277,1,55.0000016784668,8|0,3:0|3:0,0:0:0:0:
344,232,310427,2,0,L|411:219,1,55.0000016784668,0|0,3:0|3:0,0:0:0:0:
259,60,310564,6,0,L|206:46,1,55.0000016784668,0|0,3:0|3:0,0:0:0:0:
62,125,310700,2,0,L|58:55,1,55.0000016784668,8|0,3:0|3:0,0:0:0:0:
260,224,310836,2,0,L|349:217,1,55.0000016784668,0|0,3:0|3:0,0:0:0:0:
251,220,310973,2,0,L|168:223,1,55.0000016784668,0|0,3:0|3:0,0:0:0:0:
433,135,311109,6,0,L|510:122,1,55.0000016784668,12|0,3:0|3:0,0:0:0:0:
488,125,311245,2,0,L|434:135,1,55.0000016784668,0|0,3:0|3:0,0:0:0:0:
298,129,311382,2,0,L|192:142,1,55.0000016784668,0|0,3:0|3:0,0:0:0:0:
103,69,311518,6,0,L|26:56,1,55.0000016784668,8|0,3:0|3:0,0:0:0:0:
48,59,311654,2,0,L|102:68,1,55.0000016784668,0|0,3:0|3:0,0:0:0:0:
280,60,311791,2,0,L|285:-23,1,55.0000016784668,0|0,3:0|3:0,0:0:0:0:
108,193,311927,6,0,L|32:204,1,55.0000016784668,12|0,3:0|3:0,0:0:0:0:
53,200,312064,2,0,L|122:191,1,55.0000016784668,0|0,3:0|3:0,0:0:0:0:
275,240,312200,2,0,L|276:141,1,55.0000016784668,6|0,3:3|3:0,0:0:0:0:
110,116,312336,2,0,L|111:17,1,55.0000016784668,0|0,3:0|3:0,0:0:0:0:
290,164,312473,5,2,3:0:0:0:
169,136,312609,1,0,0:0:0:0:
160,51,312745,1,0,0:0:0:0:
414,247,312882,1,2,3:3:0:0:
167,282,313018,1,0,0:0:0:0:
154,194,313155,1,0,0:0:0:0:
437,208,313291,6,0,B|169:171|169:171|156:35|156:35|143:210,1,540.000002059937,8|0,3:2|3:1,0:0:0:0:
471,287,313700,2,0,L|84:234,2,270.000001029968,8|2|2,0:3|0:3|0:3,0:0:0:0:
242,157,314109,2,0,L|170:164,1,55.0000016784668,8|8,3:0|3:0,0:0:0:0:
415,93,314245,2,0,L|498:106,1,55.0000016784668,8|8,3:0|3:0,0:0:0:0:
184,288,314382,6,0,P|128:288|128:160,1,220.000006713867,0|0,3:2|3:0,0:0:0:0:
256,160,314791,1,0,3:0:0:0:
128,256,314927,2,0,L|288:96,1,220.000006713867,12|0,0:2|3:0,0:0:0:0:
152,128,315336,1,0,3:0:0:0:
280,256,315473,6,0,L|272:32,1,220.000006713867,4|0,0:0|0:0,0:0:0:0:
400,64,315882,1,0,3:0:0:0:
272,40,316018,2,0,L|280:152,1,110.000003356934,12|0,0:0|0:0,0:0:0:0:
408,160,316291,2,0,L|400:48,1,110.000003356934,0|0,3:0|3:0,0:0:0:0:
144,208,316564,6,0,P|144:152|256:40,1,220.000006713867,4|0,3:2|0:0,0:0:0:0:
384,216,316973,2,0,L|224:56,1,220.000006713867,0|0,3:0|0:0,0:0:0:0:
360,72,317382,1,0,3:0:0:0:
232,72,317518,2,0,L|240:184,1,110.000003356934,0|4,3:0|0:0,0:0:0:0:
440,104,317791,6,0,L|328:104,1,110.000003356934,8|0,3:2|0:0,0:0:0:0:
448,96,318064,1,0,3:0:0:0:
248,104,318200,2,0,L|376:104,1,110.000003356934,12|0,0:0|0:0,0:0:0:0:
160,112,318473,2,0,L|40:112,1,110.000003356934,0|0,3:0|3:0,0:0:0:0:
288,264,318745,6,0,P|368:184|304:120,1,220.000006713867,4|0,3:2|0:0,0:0:0:0:
184,112,319155,1,0,3:0:0:0:
312,240,319291,2,0,L|304:16,1,220.000006713867,12|0,0:0|3:0,0:0:0:0:
432,96,319700,1,0,3:0:0:0:
304,24,319836,6,0,L|144:184,1,220.000006713867,4|0,0:2|0:0,0:0:0:0:
280,128,320245,1,0,3:0:0:0:
152,192,320382,2,0,L|272:192,1,110.000003356934,12|0,0:0|0:0,0:0:0:0:
464,192,320655,2,0,L|344:192,1,110.000003356934,0|0,3:0|3:0,0:0:0:0:
128,136,320927,6,0,L|240:136,1,110.000003356934,4|2,0:2|0:0,0:0:0:0:
120,128,321200,1,2,0:0:0:0:
348,136,321336,2,0,L|236:136,1,110.000003356934,2|14,3:2|0:0,0:0:0:0:
356,128,321609,1,2,0:0:0:0:
128,200,321745,2,0,L|120:88,1,110.000003356934,2|2,3:2|3:2,0:0:0:0:
352,152,322018,5,6,3:0:0:0:
144,152,322564,2,0,L|136:72,1,73.3333355712891,2|2,0:3|0:3,0:0:0:0:
240,80,322745,1,2,0:3:0:0:
424,144,322836,2,0,L|344:144,1,73.3333355712891,8|8,0:1|0:1,0:0:0:0:
184,144,323017,1,8,0:1:0:0:
16,224,323109,6,0,P|16:168|128:56,1,220.000006713867,4|0,3:0|0:0,0:0:0:0:
248,80,323518,1,0,3:0:0:0:
120,232,323655,2,0,L|128:8,1,220.000006713867,12|0,0:2|3:0,0:0:0:0:
256,64,324064,1,0,3:0:0:0:
384,232,324200,6,0,L|376:8,1,220.000006713867,4|0,0:0|0:0,0:0:0:0:
504,64,324609,1,0,3:0:0:0:
376,80,324745,2,0,L|384:192,1,110.000003356934,12|0,0:0|0:0,0:0:0:0:
256,192,325018,2,0,L|384:192,1,110.000003356934,0|0,3:0|3:0,0:0:0:0:
152,280,325291,6,0,P|96:280|96:152,1,220.000006713867,4|0,3:2|0:0,0:0:0:0:
224,176,325700,2,0,P|280:176|280:48,1,220.000006713867,0|0,3:0|0:0,0:0:0:0:
152,56,326109,1,0,3:0:0:0:
280,56,326245,2,0,L|288:168,1,110.000003356934,0|4,3:0|0:0,0:0:0:0:
72,144,326518,6,0,L|208:144,1,110.000003356934,8|0,3:2|0:0,0:0:0:0:
64,136,326791,1,0,3:0:0:0:
280,136,326927,2,0,L|288:24,1,110.000003356934,12|0,0:0|0:0,0:0:0:0:
72,224,327200,2,0,L|80:112,1,110.000003356934,0|0,3:0|3:0,0:0:0:0:
320,240,327473,6,0,P|400:160|336:96,1,220.000006713867,4|0,3:2|0:0,0:0:0:0:
216,112,327882,1,0,3:0:0:0:
344,208,328018,2,0,L|184:48,1,220.000006713867,12|0,0:0|3:0,0:0:0:0:
320,64,328427,1,0,3:0:0:0:
192,264,328564,6,0,L|200:40,1,220.000006713867,4|0,0:2|0:0,0:0:0:0:
328,96,328973,1,0,3:0:0:0:
200,88,329109,2,0,L|208:200,1,110.000003356934,12|0,0:0|0:0,0:0:0:0:
432,136,329382,2,0,L|424:24,1,110.000003356934,0|0,3:0|3:0,0:0:0:0:
184,208,329655,6,0,L|312:208,1,110.000003356934,4|0,0:1|0:0,0:0:0:0:
96,152,329927,1,8,0:1:0:0:
296,104,330064,2,0,L|168:104,1,110.000003356934,4|0,3:3|0:0,0:0:0:0:
384,104,330336,1,8,0:1:0:0:
184,184,330473,2,0,L|176:72,1,110.000003356934,8|0,0:1|3:0,0:0:0:0:
424,112,330745,6,0,L|312:112,1,110.000003356934,12|0,0:0|3:0,0:0:0:0:
432,104,331018,1,4,3:0:0:0:
200,176,331155,1,12,0:0:0:0:
320,168,331292,2,0,L|312:56,1,110.000003356934,0|4,3:0|3:0,0:0:0:0:
80,80,331564,1,12,0:0:0:0:
312,80,331700,1,4,3:0:0:0:
40,224,331836,6,0,L|32:112,1,110.000003356934,4|0,0:2|0:0,0:0:0:0:
152,136,332109,1,8,3:1:0:0:
352,104,332245,2,0,L|216:104,1,110.000003356934,0|0,3:0|3:0,0:0:0:0:
448,224,332518,2,0,L|456:112,1,110.000003356934,8|0,3:1|3:0,0:0:0:0:
336,136,332791,1,0,3:0:0:0:
128,192,332927,6,0,L|216:104,1,110.000003356934,8|0,3:0|3:0,0:0:0:0:
328,96,333200,1,0,3:0:0:0:
120,184,333336,2,0,L|208:96,1,110.000003356934,8|0,3:0|3:0,0:0:0:0:
320,88,333609,1,0,3:0:0:0:
112,176,333745,2,0,L|104:64,1,110.000003356934,8|0,3:0|3:0,0:0:0:0:
336,168,334018,6,0,L|464:168,1,110.000003356934,4|0,3:0|3:0,0:0:0:0:
248,160,334291,2,0,L|256:48,1,110.000003356934,8|0,3:1|3:0,0:0:0:0:
456,72,334564,2,0,L|328:72,1,110.000003356934,4|0,3:0|3:0,0:0:0:0:
152,160,334836,2,0,L|32:160,1,110.000003356934,8|0,3:1|3:0,0:0:0:0:
360,160,335109,6,0,L|480:160,1,110.000003356934,10|0,3:2|3:0,0:0:0:0:
264,104,335382,1,8,3:2:0:0:
376,112,335518,1,0,3:0:0:0:
368,104,335586,1,0,3:0:0:0:
360,96,335655,1,0,3:0:0:0:
248,72,335791,1,0,3:0:0:0:
48,176,335927,2,0,L|168:176,1,110.000003356934,2|0,3:3|3:0,0:0:0:0:
440,184,336200,5,12,3:0:0:0:
472,152,336269,1,0,3:0:0:0:
440,184,336337,1,0,3:0:0:0:
360,184,336405,1,0,3:0:0:0:
168,160,336473,2,0,L|160:96,1,55.0000016784668,8|0,3:0|3:0,0:0:0:0:
240,104,336609,2,0,L|312:104,1,55.0000016784668,0|0,3:0|3:0,0:0:0:0:
464,96,336745,6,0,L|392:96,1,55.0000016784668,0|0,3:0|3:0,0:0:0:0:
240,64,336882,2,0,L|184:64,1,55.0000016784668,8|0,3:0|3:0,0:0:0:0:
376,136,337018,2,0,L|384:72,1,55.0000016784668,0|0,3:0|3:0,0:0:0:0:
304,80,337154,2,0,L|232:80,1,55.0000016784668,0|0,3:0|3:0,0:0:0:0:
56,192,337291,6,0,L|48:136,1,55.0000016784668,8|0,3:0|3:0,0:0:0:0:
128,144,337427,2,0,L|120:88,1,55.0000016784668,0|0,3:0|3:0,0:0:0:0:
40,80,337564,2,0,L|112:80,1,55.0000016784668,0|0,3:0|3:0,0:0:0:0:
320,200,337700,6,0,L|328:144,1,55.0000016784668,8|0,3:0|3:0,0:0:0:0:
248,152,337836,2,0,L|208:112,1,55.0000016784668,0|0,3:0|3:0,0:0:0:0:
128,104,337973,2,0,L|64:104,1,55.0000016784668,0|0,3:0|3:0,0:0:0:0:
296,56,338109,6,0,L|352:56,1,55.0000016784668,8|0,3:0|3:0,0:0:0:0:
128,48,338245,2,0,L|72:48,1,55.0000016784668,0|0,3:0|3:0,0:0:0:0:
328,144,338382,5,8,3:0:0:0:
400,144,338450,1,0,3:0:0:0:
440,144,338518,2,0,L|432:88,1,55.0000016784668,0|0,3:0|3:0,0:0:0:0:
240,104,338655,2,0,L|184:104,1,55.0000016784668,8|0,3:0|3:0,0:0:0:0:
264,80,338791,2,0,L|272:136,1,55.0000016784668,0|0,3:0|3:0,0:0:0:0:
104,80,338927,6,0,L|176:80,1,55.0000016784668,0|0,3:0|3:0,0:0:0:0:
328,72,339064,2,0,L|384:72,1,55.0000016784668,8|0,3:0|3:0,0:0:0:0:
192,144,339200,1,0,3:0:0:0:
120,144,339268,1,0,3:0:0:0:
74,144,339336,2,0,L|80:90,1,55.0000016784668,0|0,3:0|3:0,0:0:0:0:
424,280,339473,6,0,B|480:280|480:280|392:192,1,165.000005035401,12|0,3:0|0:0,0:0:0:0:
128,208,339745,2,0,L|56:208,1,55.0000016784668,2|2,3:0|3:0,0:0:0:0:
352,208,339882,2,0,L|416:208,1,55.0000016784668,2|2,3:0|3:0,0:0:0:0:
160,176,340018,6,0,L|112:128,1,55.0000016784668,2|2,3:0|3:0,0:0:0:0:
320,168,340155,2,0,L|360:120,1,55.0000016784668,2|2,3:0|3:0,0:0:0:0:
192,120,340291,2,0,L|184:64,1,55.0000016784668,2|2,3:0|3:0,0:0:0:0:
264,88,340427,2,0,L|272:32,1,55.0000016784668,2|2,3:0|3:0,0:0:0:0:
48,288,340564,5,4,3:1:0:0:
336,176,348200,6,0,L|416:176,1,73.3333355712891,2|8,3:0|3:0,0:0:0:0:
232,120,348382,1,8,3:2:0:0:
56,152,348473,2,0,L|48:72,1,73.3333355712891,2|0,3:0|3:0,0:0:0:0:
144,80,348655,1,8,3:3:0:0:
312,136,348745,6,0,L|320:56,1,73.3333355712891,2|2,3:3|3:3,0:0:0:0:
224,64,348927,1,8,3:3:0:0:
392,192,349018,2,0,L|480:192,1,73.3333355712891,8|8,3:2|3:2,0:0:0:0:
384,184,349200,1,8,3:2:0:0:
152,240,349291,6,0,P|96:240|96:112,1,220.000006713867,4|0,3:1|0:0,0:0:0:0:
304,192,349700,1,0,3:0:0:0:
184,184,349836,2,0,L|192:72,1,110.000003356934
400,144,350109,2,0,L|392:32,1,110.000003356934,0|0,3:0|3:0,0:0:0:0:
184,280,350382,6,0,P|184:224|296:112,1,220.000006713867,8|0,3:0|0:0,0:0:0:0:
88,120,350791,2,0,L|200:120,1,110.000003356934,8|0,3:0|0:0,0:0:0:0:
80,112,351064,1,0,0:0:0:0:
280,112,351200,2,0,L|144:112,1,110.000003356934,0|0,3:0|3:0,0:0:0:0:
400,208,351473,6,0,P|344:208|232:96,2,220.000006713867,2|0|0,3:0|3:0|0:0,0:0:0:0:
272,168,352155,1,0,0:0:0:0:
400,160,352291,2,0,L|408:48,1,110.000003356934
168,144,352564,5,8,3:2:0:0:
368,144,352836,1,8,3:0:0:0:
160,144,353109,1,8,3:0:0:0:
264,144,353245,1,0,3:0:0:0:
384,144,353382,1,0,3:0:0:0:
48,272,353655,6,0,L|56:160,1,110.000003356934,0|0,3:0|3:0,0:0:0:0:
192,112,353927,2,0,L|184:224,1,110.000003356934,0|0,3:0|3:0,0:0:0:0:
320,264,354200,2,0,L|328:152,1,110.000003356934,8|0,3:0|3:0,0:0:0:0:
464,104,354472,2,0,L|456:216,1,110.000003356934,0|0,3:0|0:0,0:0:0:0:
224,128,354745,6,0,L|104:128,1,110.000003356934,2|0,3:0|3:0,0:0:0:0:
344,272,355018,2,0,L|336:160,1,110.000003356934,0|0,3:0|3:0,0:0:0:0:
200,112,355290,2,0,L|208:224,1,110.000003356934,8|0,3:0|0:0,0:0:0:0:
72,264,355563,2,0,L|64:152,1,110.000003356934,0|0,3:0|3:0,0:0:0:0:
296,152,355836,6,0,L|408:152,1,110.000003356934,0|0,3:0|3:0,0:0:0:0:
176,128,356109,2,0,L|184:16,1,110.000003356934,8|0,3:0|3:0,0:0:0:0:
416,96,356382,1,0,3:0:0:0:
184,112,356518,2,0,L|312:112,1,110.000003356934,8|0,3:0|0:0,0:0:0:0:
176,104,356791,1,0,3:0:0:0:
424,232,356927,6,0,L|432:176,1,55.0000016784668,8|8,3:0|3:0,0:0:0:0:
352,176,357064,2,0,L|296:176,1,55.0000016784668,8|8,3:0|3:0,0:0:0:0:
128,152,357200,2,0,L|200:152,1,55.0000016784668,2|2,2:0|2:0,0:0:0:0:
352,136,357336,2,0,L|416:136,1,55.0000016784668,2|2,3:0|3:0,0:0:0:0:
184,224,357473,5,4,3:0:0:0:
152,192,357542,1,2,3:0:0:0:
184,224,357610,1,8,3:0:0:0:
320,224,357677,1,2,0:0:0:0:
456,208,357745,2,0,L|400:208,1,55.0000016784668,2|0,0:0|0:0,0:0:0:0:
176,192,357882,2,0,L|96:192,1,55.0000016784668
399,103,358018,6,0,L|508:133,1,110.000003356934,14|0,3:0|3:0,0:0:0:0:
361,171,358291,1,10,3:0:0:0:
227,224,358427,1,0,3:2:0:0:
275,215,358495,1,0,3:0:0:0:
471,181,358564,2,0,L|477:319,1,110.000003356934,10|0,3:0|3:0,0:0:0:0:
415,293,358768,1,0,3:0:0:0:
231,326,358836,2,0,L|113:313,1,110.000003356934,10|0,3:0|3:0,0:0:0:0:
385,160,359109,6,0,L|266:140,1,110.000003356934,10|0,3:0|3:0,0:0:0:0:
410,142,359382,1,10,3:0:0:0:
91,208,359518,2,0,L|83:115,1,55.0000016784668,0|0,3:2|3:0,0:0:0:0:
237,112,359655,1,10,3:0:0:0:
369,67,359791,2,0,L|287:74,1,55.0000016784668,0|0,3:0|3:0,0:0:0:0:
77,293,359927,2,0,L|222:281,1,110.000003356934,10|0,3:0|3:0,0:0:0:0:
443,330,360200,6,0,L|297:313,1,110.000003356934,10|0,3:0|3:0,0:0:0:0:
110,353,360473,2,0,L|105:207,1,110.000003356934,10|0,3:0|3:0,0:0:0:0:
172,247,360677,1,0,3:0:0:0:
328,120,360745,2,0,L|443:97,1,110.000003356934,10|0,3:0|3:0,0:0:0:0:
372,106,360950,1,0,3:0:0:0:
198,61,361018,2,0,L|328:41,1,110.000003356934,10|0,3:3|3:0,0:0:0:0:
65,105,361291,6,0,L|55:246,1,110.000003356934,14|0,3:0|3:0,0:0:0:0:
123,215,361495,1,0,3:0:0:0:
328,301,361564,1,10,3:0:0:0:
465,307,361700,2,0,L|379:303,1,55.0000016784668,0|0,3:0|3:0,0:0:0:0:
204,126,361836,2,0,L|201:267,1,110.000003356934,10|0,3:0|3:0,0:0:0:0:
263,235,362041,1,0,3:0:0:0:
447,201,362109,2,0,L|448:112,1,55.0000016784668,10|0,3:0|3:0,0:0:0:0:
277,49,362245,2,0,L|197:45,1,55.0000016784668,0|0,3:0|3:0,0:0:0:0:
424,244,362382,6,0,L|426:91,1,110.000003356934,12|0,3:1|3:0,0:0:0:0:
367,119,362586,1,0,3:0:0:0:
204,136,362655,2,0,L|64:108,1,110.000003356934,10|0,3:0|3:0,0:0:0:0:
156,127,362859,1,0,3:0:0:0:
316,267,362927,2,0,L|318:184,1,55.0000016784668,10|0,3:0|3:0,0:0:0:0:
156,246,363064,2,0,L|74:241,1,55.0000016784668,0|0,3:0|3:0,0:0:0:0:
254,151,363200,2,0,L|393:175,1,110.000003356934,10|0,3:0|3:0,0:0:0:0:
119,314,363473,6,0,L|55:304,1,55.0000016784668,10|0,3:0|3:0,0:0:0:0:
208,246,363609,2,0,L|263:240,1,55.0000016784668,0|0,3:0|3:0,0:0:0:0:
409,90,363745,2,0,L|300:76,1,110.000003356934,10|0,3:0|3:0,0:0:0:0:
171,129,364018,1,10,3:0:0:0:
293,173,364155,2,0,L|377:166,1,55.0000016784668,0|0,3:0|3:0,0:0:0:0:
155,219,364291,2,0,L|46:205,1,110.000003356934,10|0,3:0|3:0,0:0:0:0:
437,318,364564,6,0,L|445:229,1,55.0000016784668,12|0,3:1|3:0,0:0:0:0:
293,223,364700,2,0,L|238:229,1,55.0000016784668,0|0,3:0|3:0,0:0:0:0:
89,268,364836,2,0,L|86:124,1,110.000003356934,10|0,3:0|3:0,0:0:0:0:
210,73,365109,2,0,L|100:60,1,110.000003356934,10|0,3:0|3:0,0:0:0:0:
369,186,365382,1,10,3:0:0:0:
138,138,365518,1,0,3:0:0:0:
391,343,365655,5,8,3:1:0:0:
172,268,365791,2,0,L|180:195,1,55.0000016784668,8|0,3:1|3:0,0:0:0:0:
252,232,365927,2,0,L|327:226,1,55.0000016784668,0|0,3:0|3:0,0:0:0:0:
166,121,366064,2,0,L|83:114,1,55.0000016784668,2|8,3:3|3:0,0:0:0:0:
298,68,366200,2,0,L|290:-5,1,55.0000016784668,8|8,3:0|3:0,0:0:0:0:
218,32,366336,2,0,L|143:26,1,55.0000016784668,0|0,3:0|3:0,0:0:0:0:
370,178,366473,2,0,L|479:194,1,110.000003356934,12|0,3:0|3:0,0:0:0:0:
83,322,366745,6,0,L|70:195,1,110.000003356934,8|0,3:0|3:0,0:0:0:0:
192,224,367018,1,10,3:0:0:0:
67,195,367155,2,0,L|161:188,1,55.0000016784668,0|0,3:2|3:0,0:0:0:0:
336,254,367291,2,0,L|476:243,1,110.000003356934,10|0,3:0|3:0,0:0:0:0:
385,247,367495,1,0,3:0:0:0:
189,188,367564,2,0,L|182:74,1,110.000003356934,10|0,3:0|3:0,0:0:0:0:
439,127,367836,6,0,L|302:100,1,110.000003356934,10|0,3:0|3:0,0:0:0:0:
458,59,368109,1,10,3:0:0:0:
194,294,368245,2,0,L|192:198,1,55.0000016784668,0|0,3:2|3:0,0:0:0:0:
352,215,368382,2,0,L|493:192,1,110.000003356934,10|0,3:0|3:0,0:0:0:0:
401,207,368586,1,0,3:0:0:0:
179,152,368655,2,0,L|31:130,1,110.000003356934,10|0,3:0|3:0,0:0:0:0:
279,241,368927,6,0,L|284:164,1,55.0000016784668,12|0,3:1|3:0,0:0:0:0:
118,80,369064,2,0,L|199:71,1,55.0000016784668,0|0,3:0|3:0,0:0:0:0:
404,108,369200,2,0,L|254:81,1,110.000003356934,10|0,3:0|3:0,0:0:0:0:
165,296,369473,2,0,L|162:198,1,55.0000016784668,10|0,3:0|3:0,0:0:0:0:
311,170,369609,2,0,L|226:158,1,55.0000016784668,0|0,3:0|3:0,0:0:0:0:
55,124,369745,2,0,L|187:99,1,110.000003356934,10|0,3:0|3:0,0:0:0:0:
453,244,370018,6,0,L|338:224,1,110.000003356934,10|0,3:0|3:0,0:0:0:0:
59,244,370291,2,0,L|56:134,1,110.000003356934,10|0,3:0|3:0,0:0:0:0:
114,156,370495,1,0,3:0:0:0:
291,128,370564,2,0,L|406:108,1,110.000003356934,10|0,3:0|3:0,0:0:0:0:
96,59,370836,2,0,L|211:39,1,110.000003356934,12|0,3:1|3:0,0:0:0:0:
464,218,371109,5,12,3:1:0:0:
351,181,371245,2,0,L|341:87,1,55.0000016784668,0|0,3:0|3:0,0:0:0:0:
488,103,371382,2,0,L|361:77,1,110.000003356934,10|0,3:0|3:0,0:0:0:0:
247,114,371655,1,10,3:0:0:0:
378,83,371791,2,0,L|382:175,1,55.0000016784668,0|0,3:0|3:0,0:0:0:0:
214,210,371927,2,0,L|87:184,1,110.000003356934,10|0,3:0|3:0,0:0:0:0:
361,288,372200,6,0,L|437:280,1,55.0000016784668,10|0,3:0|3:0,0:0:0:0:
237,194,372336,2,0,L|319:184,1,55.0000016784668,0|0,3:0|3:0,0:0:0:0:
487,131,372473,2,0,L|352:108,1,110.000003356934,10|0,3:0|3:0,0:0:0:0:
259,58,372745,2,0,L|394:35,1,110.000003356934,10|0,3:0|3:0,0:0:0:0:
107,218,373018,2,0,L|242:195,1,110.000003356934,10|0,3:0|3:0,0:0:0:0:
473,154,373291,6,0,L|481:278,1,110.000003356934,14|0,3:0|3:0,0:0:0:0:
205,269,373564,2,0,L|197:393,1,110.000003356934,14|0,3:0|3:0,0:0:0:0:
481,262,373836,1,14,3:0:0:0:
356,219,373973,1,0,3:0:0:0:
51,276,374109,2,0,L|32:128,1,110.000003356934,14|0,3:0|3:0,0:0:0:0:
294,160,374382,5,8,3:0:0:0:
53,116,374518,1,8,3:0:0:0:
298,75,374655,1,8,3:0:0:0:
48,30,374791,1,8,3:0:0:0:
311,242,374927,2,0,L|413:227,1,73.3333355712891,12|8,3:0|3:0,0:0:0:0:
297,227,375109,1,8,3:0:0:0:
110,226,375200,2,0,L|103:121,1,73.3333355712891,8|8,3:0|3:0,0:0:0:0:
310,128,375382,1,8,3:0:0:0:
47,322,375473,6,0,L|39:184,1,119.999996337891,4|0,3:1|0:0,0:0:0:0:
304,81,375745,2,0,L|161:65,1,119.999996337891,0|0,3:0|3:0,0:0:0:0:
460,226,376018,1,8,3:1:0:0:
229,321,376291,2,0,L|224:178,1,119.999996337891,0|0,3:0|3:0,0:0:0:0:
462,140,376564,6,0,L|332:91,1,119.999996337891,4|0,3:1|0:0,0:0:0:0:
462,140,376836,1,0,3:0:0:0:
202,204,376973,1,0,3:0:0:0:
462,140,377109,1,8,3:0:0:0:
237,148,377382,2,0,L|365:174,1,119.999996337891,0|0,3:0|3:0,0:0:0:0:
71,319,377655,6,0,P|92:235|235:156,1,239.999992675781,4|0,3:1|3:0,0:0:0:0:
386,215,378200,2,0,P|365:131|222:52,1,239.999992675781,8|0,3:0|3:0,0:0:0:0:
126,119,378609,1,0,3:0:0:0:
395,186,378745,6,0,L|269:169,1,119.999996337891,0|8,3:0|3:0,0:0:0:0:
414,176,379018,2,0,L|429:335,1,119.999996337891,0|0,3:0|3:0,0:0:0:0:
165,347,379291,1,12,3:0:0:0:
404,196,379564,2,0,L|419:355,1,119.999996337891,0|0,3:0|3:0,0:0:0:0:
141,274,379836,6,0,L|127:131,1,110.000003356934,4|0,3:1|0:0,0:0:0:0:
253,192,380109,2,0,L|383:172,1,110.000003356934,0|0,3:0|3:0,0:0:0:0:
99,78,380382,2,0,P|124:164|247:208,1,220.000006713867,8|0,3:0|3:0,0:0:0:0:
119,231,380791,1,0,3:0:0:0:
371,274,380927,6,0,L|385:131,1,110.000003356934,0|8,3:0|3:0,0:0:0:0:
259,192,381200,2,0,L|129:172,1,110.000003356934,0|0,3:0|3:0,0:0:0:0:
413,78,381473,2,0,P|388:164|265:208,1,220.000006713867,8|0,3:0|3:0,0:0:0:0:
393,231,381882,1,0,3:0:0:0:
182,341,382018,6,0,L|175:224,1,110.000003356934,0|8,3:0|3:0,0:0:0:0:
293,190,382291,2,0,L|170:174,1,110.000003356934,0|0,3:0|3:0,0:0:0:0:
458,137,382564,1,12,3:0:0:0:
227,63,382836,1,12,3:0:0:0:
458,137,383109,5,8,3:0:0:0:
192,284,383245,2,0,L|186:200,1,55.0000016784668,8|8,3:0|3:0,0:0:0:0:
331,228,383382,2,0,L|458:213,1,110.000003356934,8|2,3:0|3:0,0:0:0:0:
153,212,383655,2,0,L|146:61,1,110.000003356934,2|2,3:0|3:0,0:0:0:0:
272,111,383927,2,0,L|142:90,1,110.000003356934,2|2,3:0|3:0,0:0:0:0:
452,318,384200,6,0,L|463:189,1,119.999996337891,4|0,3:1|0:0,0:0:0:0:
199,191,384473,2,0,L|349:176,1,119.999996337891,0|0,3:0|3:0,0:0:0:0:
47,212,384745,1,8,3:0:0:0:
287,87,385018,1,0,3:0:0:0:
37,121,385291,6,0,L|161:99,1,119.999996337891,0|8,3:0|3:0,0:0:0:0:
422,243,385564,2,0,L|287:214,1,119.999996337891,0|0,3:0|3:0,0:0:0:0:
29,234,385836,1,12,3:0:0:0:
250,128,386109,2,0,L|88:102,1,119.999996337891,0|0,3:0|3:0,0:0:0:0:
409,286,386382,6,0,L|416:160,1,110.000003356934,4|0,3:1|0:0,0:0:0:0:
287,127,386655,2,0,L|430:119,1,110.000003356934,0|0,3:0|3:0,0:0:0:0:
157,235,386927,2,0,P|103:183|185:82,1,220.000006713867,8|0,3:0|3:0,0:0:0:0:
294,123,387336,1,0,3:0:0:0:
40,342,387473,6,0,L|30:206,1,110.000003356934,4|8,3:1|3:0,0:0:0:0:
157,231,387745,2,0,L|36:210,1,110.000003356934,0|0,3:0|3:0,0:0:0:0:
312,238,388018,2,0,L|322:102,1,110.000003356934,12|0,3:0|3:0,0:0:0:0:
48,212,388291,2,0,L|157:231,1,110.000003356934,0|0,3:0|3:0,0:0:0:0:
448,149,388564,6,0,L|303:123,1,110.000003356934,0|0,3:0|3:0,0:0:0:0:
463,160,388836,2,0,L|471:279,1,110.000003356934,0|0,3:0|3:0,0:0:0:0:
241,337,389109,2,0,P|224:267|343:185,1,220.000006713867,12|0,3:0|3:0,0:0:0:0:
454,181,389518,1,0,3:0:0:0:
197,121,389655,6,0,L|336:96,1,110.000003356934,0|0,3:0|3:0,0:0:0:0:
434,78,389927,2,0,L|282:52,1,110.000003356934,4|0,3:1|3:0,0:0:0:0:
85,279,390200,2,0,L|73:40,1,220.000006713867,8|8,3:0|3:0,0:0:0:0:
431,244,390745,6,0,P|487:203|417:89,1,220.000006713867,4|0,3:3|0:0,0:0:0:0:
188,87,391291,1,6,3:3:0:0:
422,88,391564,1,0,0:0:0:0:
190,209,391836,5,2,3:3:0:0:
315,214,391973,1,8,3:0:0:0:
299,272,392041,1,8,3:0:0:0:
260,318,392109,1,8,3:0:0:0:
207,347,392177,1,0,0:0:0:0:
56,318,392245,1,2,3:3:0:0:
292,137,392382,2,0,L|373:114,1,55.0000016784668,8|8,3:1|3:1,0:0:0:0:
344,121,392518,2,0,L|292:137,1,55.0000016784668,8|8,3:1|3:1,0:0:0:0:
114,101,392655,2,0,L|259:69,1,110.000003356934,8|8,3:0|3:0,0:0:0:0:
474,178,392927,6,0,L|481:306,1,110.000003356934,4|8,3:0|3:1,0:0:0:0:
219,238,393200,2,0,L|277:230,1,55.0000016784668,2|0,3:2|3:0,0:0:0:0:
335,240,393336,1,8,3:1:0:0:
91,157,393473,2,0,L|231:138,1,110.000003356934,2|8,3:2|3:1,0:0:0:0:
440,69,393745,2,0,L|382:61,1,55.0000016784668,2|0,3:2|3:0,0:0:0:0:
323,70,393881,1,8,3:1:0:0:
94,280,394018,6,0,L|86:158,1,110.000003356934,2|8,3:2|3:1,0:0:0:0:
327,229,394291,2,0,L|419:227,1,55.0000016784668,2|0,3:2|3:0,0:0:0:0:
205,131,394427,2,0,L|76:135,1,110.000003356934,8|2,3:1|3:2,0:0:0:0:
217,157,394700,1,8,3:1:0:0:
467,61,394836,2,0,L|409:52,1,55.0000016784668,2|0,3:2|3:0,0:0:0:0:
348,61,394973,1,8,3:1:0:0:
105,283,395109,6,0,P|51:243|117:170,1,165.000005035401,4|0,3:1|0:0,0:0:0:0:
251,198,395382,2,0,L|255:102,1,55.0000016784668,2|8,0:2|0:2,0:0:0:0:
182,123,395518,2,0,L|110:109,1,55.0000016784668,2|8,0:0|0:2,0:0:0:0:
297,314,395655,6,0,L|385:301,1,55.0000016784668,2|8,0:0|0:2,0:0:0:0:
131,260,395791,2,0,L|62:251,1,55.0000016784668,2|8,0:0|0:2,0:0:0:0:
288,195,395927,2,0,L|295:126,1,55.0000016784668,2|8,0:0|0:2,0:0:0:0:
107,77,396064,2,0,L|19:64,1,55.0000016784668,2|8,0:0|0:2,0:0:0:0:
262,285,396200,5,2,0:0:0:0:
319,267,396268,1,8,0:2:0:0:
336,209,396336,1,2,0:0:0:0:
312,152,396405,1,8,0:2:0:0:
145,152,396473,2,0,L|241:143,1,55.0000016784668,2|8,0:0|0:2,0:0:0:0:
361,70,396609,2,0,L|454:62,1,55.0000016784668,2|8,0:0|0:2,0:0:0:0:
241,277,396745,6,0,L|235:200,1,55.0000016784668,10|8,0:0|0:0,0:0:0:0:
308,202,396882,2,0,L|302:125,1,55.0000016784668,10|8,0:0|0:0,0:0:0:0:
140,87,397018,1,8,0:0:0:0:
32,42,397155,2,0,L|90:40,1,55.0000016784668,8|8,0:1|0:1,0:0:0:0:
277,119,397291,6,0,L|153:109,1,110.000003356934,4|8,3:1|3:1,0:0:0:0:
407,258,397564,2,0,L|418:175,1,55.0000016784668,2|0,3:2|3:0,0:0:0:0:
355,180,397700,1,8,3:1:0:0:
217,148,397836,2,0,L|350:132,1,110.000003356934,2|8,3:2|3:1,0:0:0:0:
45,159,398109,2,0,L|34:76,1,55.0000016784668,2|0,3:2|3:0,0:0:0:0:
97,81,398245,1,8,3:1:0:0:
312,245,398382,6,0,L|193:233,1,110.000003356934,2|8,3:2|3:1,0:0:0:0:
488,176,398655,2,0,L|494:260,1,55.0000016784668,2|0,3:2|3:0,0:0:0:0:
307,116,398791,2,0,L|198:134,1,110.000003356934,8|2,3:1|3:2,0:0:0:0:
320,82,399064,1,8,3:1:0:0:
62,85,399200,2,0,L|129:72,1,55.0000016784668,2|0,3:2|3:0,0:0:0:0:
176,89,399336,1,8,3:1:0:0:
387,300,399473,6,0,L|466:294,1,55.0000016784668,12|0,1:0|0:0,0:0:0:0:
256,241,399609,2,0,L|260:167,1,55.0000016784668,0|0,0:0|3:0,0:0:0:0:
421,199,399745,2,0,L|503:195,1,55.0000016784668,0|0,3:0|0:0,0:0:0:0:
265,125,399882,6,0,L|163:118,1,55.0000016784668,12|0,1:3|0:0,0:0:0:0:
284,104,400018,2,0,L|288:194,1,55.0000016784668,0|0,3:0|3:0,0:0:0:0:
114,237,400155,2,0,L|49:235,1,55.0000016784668,0|0,3:0|0:0,0:0:0:0:
254,348,400291,6,0,L|257:257,1,55.0000016784668,12|0,1:0|0:0,0:0:0:0:
181,282,400427,2,0,L|183:197,1,55.0000016784668,0|0,3:0|3:0,0:0:0:0:
331,232,400564,2,0,L|418:225,1,55.0000016784668,0|0,3:0|0:0,0:0:0:0:
213,172,400700,5,12,1:0:0:0:
159,145,400768,1,0,0:0:0:0:
137,88,400836,1,0,3:0:0:0:
161,31,400905,1,0,3:0:0:0:
327,75,400973,2,0,L|332:161,1,55.0000016784668,0|0,3:0|3:0,0:0:0:0:
148,235,401109,6,0,L|56:243,1,55.0000016784668,2|2,3:0|3:0,0:0:0:0:
308,324,401245,2,0,L|398:331,1,55.0000016784668,2|2,3:0|3:0,0:0:0:0:
183,346,401382,2,0,L|178:271,1,55.0000016784668,8|8,3:0|3:0,0:0:0:0:
404,245,401518,1,8,3:0:0:0:
462,248,401586,1,8,3:0:0:0:
300,144,401655,6,0,L|179:165,1,110.000003356934,12|0,3:1|3:1,0:0:0:0:
468,104,401927,2,0,L|396:94,1,55.0000016784668,2|0,3:2|3:0,0:0:0:0:
348,105,402064,1,8,3:1:0:0:
210,54,402200,2,0,L|318:35,1,110.000003356934,2|8,3:2|3:1,0:0:0:0:
44,104,402473,2,0,L|116:94,1,55.0000016784668,2|0,3:2|3:0,0:0:0:0:
164,105,402610,1,8,3:1:0:0:
386,261,402745,6,0,L|399:173,1,55.0000016784668,2|0,3:2|0:0,0:0:0:0:
193,198,402882,2,0,L|66:210,1,110.000003356934,8|2,3:1|3:2,0:0:0:0:
360,348,403155,2,0,L|448:339,1,55.0000016784668,8|0,3:1|0:0,0:0:0:0:
203,286,403291,2,0,L|74:299,1,110.000003356934,2|8,3:2|3:1,0:0:0:0:
367,178,403564,2,0,L|496:191,1,110.000003356934,2|8,3:2|3:1,0:0:0:0:
208,208,403836,6,0,P|144:192|168:88,1,165.000005035401,4|0,3:1|0:0,0:0:0:0:
323,75,404109,2,0,L|334:171,1,55.0000016784668,6|8,0:2|0:2,0:0:0:0:
253,169,404245,2,0,L|176:185,1,55.0000016784668,2|8,0:0|0:2,0:0:0:0:
405,266,404382,6,0,L|475:278,1,55.0000016784668,2|8,0:0|0:2,0:0:0:0:
250,326,404518,2,0,L|176:340,1,55.0000016784668,2|8,0:0|0:0,0:0:0:0:
395,218,404655,2,0,L|403:136,1,55.0000016784668,2|8,0:0|0:2,0:0:0:0:
213,236,404791,2,0,L|132:250,1,55.0000016784668,2|8,0:0|0:2,0:0:0:0:
338,183,404927,5,2,0:0:0:0:
389,151,404995,1,8,0:2:0:0:
401,90,405064,1,2,0:0:0:0:
374,35,405132,1,8,0:2:0:0:
194,152,405200,2,0,L|188:59,1,55.0000016784668,2|8,0:0|0:2,0:0:0:0:
267,101,405336,2,0,L|339:97,1,55.0000016784668,2|8,0:0|0:2,0:0:0:0:
162,256,405473,6,0,L|56:260,1,55.0000016784668,10|8,0:0|0:0,0:0:0:0:
272,344,405609,2,0,L|359:343,1,55.0000016784668,10|8,0:0|0:0,0:0:0:0:
127,357,405745,2,0,L|8:350,1,110.000003356934,8|8,0:0|0:1,0:0:0:0:
75,332,405950,1,8,0:1:0:0:
258,226,406018,6,0,L|392:217,1,110.000003356934,4|8,3:1|3:1,0:0:0:0:
126,97,406291,2,0,L|60:93,1,55.0000016784668,2|0,3:2|3:0,0:0:0:0:
133,98,406427,1,8,3:1:0:0:
282,59,406564,2,0,L|167:46,1,110.000003356934,2|8,3:2|3:1,0:0:0:0:
406,198,406836,2,0,L|472:194,1,55.0000016784668,2|0,3:2|3:0,0:0:0:0:
399,199,406972,1,8,3:1:0:0:
153,340,407109,6,0,L|145:204,1,110.000003356934,2|8,3:2|3:1,0:0:0:0:
384,272,407382,2,0,L|311:260,1,55.0000016784668,2|0,3:2|3:0,0:0:0:0:
144,96,407518,2,0,L|265:114,1,110.000003356934,8|2,3:1|3:2,0:0:0:0:
126,167,407791,1,8,3:1:0:0:
415,188,407927,1,2,3:2:0:0:
472,171,407995,1,0,3:0:0:0:
414,153,408064,1,8,3:1:0:0:
123,113,408200,5,4,3:1:0:0:
368,251,408336,2,0,L|380:159,1,55.0000016784668,2|2,0:3|0:3,0:0:0:0:
202,130,408473,2,0,L|282:118,1,55.0000016784668,2|0,0:3|0:0,0:0:0:0:
436,78,408609,6,0,L|446:159,1,55.0000016784668,2|0,3:3|0:0,0:0:0:0:
277,315,408745,1,2,0:3:0:0:
223,285,408814,1,2,0:3:0:0:
203,228,408882,1,2,0:3:0:0:
230,174,408950,1,0,0:0:0:0:
374,172,409018,6,0,L|382:111,1,55.0000016784668,2|0,3:3|0:0,0:0:0:0:
314,94,409155,2,0,L|305:5,1,55.0000016784668,8|8,0:3|0:3,0:0:0:0:
388,43,409291,2,0,L|464:44,1,55.0000016784668,8|8,0:3|0:3,0:0:0:0:
213,267,409427,5,4,3:0:0:0:
161,251,409495,1,0,0:0:0:0:
128,208,409563,1,8,3:2:0:0:
128,154,409631,1,8,3:2:0:0:
160,110,409699,1,8,3:2:0:0:
212,94,409767,1,8,3:2:0:0:
409,214,409836,6,0,L|344:212,1,55.0000016784668,0|0,3:0|3:0,0:0:0:0:
167,312,409973,2,0,L|104:308,1,55.0000016784668,0|0,3:0|3:0,0:0:0:0:
322,187,410109,2,0,L|314:101,1,55.0000016784668,12|0,3:0|0:0,0:0:0:0:
149,188,410245,2,0,L|143:107,1,55.0000016784668,0|0,3:0|0:0,0:0:0:0:
365,311,410382,6,0,L|446:309,1,55.0000016784668,10|0,3:3|3:0,0:0:0:0:
227,237,410518,2,0,L|223:143,1,55.0000016784668,0|0,3:0|3:0,0:0:0:0:
411,209,410655,2,0,L|487:210,1,55.0000016784668,0|0,3:0|3:0,0:0:0:0:
259,112,410791,6,0,L|173:105,1,55.0000016784668,10|0,3:3|3:0,0:0:0:0:
280,115,410927,2,0,L|283:189,1,55.0000016784668,0|0,3:0|3:0,0:0:0:0:
109,266,411064,2,0,L|215:252,1,55.0000016784668,0|0,3:0|3:0,0:0:0:0:
372,312,411200,5,10,3:3:0:0:
363,252,411268,1,0,3:0:0:0:
328,202,411336,1,0,3:0:0:0:
269,182,411405,1,0,3:0:0:0:
80,140,411473,2,0,L|171:125,1,55.0000016784668,0|0,3:0|3:0,0:0:0:0:
295,108,411609,6,0,L|299:15,1,55.0000016784668,10|0,3:3|3:0,0:0:0:0:
222,57,411745,2,0,L|142:52,1,55.0000016784668,0|0,3:0|3:0,0:0:0:0:
336,191,411882,2,0,L|430:197,1,55.0000016784668,0|0,3:0|3:0,0:0:0:0:
136,296,412018,6,0,L|28:305,1,55.0000016784668,10|0,3:3|3:0,0:0:0:0:
304,355,412155,2,0,L|372:361,1,55.0000016784668,0|0,3:0|0:0,0:0:0:0:
140,207,412291,2,0,L|133:130,1,55.0000016784668,10|0,3:3|0:0,0:0:0:0:
210,139,412427,2,0,L|214:80,1,55.0000016784668,0|0,3:0|0:0,0:0:0:0:
22,101,412564,6,0,L|105:96,1,55.0000016784668,8|0,3:2|0:0,0:0:0:0:
266,194,412700,2,0,L|108:206,1,110.000003356934,8|0,3:2|3:0,0:0:0:0:
420,280,412973,2,0,L|425:198,1,55.0000016784668,10|8,3:1|3:0,0:0:0:0:
239,271,413109,2,0,L|93:284,1,110.000003356934,8|0,3:0|3:0,0:0:0:0:
490,101,413382,6,0,L|407:96,1,55.0000016784668,8|2,3:3|3:1,0:0:0:0:
246,194,413518,2,0,L|404:206,1,110.000003356934,8|8,3:1|3:2,0:0:0:0:
92,280,413791,2,0,L|87:198,1,55.0000016784668,8|8,3:0|3:0,0:0:0:0:
273,271,413927,2,0,L|419:284,1,110.000003356934,4|0,3:0|3:0,0:0:0:0:
156,212,414200,6,0,L|81:200,1,55.0000016784668,8|8,3:0|3:0,0:0:0:0:
270,127,414336,2,0,L|182:112,1,55.0000016784668,8|0,3:0|0:0,0:0:0:0:
20,114,414473,1,4,3:0:0:0:
217,35,414609,1,0,3:0:0:0:
463,240,414745,6,0,B|466:128|466:128|311:103,1,220.000006713867,2|0,3:3|0:0,0:0:0:0:
149,264,415155,2,0,L|376:223,1,220.000006713867,4|0,3:1|0:0,0:0:0:0:
49,240,415564,6,0,B|46:128|46:128|201:103,1,220.000006713867,2|0,3:3|0:0,0:0:0:0:
363,264,415974,2,0,L|136:223,1,220.000006713867,4|0,3:1|3:0,0:0:0:0:
446,209,416382,5,12,3:1:0:0:
209,150,416518,1,0,3:0:0:0:
459,67,416655,1,12,3:1:0:0:
335,98,416791,1,0,3:0:0:0:
61,33,416927,5,6,0:0:0:0:
256,192,417064,12,2,421291,0:0:0:0:
