osu file format v14

[General]
AudioFilename: Poggreifer.mp3
AudioLeadIn: 0
PreviewTime: 142080
Countdown: 0
SampleSet: Soft
StackLeniency: 0.8
Mode: 0
LetterboxInBreaks: 0
WidescreenStoryboard: 0

[Editor]
Bookmarks: 92171,96671,97080,97489,109352,114125,114534,114943,132807,192262,197034,197443,197852,198262,198534,198807,265352
DistanceSpacing: 0.7
BeatDivisor: 4
GridSize: 8
TimelineZoom: 2.3

[Metadata]
Title:Angreifer
TitleUnicode:Angreifer
Artist:Unlucky Morpheus
ArtistUnicode:Unlucky Morpheus
Creator:Krisu
Version:Junketsu ka Konketsu ka
Source:
Tags:metal rock stream death marathon hard
BeatmapID:3260473
BeatmapSetID:1596370

[Difficulty]
HPDrainRate:5.8
CircleSize:4.2
OverallDifficulty:9.2
ApproachRate:10
SliderMultiplier:2
SliderTickRate:1

[Events]
//Background and Video events
0,0,"wallhaven-y8v2lg.png",0,0
//Break Periods
//Storyboard Layer 0 (Background)
//Storyboard Layer 1 (Fail)
//Storyboard Layer 2 (Pass)
//Storyboard Layer 3 (Foreground)
//Storyboard Layer 4 (Overlay)
//Storyboard Sound Samples

[TimingPoints]
262,272.727272727273,4,2,1,70,1,0
39532,-100,4,2,1,70,0,0
41984,-133.333333333333,4,2,1,70,0,0
42802,-100,4,2,1,70,0,0
45257,-133.333333333333,4,2,1,70,0,0
46075,-100,4,2,1,70,0,0
48530,-133.333333333333,4,2,1,70,0,0
49352,-200,4,2,1,70,0,0
50984,-200,4,2,1,70,0,0
52620,-66.6666666666667,4,2,1,70,0,0
52830,-66.6666666666667,4,2,1,5,0,0
52894,-100,4,2,1,70,0,0
53102,-100,4,2,1,5,0,0
53167,-83.3333333333333,4,2,1,70,0,0
53375,-83.3333333333333,4,2,1,5,0,0
53439,-200,4,2,1,70,0,0
54258,-133.333333333333,4,2,1,70,0,0
55898,-200,4,2,1,70,0,0
56443,-133.333333333333,4,2,1,70,0,0
58625,-133.333333333333,4,2,1,70,0,0
58762,-133.333333333333,4,2,1,5,0,0
58898,-133.333333333333,4,2,1,70,0,0
59034,-133.333333333333,4,2,1,5,0,0
59171,-133.333333333333,4,2,1,70,0,0
64894,-100,4,2,1,70,0,0
65034,-100,4,2,1,5,0,0
65171,-100,4,2,1,70,0,0
65307,-100,4,2,1,5,0,0
65443,-100,4,2,1,70,0,0
65580,-100,4,2,1,5,0,0
65716,-133.333333333333,4,2,1,70,0,0
68167,-90.9090909090909,4,2,1,70,0,0
68375,-90.9090909090909,4,2,1,5,0,0
68439,-76.9230769230769,4,2,1,70,0,0
68648,-76.9230769230769,4,2,1,5,0,0
68716,-76.9230769230769,4,2,1,70,0,0
68921,-76.9230769230769,4,2,1,5,0,0
68987,-58.8235294117647,4,2,1,70,0,0
69258,-100,4,2,1,70,0,0
71439,-83.3333333333333,4,2,1,70,0,0
71648,-83.3333333333333,4,2,1,5,0,0
71712,-133.333333333333,4,2,1,70,0,0
71921,-133.333333333333,4,2,1,5,0,0
71985,-83.3333333333333,4,2,1,70,0,0
72193,-83.3333333333333,4,2,1,5,0,0
72258,-100,4,2,1,70,0,0
74714,-133.333333333333,4,2,1,70,0,0
74921,-133.333333333333,4,2,1,5,0,0
74989,-100,4,2,1,70,0,0
75193,-100,4,2,1,5,0,0
75262,-66.6666666666667,4,2,1,70,0,0
75466,-66.6666666666667,4,2,1,5,0,0
75530,-83.3333333333333,4,2,1,70,0,0
76348,-100,4,2,1,70,0,0
77167,-200,4,2,1,70,0,0
80985,-133.333333333333,4,2,1,70,0,0
83167,-133.333333333333,4,2,1,70,0,0
84257,-100,4,2,1,70,0,0
85348,-133.333333333333,4,2,1,70,0,0
87530,-100,4,2,1,70,0,0
91898,-133.333333333333,4,2,1,70,0,0
92443,-100,4,2,1,70,0,0
96258,-83.3333333333333,4,2,1,70,0,0
98439,-100,4,2,1,70,0,0
107167,-100,4,2,1,70,0,0
111803,-100,4,2,1,70,0,0
113712,-66.6666666666667,4,2,1,70,0,0
115898,-100,4,2,1,70,0,0
126530,-100,4,2,1,70,0,0
127625,-133.333333333333,4,2,1,70,0,0
129258,-100,4,2,1,70,0,0
136352,-133.333333333333,4,2,1,70,0,0
137712,-66.6666666666667,4,2,1,70,0,0
139625,-133.333333333333,4,2,1,70,0,0
140989,-100,4,2,1,70,0,0
142076,-66.6666666666667,4,2,1,70,0,0
146443,-83.3333333333333,4,2,1,70,0,1
163898,-100,4,2,1,70,0,0
181348,-100,4,2,1,70,0,0
183529,-83.3333333333333,4,2,1,70,0,0
187894,-76.9230769230769,4,2,1,70,0,0
188239,-76.9230769230769,4,2,1,5,0,0
188307,-76.9230769230769,4,2,1,70,0,0
188648,-76.9230769230769,4,2,1,5,0,0
188716,-76.9230769230769,4,2,1,70,0,0
189057,-76.9230769230769,4,2,1,5,0,0
189125,-76.9230769230769,4,2,1,70,0,0
189398,-76.9230769230769,4,2,1,5,0,0
189534,-76.9230769230769,4,2,1,70,0,0
190076,-100,4,2,1,70,0,0
193348,-83.3333333333333,4,2,1,70,0,0
194576,-100,4,2,1,70,0,0
196621,-66.6666666666667,4,2,1,70,0,0
196966,-66.6666666666667,4,2,1,5,0,0
197034,-66.6666666666667,4,2,1,70,0,0
197375,-66.6666666666667,4,2,1,5,0,0
197443,-76.9230769230769,4,2,1,70,0,0
200712,-100,4,2,1,70,0,0
203167,-66.6666666666667,4,2,1,70,0,0
205076,-100,4,2,1,70,0,0
207530,-66.6666666666667,4,2,1,70,0,0
209439,-100,4,2,1,70,0,0
211894,-66.6666666666667,4,2,1,70,0,0
213803,-133.333333333333,4,2,1,70,0,0
214076,-100,4,2,1,70,0,0
215167,-76.9230769230769,4,2,1,70,0,0
215576,-71.4285714285714,4,2,1,70,0,0
215985,-66.6666666666667,4,2,1,70,0,0
220625,-66.6666666666667,4,2,1,70,0,1
237943,-133.333333333333,4,2,1,70,0,0
256076,-100,4,2,1,70,0,0
259894,-200,4,2,1,70,0,0
260985,-100,4,2,1,70,0,0
262076,-133.333333333333,4,2,1,70,0,0
264258,-100,4,2,1,70,0,0
283894,-66.6666666666667,4,2,1,70,0,0
288262,-83.3333333333333,4,2,1,70,0,1
296985,-66.6666666666667,4,2,1,70,0,1
304621,-50,4,2,1,70,0,1
305712,-66.6666666666667,4,2,1,70,0,1
310348,-50,4,2,1,70,0,1
312534,-76.9230769230769,4,2,1,70,0,0
314711,-66.6666666666667,4,2,1,70,0,0
316348,-100,4,2,1,70,0,0
319076,-66.6666666666667,4,2,1,70,0,0
320712,-100,4,2,1,70,0,0
323167,-66.6666666666667,4,2,1,70,0,0
325076,-100,4,2,1,70,0,0
327803,-66.6666666666667,4,2,1,70,0,0
329439,-133.333333333333,4,2,1,70,0,0
329712,-100,4,2,1,70,0,0
330803,-76.9230769230769,4,2,1,70,0,0
331894,-58.8235294117647,4,2,1,70,0,0
336258,-50,4,2,1,70,0,0
338302,-100,4,2,1,70,0,0
339530,-76.9230769230769,4,2,1,70,0,0
340621,-66.6666666666667,4,2,1,70,0,0
348258,-100,4,2,1,70,0,0
349348,-133.333333333333,4,2,1,70,0,0
355894,-100,4,2,1,70,0,0
356167,-83.3333333333333,4,2,1,70,0,0
356439,-71.4285714285714,4,2,1,70,0,0
356712,-62.5,4,2,1,70,0,0
358080,-66.6666666666667,4,2,1,70,0,1
374443,-83.3333333333333,4,2,1,70,0,0
377166,-100,4,2,1,70,0,0
377575,-83.3333333333333,4,2,1,70,0,0
379348,-100,4,2,1,70,0,0
383166,-100,4,2,1,70,0,0
384257,-83.3333333333333,4,2,1,70,0,0
390802,-100,4,2,1,70,0,0
391348,-133.333333333333,4,2,1,70,0,0
391893,-200,4,2,1,70,0,0
392989,-76.9230769230769,4,2,1,70,0,1
414803,-58.8235294117647,4,2,1,70,0,1
415148,-58.8235294117647,4,2,1,5,0,1
415212,-52.6315789473684,4,2,1,70,0,1
415557,-52.6315789473684,4,2,1,5,0,1
415621,-66.6666666666667,4,2,1,70,0,1
415966,-66.6666666666667,4,2,1,5,0,1
416030,-100,4,2,1,70,0,1
416375,-100,4,2,1,5,0,1
416439,-50,4,2,1,70,0,1
416648,-50,4,2,1,5,0,1
416716,-50,4,2,1,70,0,1
416852,-50,4,2,1,5,0,1
416989,-100,4,2,1,70,0,0

[Colours]
Combo1 : 79,39,0
Combo2 : 255,157,157
Combo3 : 128,0,0
Combo4 : 255,128,0

[HitObjects]
65,44,39534,6,0,B|53:108|53:108|66:172|66:172|57:253,1,200
252,92,40080,1,0,0:0:0:0:
453,241,40352,2,0,B|446:172|446:172|459:108|459:108|447:44,2,200
193,185,41171,1,0,0:0:0:0:
458,320,41443,2,0,B|363:357|363:357|231:356,1,200
41,34,41989,2,0,B|-3:77|11:138|54:177|133:131|133:131|152:178|217:191,1,300.000011444092
447,351,42807,6,0,P|465:280|429:126,1,200
214,278,43352,1,0,0:0:0:0:
34,104,43625,2,0,B|168:64|117:144|257:112,1,200
432,49,44171,1,0,0:0:0:0:
235,323,44443,2,0,B|204:250|204:250|233:189|204:118,2,200
462,354,45262,2,0,B|479:293|479:293|427:207|476:121|476:121|425:58,1,300.000011444092
86,45,46079,6,0,B|122:171|45:98|74:252,1,200
286,339,46625,1,0,0:0:0:0:
441,36,46898,2,0,P|478:113|423:227,1,200
199,38,47443,1,0,0:0:0:0:
76,351,47716,2,0,L|50:141,2,200
402,344,48534,6,0,B|315:190|445:215|348:59,1,300.000011444092
132,48,49352,2,0,B|124:95|86:139|44:174|44:174|97:168|146:187|178:226,1,300
219,343,50443,1,0,0:0:0:0:
81,355,50716,1,0,0:0:0:0:
9,222,50988,2,0,B|299:121|178:295|498:220,1,500
488,63,52625,6,0,L|257:41,1,225.000008583069
161,104,52898,2,0,L|356:123,1,150
388,199,53171,2,0,L|209:181,1,179.999994506836
107,244,53443,2,0,L|327:267,1,200
437,72,54262,5,0,0:0:0:0:
437,72,54534,2,0,B|461:154|461:154|434:237,1,150.000005722046
75,72,55080,2,0,B|51:154|51:154|78:237,1,150.000005722046
240,80,55625,1,0,0:0:0:0:
205,354,55898,6,0,P|194:310|204:243,1,100
378,92,56443,1,0,0:0:0:0:
435,354,56716,2,0,P|447:305|427:189,1,150.000005722046
378,92,57262,1,0,0:0:0:0:
295,236,57534,1,0,0:0:0:0:
104,59,57807,2,0,B|76:122|76:122|80:219,2,150.000005722046
372,162,58625,2,0,P|411:168|459:165,1,75.0000028610231
406,57,58898,2,0,P|367:51|319:54,1,75.0000028610231
142,138,59171,6,0,P|92:127|30:46,2,150.000005722046
154,209,59989,2,0,P|113:240|11:235,2,150.000005722046
217,245,60807,2,0,P|214:296|145:371,2,150.000005722046
423,31,61625,6,0,B|357:200|505:155|408:341,1,300.000011444092
138,28,62443,2,0,B|81:68|86:134|148:172|148:172|88:231|95:314|131:365|200:383|273:374|334:326|325:237,1,600.000022888185,0|0,2:0|2:0,2:0:0:0:
217,246,63807,1,0,0:0:0:0:
309,53,64080,2,0,L|477:48,2,150.000005722046
43,59,64898,6,0,P|35:111|39:167,1,100
142,283,65171,2,0,P|92:313|40:320,1,100
173,142,65443,2,0,P|227:161|262:202,1,100
396,353,65716,6,0,P|422:319|430:255,1,75.0000028610231
448,78,65989,1,0,0:0:0:0:
410,103,66125,1,0,0:0:0:0:
365,111,66262,1,0,0:0:0:0:
320,102,66398,1,0,0:0:0:0:
278,83,66534,6,0,P|222:77|178:85,1,75.0000028610231
59,332,66807,1,0,0:0:0:0:
40,291,66943,1,0,0:0:0:0:
35,246,67080,1,0,0:0:0:0:
46,202,67216,1,0,0:0:0:0:
73,166,67352,6,0,P|110:149|151:146,1,75.0000028610231
312,303,67625,1,0,0:0:0:0:
346,274,67762,1,0,0:0:0:0:
365,233,67898,1,0,0:0:0:0:
369,188,68034,1,0,0:0:0:0:
363,144,68171,6,0,L|191:81,1,165.000005035401
90,134,68443,2,0,L|276:200,1,194.999991073609
302,290,68716,2,0,L|108:218,1,194.999991073609
13,266,68989,6,0,L|179:329,1,170.000003242493
433,353,69262,2,0,B|451:301|451:301|436:250,3,100
360,294,69807,2,0,L|267:229,1,100
123,120,70080,6,0,B|105:172|105:172|120:223,3,100
193,170,70625,2,0,L|304:150,1,100
440,88,70898,6,0,B|458:140|458:140|443:191,3,100
370,135,71443,6,0,P|298:103|170:111,1,179.999994506836
133,170,71716,2,0,P|116:108|135:37,1,112.500004291535
196,111,71989,2,0,P|216:175|168:303,1,179.999994506836
90,306,72262,6,0,L|203:276,1,100
365,204,72534,1,0,0:0:0:0:
433,162,72671,1,0,0:0:0:0:
449,84,72807,1,0,0:0:0:0:
403,18,72943,1,0,0:0:0:0:
322,14,73080,6,0,P|273:45|252:89,1,100
290,274,73352,1,0,0:0:0:0:
234,332,73489,1,0,0:0:0:0:
155,344,73625,1,0,0:0:0:0:
83,307,73762,1,0,0:0:0:0:
42,238,73898,6,0,P|41:182|61:137,1,100
231,47,74171,5,0,0:0:0:0:
274,113,74307,1,0,0:0:0:0:
331,57,74443,1,0,0:0:0:0:
382,118,74580,1,0,0:0:0:0:
443,68,74716,6,0,P|468:127|464:197,1,112.500004291535
431,255,74989,2,0,P|378:232|272:243,1,150
204,278,75262,2,0,P|170:203|221:69,1,225.000008583069
403,37,75534,6,0,B|416:78|416:78|409:114|409:114|425:146|425:146|417:176|417:176|435:206|435:206|421:246|421:246|438:276|438:276|423:323|383:359|383:359|324:346|324:346|261:354|261:354,1,479.999985351563
70,343,76352,2,0,B|63:251|63:251|85:208|85:208|69:143|69:143|82:87|82:87|121:47|156:37|156:37|205:38|228:49,1,400
480,171,77171,2,0,P|406:200|288:192,1,200
118,98,77988,5,0,0:0:0:0:
267,333,78262,1,0,0:0:0:0:
391,98,78534,1,0,0:0:0:0:
256,192,78807,12,0,79625,0:0:0:0:
76,49,79898,5,0,0:0:0:0:
65,87,80171,1,0,0:0:0:0:
64,126,80443,1,0,0:0:0:0:
70,165,80716,1,0,0:0:0:0:
261,337,80989,6,0,B|414:365|475:238|475:238|370:120|445:22|445:22|496:42|502:126,1,600.000022888185
472,237,82216,1,0,0:0:0:0:
94,76,83171,6,0,B|161:122|133:201|64:240|64:240|55:339|176:350|176:350|188:240|281:248,1,525.000020027161
440,347,84262,2,0,B|461:285|461:285|442:142,1,200
72,347,84671,2,0,B|51:285|51:285|70:142,1,200
256,249,85080,2,0,L|256:144,1,100
137,71,85352,5,0,0:0:0:0:
380,43,85489,1,0,0:0:0:0:
59,323,85762,5,0,0:0:0:0:
402,283,85898,2,0,L|224:303,1,150.000005722046
375,71,86443,5,0,0:0:0:0:
132,43,86580,1,0,0:0:0:0:
453,323,86853,5,0,0:0:0:0:
110,283,86989,2,0,L|288:303,1,150.000005722046
191,20,87534,6,0,P|179:74|189:126,1,100
308,200,87807,1,0,0:0:0:0:
266,75,87943,1,0,0:0:0:0:
217,260,88080,1,0,0:0:0:0:
361,114,88216,1,0,0:0:0:0:
130,114,88352,1,0,0:0:0:0:
296,323,88489,1,0,0:0:0:0:
300,52,88624,5,0,0:0:0:0:
288,90,88693,1,0,0:0:0:0:
286,130,88762,1,0,0:0:0:0:
295,168,88830,1,0,0:0:0:0:
310,204,88898,1,0,0:0:0:0:
318,242,88966,1,0,0:0:0:0:
313,281,89034,1,0,0:0:0:0:
288,312,89102,1,0,0:0:0:0:
250,326,89171,1,0,0:0:0:0:
210,322,89239,1,0,0:0:0:0:
174,304,89307,1,0,0:0:0:0:
156,267,89375,1,0,0:0:0:0:
136,232,89443,1,0,0:0:0:0:
100,212,89512,1,0,0:0:0:0:
60,214,89580,1,0,0:0:0:0:
27,237,89648,1,0,0:0:0:0:
22,276,89716,6,0,P|63:296|133:291,1,100
321,167,89989,1,0,0:0:0:0:
100,212,90125,1,0,0:0:0:0:
387,358,90262,2,0,B|398:310|398:310|397:237,1,100
390,55,90534,1,0,0:0:0:0:
390,55,90602,1,0,0:0:0:0:
390,55,90671,1,0,0:0:0:0:
265,227,90807,5,0,0:0:0:0:
220,72,90943,1,0,0:0:0:0:
162,301,91080,1,0,0:0:0:0:
162,301,91148,1,0,0:0:0:0:
162,301,91216,1,0,0:0:0:0:
302,138,91352,5,0,0:0:0:0:
49,216,91489,1,0,0:0:0:0:
272,319,91625,1,0,0:0:0:0:
272,319,91693,1,0,0:0:0:0:
272,319,91762,1,0,0:0:0:0:
97,112,91898,6,0,L|57:120,3,37.5000014305115
184,185,92171,2,0,L|144:193,3,37.5000014305115
269,118,92443,1,0,0:0:0:0:
302,94,92512,1,0,0:0:0:0:
340,83,92580,1,0,0:0:0:0:
379,84,92648,1,0,0:0:0:0:
416,97,92716,1,0,0:0:0:0:
444,125,92784,1,0,0:0:0:0:
458,162,92852,1,0,0:0:0:0:
461,202,92921,1,0,0:0:0:0:
456,241,92989,5,0,0:0:0:0:
439,277,93057,1,0,0:0:0:0:
411,305,93125,1,0,0:0:0:0:
373,319,93193,1,0,0:0:0:0:
332,321,93262,1,0,0:0:0:0:
293,311,93330,1,0,0:0:0:0:
261,287,93398,1,0,0:0:0:0:
228,264,93466,1,0,0:0:0:0:
190,249,93534,1,0,0:0:0:0:
151,238,93602,1,0,0:0:0:0:
110,234,93671,1,0,0:0:0:0:
71,244,93739,1,0,0:0:0:0:
47,275,93807,2,0,P|22:205|29:157,1,100
103,106,94012,5,0,0:0:0:0:
131,125,94080,2,0,P|185:140|235:132,1,100
352,35,94352,1,0,0:0:0:0:
352,35,94421,1,0,0:0:0:0:
352,35,94489,1,0,0:0:0:0:
302,231,94625,1,0,0:0:0:0:
235,57,94762,1,0,0:0:0:0:
439,120,94898,1,0,0:0:0:0:
439,120,94966,1,0,0:0:0:0:
439,120,95034,1,0,0:0:0:0:
199,178,95171,6,0,P|190:237|197:283,1,100
388,320,95443,1,0,0:0:0:0:
388,320,95512,1,0,0:0:0:0:
388,320,95580,1,0,0:0:0:0:
276,121,95716,1,0,0:0:0:0:
211,273,95852,1,0,0:0:0:0:
138,58,95989,1,0,0:0:0:0:
138,58,96057,1,0,0:0:0:0:
138,58,96125,1,0,0:0:0:0:
37,271,96262,5,0,0:0:0:0:
70,295,96330,1,0,0:0:0:0:
110,304,96398,1,0,0:0:0:0:
151,301,96466,1,0,0:0:0:0:
189,283,96534,1,0,0:0:0:0:
215,250,96602,1,0,0:0:0:0:
244,219,96671,2,0,P|273:200|306:188,1,59.9999981689454
436,299,96807,5,0,0:0:0:0:
453,260,96875,1,0,0:0:0:0:
462,219,96943,1,0,0:0:0:0:
459,176,97012,1,0,0:0:0:0:
446,135,97080,2,0,P|430:103|407:78,1,59.9999981689454
300,120,97216,5,0,0:0:0:0:
260,135,97284,1,0,0:0:0:0:
218,138,97352,1,0,0:0:0:0:
175,131,97421,1,0,0:0:0:0:
135,118,97489,2,0,P|89:127|56:141,1,59.9999981689454
34,312,97625,5,0,0:0:0:0:
74,301,97693,1,0,0:0:0:0:
106,273,97762,1,0,0:0:0:0:
125,235,97830,1,0,0:0:0:0:
131,193,97898,5,0,0:0:0:0:
121,152,97966,1,0,0:0:0:0:
100,115,98034,1,0,0:0:0:0:
110,74,98102,1,0,0:0:0:0:
138,42,98171,1,0,0:0:0:0:
177,27,98239,1,0,0:0:0:0:
218,28,98307,1,0,0:0:0:0:
254,49,98375,1,0,0:0:0:0:
270,85,98443,6,0,P|262:157|271:196,1,100
401,332,98716,1,0,0:0:0:0:
382,139,98852,1,0,0:0:0:0:
254,307,98989,1,0,0:0:0:0:
146,137,99125,1,0,0:0:0:0:
366,220,99262,1,0,0:0:0:0:
366,220,99330,1,0,0:0:0:0:
366,220,99398,1,0,0:0:0:0:
252,68,99534,5,0,0:0:0:0:
150,282,99671,1,0,0:0:0:0:
115,85,99807,1,0,0:0:0:0:
115,85,99875,1,0,0:0:0:0:
115,85,99943,1,0,0:0:0:0:
37,352,100080,2,0,P|34:288|50:227,1,100
239,111,100352,1,0,0:0:0:0:
239,111,100421,1,0,0:0:0:0:
239,111,100489,1,0,0:0:0:0:
158,351,100625,5,0,0:0:0:0:
149,312,100693,1,0,0:0:0:0:
148,271,100762,1,0,0:0:0:0:
157,232,100830,1,0,0:0:0:0:
170,194,100898,1,0,0:0:0:0:
180,155,100966,1,0,0:0:0:0:
180,115,101034,1,0,0:0:0:0:
160,80,101102,1,0,0:0:0:0:
125,58,101171,5,0,0:0:0:0:
85,58,101239,1,0,0:0:0:0:
49,75,101307,1,0,0:0:0:0:
29,109,101375,1,0,0:0:0:0:
26,148,101443,1,0,0:0:0:0:
41,185,101512,1,0,0:0:0:0:
73,208,101580,1,0,0:0:0:0:
112,215,101648,1,0,0:0:0:0:
151,207,101716,5,0,0:0:0:0:
186,187,101784,1,0,0:0:0:0:
215,159,101852,1,0,0:0:0:0:
243,129,101921,1,0,0:0:0:0:
276,106,101989,1,0,0:0:0:0:
312,90,102057,1,0,0:0:0:0:
351,87,102125,1,0,0:0:0:0:
389,98,102193,1,0,0:0:0:0:
423,118,102262,5,0,0:0:0:0:
447,149,102330,1,0,0:0:0:0:
458,187,102398,1,0,0:0:0:0:
456,226,102466,1,0,0:0:0:0:
445,264,102534,1,0,0:0:0:0:
421,296,102602,1,0,0:0:0:0:
388,320,102671,1,0,0:0:0:0:
350,333,102739,1,0,0:0:0:0:
312,318,102807,6,0,P|288:270|287:214,1,100
388,68,103080,1,0,0:0:0:0:
388,68,103148,1,0,0:0:0:0:
388,68,103216,1,0,0:0:0:0:
393,245,103352,1,0,0:0:0:0:
251,32,103489,1,0,0:0:0:0:
141,210,103625,1,0,0:0:0:0:
141,210,103693,1,0,0:0:0:0:
141,210,103761,1,0,0:0:0:0:
312,138,103898,5,0,0:0:0:0:
57,105,104034,1,0,0:0:0:0:
150,306,104171,1,0,0:0:0:0:
150,306,104239,1,0,0:0:0:0:
150,306,104307,1,0,0:0:0:0:
217,40,104443,2,0,P|228:95|220:152,1,100
32,248,104716,1,0,0:0:0:0:
32,248,104784,1,0,0:0:0:0:
32,248,104852,1,0,0:0:0:0:
246,114,104989,5,0,0:0:0:0:
284,104,105057,1,0,0:0:0:0:
323,105,105125,1,0,0:0:0:0:
361,117,105193,1,0,0:0:0:0:
395,137,105262,1,0,0:0:0:0:
419,168,105330,1,0,0:0:0:0:
430,206,105398,2,0,P|431:237|423:273,1,50
284,360,105534,5,0,0:0:0:0:
259,328,105602,1,0,0:0:0:0:
254,287,105671,1,0,0:0:0:0:
264,248,105739,1,0,0:0:0:0:
278,210,105807,2,0,P|283:182|279:134,1,50
179,25,105943,5,0,0:0:0:0:
140,38,106012,1,0,0:0:0:0:
112,67,106080,1,0,0:0:0:0:
96,103,106148,1,0,0:0:0:0:
87,141,106216,1,0,0:0:0:0:
94,180,106284,1,0,0:0:0:0:
112,215,106352,2,0,L|104:270,1,50
203,175,106489,2,0,L|195:224,1,50
296,136,106625,2,0,L|288:191,1,50
379,98,106762,5,0,0:0:0:0:
375,152,106830,1,0,0:0:0:0:
369,206,106898,1,0,0:0:0:0:
353,258,106966,1,0,0:0:0:0:
322,303,107034,1,0,0:0:0:0:
277,334,107102,1,0,0:0:0:0:
225,343,107171,6,0,P|158:341|106:296,1,100
72,121,107443,1,0,0:0:0:0:
72,121,107512,1,0,0:0:0:0:
72,121,107580,1,0,0:0:0:0:
184,271,107716,1,0,0:0:0:0:
150,65,107852,1,0,0:0:0:0:
105,307,107989,5,0,0:0:0:0:
105,307,108057,1,0,0:0:0:0:
105,307,108125,1,0,0:0:0:0:
272,43,108262,2,0,B|287:82|287:82|286:146,1,100
283,335,108534,1,0,0:0:0:0:
283,335,108602,1,0,0:0:0:0:
283,335,108671,1,0,0:0:0:0:
59,150,108807,2,0,P|116:142|163:149,1,100
380,287,109080,1,0,0:0:0:0:
380,287,109148,1,0,0:0:0:0:
380,287,109216,1,0,0:0:0:0:
106,229,109352,5,0,0:0:0:0:
394,175,109489,1,0,0:0:0:0:
147,103,109625,1,0,0:0:0:0:
283,298,109762,1,0,0:0:0:0:
371,46,109898,1,0,0:0:0:0:
458,253,110034,1,0,0:0:0:0:
266,107,110171,1,0,0:0:0:0:
186,347,110307,1,0,0:0:0:0:
381,184,110443,5,0,0:0:0:0:
381,184,110511,1,0,0:0:0:0:
381,184,110579,1,0,0:0:0:0:
120,258,110715,1,0,0:0:0:0:
321,258,110852,5,0,0:0:0:0:
321,258,110920,1,0,0:0:0:0:
321,258,110988,1,0,0:0:0:0:
60,187,111124,1,0,0:0:0:0:
238,341,111262,1,0,0:0:0:0:
238,341,111330,1,0,0:0:0:0:
238,341,111398,1,0,0:0:0:0:
147,25,111534,6,0,P|136:78|141:135,1,100
289,270,111807,1,0,0:0:0:0:
289,270,111875,1,0,0:0:0:0:
289,270,111943,1,0,0:0:0:0:
237,111,112080,1,0,0:0:0:0:
168,322,112216,1,0,0:0:0:0:
376,175,112352,1,0,0:0:0:0:
376,175,112421,1,0,0:0:0:0:
376,175,112489,1,0,0:0:0:0:
117,228,112625,6,0,P|107:169|115:115,1,100
291,129,112898,2,0,P|301:70|293:16,1,100
44,328,113171,2,0,P|34:269|42:215,1,100
322,325,113443,1,0,0:0:0:0:
322,325,113512,1,0,0:0:0:0:
322,325,113580,1,0,0:0:0:0:
131,150,113716,5,0,0:0:0:0:
172,131,113784,1,0,0:0:0:0:
216,125,113852,1,0,0:0:0:0:
261,129,113921,1,0,0:0:0:0:
304,140,113989,1,0,0:0:0:0:
344,159,114057,1,0,0:0:0:0:
384,179,114125,2,0,P|431:187|465:182,1,75.0000028610231
403,9,114262,5,0,0:0:0:0:
380,47,114330,1,0,0:0:0:0:
374,91,114398,1,0,0:0:0:0:
376,135,114466,1,0,0:0:0:0:
384,179,114534,2,0,P|389:228|382:269,1,75.0000028610231
215,346,114671,5,0,0:0:0:0:
170,340,114739,1,0,0:0:0:0:
138,308,114807,1,0,0:0:0:0:
124,265,114875,1,0,0:0:0:0:
132,220,114943,2,0,P|146:184|146:140,1,75.0000028610231
70,24,115080,5,0,0:0:0:0:
48,63,115148,1,0,0:0:0:0:
39,107,115216,1,0,0:0:0:0:
43,151,115284,1,0,0:0:0:0:
61,191,115352,5,0,0:0:0:0:
105,181,115421,1,0,0:0:0:0:
149,183,115489,1,0,0:0:0:0:
192,193,115557,1,0,0:0:0:0:
228,219,115625,5,0,0:0:0:0:
204,257,115693,1,0,0:0:0:0:
205,302,115762,1,0,0:0:0:0:
232,337,115830,1,0,0:0:0:0:
275,349,115898,6,0,P|321:327|355:272,1,100
320,86,116171,1,0,0:0:0:0:
320,86,116239,1,0,0:0:0:0:
320,86,116307,1,0,0:0:0:0:
247,234,116443,1,0,0:0:0:0:
224,18,116580,1,0,0:0:0:0:
83,168,116716,1,0,0:0:0:0:
83,168,116784,1,0,0:0:0:0:
83,168,116852,1,0,0:0:0:0:
374,202,116989,6,0,L|268:146,1,100
100,49,117262,1,0,0:0:0:0:
100,49,117330,1,0,0:0:0:0:
100,49,117398,1,0,0:0:0:0:
186,248,117534,1,0,0:0:0:0:
226,64,117671,1,0,0:0:0:0:
71,319,117807,2,0,P|124:340|183:328,1,100
405,184,118080,5,0,0:0:0:0:
157,129,118216,1,0,0:0:0:0:
265,319,118352,1,0,0:0:0:0:
335,58,118489,1,0,0:0:0:0:
335,243,118625,1,0,0:0:0:0:
216,17,118762,1,0,0:0:0:0:
114,220,118898,1,0,0:0:0:0:
44,63,119034,1,0,0:0:0:0:
57,340,119171,6,0,P|123:350|171:340,1,100
303,157,119443,1,0,0:0:0:0:
303,157,119512,1,0,0:0:0:0:
303,157,119580,1,0,0:0:0:0:
423,360,119716,2,0,B|437:308|437:308|425:253,1,100
229,93,119989,2,0,B|215:145|215:145|227:200,1,100
470,41,120262,6,0,L|353:47,1,100
118,62,120534,1,0,0:0:0:0:
118,62,120602,1,0,0:0:0:0:
118,62,120671,1,0,0:0:0:0:
300,207,120807,1,0,0:0:0:0:
239,79,120943,1,0,0:0:0:0:
183,281,121080,1,0,0:0:0:0:
183,281,121148,1,0,0:0:0:0:
183,281,121216,1,0,0:0:0:0:
84,141,121352,5,0,0:0:0:0:
346,152,121489,1,0,0:0:0:0:
159,64,121625,1,0,0:0:0:0:
159,64,121693,1,0,0:0:0:0:
159,64,121762,1,0,0:0:0:0:
246,348,121898,2,0,P|263:289|258:236,1,100
159,64,122171,1,0,0:0:0:0:
159,64,122239,1,0,0:0:0:0:
159,64,122308,1,0,0:0:0:0:
56,274,122443,5,0,0:0:0:0:
99,288,122512,1,0,0:0:0:0:
143,291,122580,1,0,0:0:0:0:
187,282,122648,1,0,0:0:0:0:
226,259,122716,1,0,0:0:0:0:
251,221,122784,1,0,0:0:0:0:
261,177,122852,2,0,P|267:140|276:115,1,50
408,34,122989,5,0,0:0:0:0:
442,63,123057,1,0,0:0:0:0:
458,104,123125,1,0,0:0:0:0:
459,148,123193,1,0,0:0:0:0:
446,191,123262,2,0,P|427:223|403:239,1,50
196,186,123398,5,0,0:0:0:0:
151,192,123466,1,0,0:0:0:0:
116,220,123534,1,0,0:0:0:0:
93,259,123602,1,0,0:0:0:0:
91,304,123671,2,0,P|107:328|135:351,1,50
361,353,123807,5,0,0:0:0:0:
371,309,123875,1,0,0:0:0:0:
370,264,123943,1,0,0:0:0:0:
359,219,124012,1,0,0:0:0:0:
340,178,124080,2,0,P|339:143|345:113,3,50
437,132,124352,2,0,P|438:97|432:67,3,50
354,43,124625,1,0,0:0:0:0:
179,226,124898,5,0,0:0:0:0:
147,357,125034,1,0,0:0:0:0:
50,264,125171,1,0,0:0:0:0:
333,226,125443,5,0,0:0:0:0:
365,357,125579,1,0,0:0:0:0:
462,264,125716,1,0,0:0:0:0:
288,37,125989,5,0,0:0:0:0:
256,168,126125,1,0,0:0:0:0:
159,75,126262,1,0,0:0:0:0:
392,350,126534,6,0,B|410:298|410:298|399:244,1,100
281,104,126807,2,0,P|334:84|476:122,1,200
56,238,127216,2,0,B|35:137|35:137|52:27,1,200
448,204,127625,2,0,B|431:256|417:315|430:353|430:353|391:330|326:302|155:353|190:228|217:166|296:167|296:167|248:133|253:59|253:59|228:92|153:94,1,750.000028610231
49,313,129262,5,0,0:0:0:0:
214,329,129398,1,0,0:0:0:0:
143,243,129534,1,0,0:0:0:0:
463,313,129807,5,0,0:0:0:0:
298,329,129943,1,0,0:0:0:0:
369,243,130079,1,0,0:0:0:0:
182,67,130352,5,0,0:0:0:0:
347,51,130488,1,0,0:0:0:0:
276,137,130624,1,0,0:0:0:0:
36,353,130898,6,0,B|26:298|26:298|34:245,1,100
236,58,131171,2,0,B|181:39|181:39|131:36|73:52|26:30,1,200
430,225,131580,2,0,B|455:153|455:153|409:94|409:94|418:40,1,200
210,344,131989,2,0,P|145:278|178:171,1,200
368,53,132807,5,0,0:0:0:0:
390,101,132898,1,0,0:0:0:0:
379,153,132989,1,0,0:0:0:0:
351,198,133080,1,0,0:0:0:0:
340,250,133171,1,0,0:0:0:0:
362,298,133262,1,0,0:0:0:0:
414,301,133352,1,0,0:0:0:0:
106,42,133625,5,0,0:0:0:0:
73,218,133762,1,0,0:0:0:0:
157,128,133898,1,0,0:0:0:0:
406,42,134171,5,0,0:0:0:0:
439,218,134308,1,0,0:0:0:0:
355,128,134444,1,0,0:0:0:0:
165,339,134716,5,0,0:0:0:0:
132,163,134853,1,0,0:0:0:0:
216,253,134989,1,0,0:0:0:0:
440,52,135262,6,0,P|454:102|446:160,1,100
308,73,135534,2,0,B|211:34|211:34|107:74,1,200
94,365,135943,2,0,B|20:326|54:241|54:241|32:171,1,200
480,234,136352,2,0,B|525:309|468:382|361:373|347:282|347:282|307:315|263:331|230:299|206:267|206:267|148:299|132:332|132:332|123:301|103:176|203:135,1,750.000028610231
456,43,137989,5,0,0:0:0:0:
279,60,138125,1,0,0:0:0:0:
358,239,138262,1,0,0:0:0:0:
56,43,138534,5,0,0:0:0:0:
233,60,138670,1,0,0:0:0:0:
154,239,138807,1,0,0:0:0:0:
414,353,139080,5,0,0:0:0:0:
237,336,139216,1,0,0:0:0:0:
316,157,139353,1,0,0:0:0:0:
64,37,139625,6,0,P|55:78|58:121,1,75.0000028610231
178,95,139898,2,0,P|187:136|184:179,1,75.0000028610231
74,271,140171,1,0,0:0:0:0:
309,350,140307,2,0,P|325:304|296:204,1,150.000005722046
58,149,140716,2,0,L|137:135,1,75.0000028610231
451,49,140989,6,0,B|466:101|466:101|458:152,1,100
365,306,141262,1,0,0:0:0:0:
226,15,141398,2,0,P|219:70|224:118,1,100
300,350,141671,1,0,0:0:0:0:
34,127,141807,2,0,P|55:174|89:211,1,100
257,340,142080,5,0,0:0:0:0:
366,174,142216,1,0,0:0:0:0:
426,346,142352,1,0,0:0:0:0:
321,118,142489,1,0,0:0:0:0:
241,294,142625,1,0,0:0:0:0:
330,55,142762,1,0,0:0:0:0:
467,306,142898,1,0,0:0:0:0:
283,22,143034,1,0,0:0:0:0:
201,326,143171,5,0,0:0:0:0:
270,81,143307,1,0,0:0:0:0:
417,312,143443,1,0,0:0:0:0:
188,44,143580,1,0,0:0:0:0:
128,277,143716,1,0,0:0:0:0:
338,59,143852,1,0,0:0:0:0:
358,351,143989,1,0,0:0:0:0:
95,82,144125,1,0,0:0:0:0:
439,247,144262,5,0,0:0:0:0:
56,288,144398,1,0,0:0:0:0:
292,70,144534,1,0,0:0:0:0:
231,374,144671,1,0,0:0:0:0:
222,21,144807,1,0,0:0:0:0:
433,324,144943,1,0,0:0:0:0:
35,178,145080,1,0,0:0:0:0:
378,56,145216,1,0,0:0:0:0:
113,359,145352,5,0,0:0:0:0:
105,337,145421,1,0,0:0:0:0:
98,315,145489,1,0,0:0:0:0:
92,293,145557,1,0,0:0:0:0:
87,271,145625,5,0,0:0:0:0:
104,229,145693,1,0,0:0:0:0:
140,202,145762,1,0,0:0:0:0:
183,189,145830,1,0,0:0:0:0:
227,190,145898,1,0,0:0:0:0:
270,202,145966,1,0,0:0:0:0:
313,211,146034,1,0,0:0:0:0:
357,207,146102,1,0,0:0:0:0:
395,182,146171,1,0,0:0:0:0:
420,144,146239,1,0,0:0:0:0:
425,99,146307,1,0,0:0:0:0:
407,57,146375,1,0,0:0:0:0:
370,30,146443,6,0,P|304:28|245:56,1,119.999996337891
193,278,146716,1,0,0:0:0:0:
193,278,146784,1,0,0:0:0:0:
193,278,146852,1,0,0:0:0:0:
111,101,146989,1,0,0:0:0:0:
47,308,147125,1,0,0:0:0:0:
231,152,147262,1,0,0:0:0:0:
272,338,147398,1,0,0:0:0:0:
85,182,147534,1,0,0:0:0:0:
362,211,147671,1,0,0:0:0:0:
196,58,147807,1,0,0:0:0:0:
196,58,147875,1,0,0:0:0:0:
196,58,147943,1,0,0:0:0:0:
163,347,148080,6,0,P|151:278|166:209,1,119.999996337891
357,93,148352,2,0,P|369:162|354:231,1,119.999996337891
74,317,148625,5,0,0:0:0:0:
208,130,148762,1,0,0:0:0:0:
233,278,148898,1,0,0:0:0:0:
121,62,149034,1,0,0:0:0:0:
31,220,149171,1,0,0:0:0:0:
322,90,149307,1,0,0:0:0:0:
42,34,149443,5,0,0:0:0:0:
42,34,149512,1,0,0:0:0:0:
42,34,149580,1,0,0:0:0:0:
174,304,149716,1,0,0:0:0:0:
237,76,149852,1,0,0:0:0:0:
69,230,149989,1,0,0:0:0:0:
69,230,150057,1,0,0:0:0:0:
69,230,150125,1,0,0:0:0:0:
356,153,150262,2,0,P|366:220|352:277,1,119.999996337891
139,21,150534,2,0,P|129:88|143:145,1,119.999996337891
312,288,150807,5,0,0:0:0:0:
235,103,150943,1,0,0:0:0:0:
171,246,151080,1,0,0:0:0:0:
333,42,151216,1,0,0:0:0:0:
404,226,151352,1,0,0:0:0:0:
125,89,151489,1,0,0:0:0:0:
434,57,151625,1,0,0:0:0:0:
292,291,151762,1,0,0:0:0:0:
183,28,151898,1,0,0:0:0:0:
82,239,152034,1,0,0:0:0:0:
383,132,152171,6,0,P|397:193|389:268,1,119.999996337891
178,174,152443,1,0,0:0:0:0:
178,174,152512,1,0,0:0:0:0:
178,174,152580,1,0,0:0:0:0:
447,47,152716,2,0,P|372:36|301:43,1,119.999996337891
68,331,152989,5,0,0:0:0:0:
70,325,153057,1,0,0:0:0:0:
72,318,153125,1,0,0:0:0:0:
75,313,153193,1,0,0:0:0:0:
78,306,153261,1,0,0:0:0:0:
81,301,153329,1,0,0:0:0:0:
83,294,153398,1,0,0:0:0:0:
88,288,153466,1,0,0:0:0:0:
90,282,153534,1,0,0:0:0:0:
93,276,153602,1,0,0:0:0:0:
97,271,153671,1,0,0:0:0:0:
110,247,153738,5,0,0:0:0:0:
131,221,153806,1,0,0:0:0:0:
160,205,153874,1,0,0:0:0:0:
193,199,153943,1,0,0:0:0:0:
224,211,154011,1,0,0:0:0:0:
246,236,154079,5,0,0:0:0:0:
284,263,154147,1,0,0:0:0:0:
331,265,154215,1,0,0:0:0:0:
374,247,154283,1,0,0:0:0:0:
409,214,154352,1,0,0:0:0:0:
430,172,154420,1,0,0:0:0:0:
441,126,154488,1,0,0:0:0:0:
433,79,154556,1,0,0:0:0:0:
411,37,154624,5,0,0:0:0:0:
383,76,154693,1,0,0:0:0:0:
374,122,154761,1,0,0:0:0:0:
380,168,154829,1,0,0:0:0:0:
393,213,154897,1,0,0:0:0:0:
396,259,154965,1,0,0:0:0:0:
381,303,155033,1,0,0:0:0:0:
348,338,155102,1,0,0:0:0:0:
301,347,155170,6,0,P|240:346|191:313,1,119.999996337891
136,102,155443,1,0,0:0:0:0:
64,259,155580,1,0,0:0:0:0:
248,46,155716,1,0,0:0:0:0:
6,149,155852,1,0,0:0:0:0:
213,322,155989,1,0,0:0:0:0:
213,322,156057,1,0,0:0:0:0:
213,322,156125,1,0,0:0:0:0:
86,57,156262,5,0,0:0:0:0:
12,303,156398,1,0,0:0:0:0:
224,148,156534,1,0,0:0:0:0:
330,348,156671,1,0,0:0:0:0:
369,79,156807,1,0,0:0:0:0:
369,79,156875,1,0,0:0:0:0:
369,79,156943,1,0,0:0:0:0:
29,72,157080,2,0,L|159:80,1,119.999996337891
464,103,157352,5,0,0:0:0:0:
149,192,157489,1,0,0:0:0:0:
312,69,157625,1,0,0:0:0:0:
291,324,157762,1,0,0:0:0:0:
172,81,157898,1,0,0:0:0:0:
437,194,158034,1,0,0:0:0:0:
62,194,158171,1,0,0:0:0:0:
341,40,158307,1,0,0:0:0:0:
193,337,158443,5,0,0:0:0:0:
175,305,158512,1,0,0:0:0:0:
166,270,158580,1,0,0:0:0:0:
172,234,158648,1,0,0:0:0:0:
186,201,158716,1,0,0:0:0:0:
197,167,158784,1,0,0:0:0:0:
203,131,158852,1,0,0:0:0:0:
201,94,158921,1,0,0:0:0:0:
188,60,158989,1,0,0:0:0:0:
160,37,159057,1,0,0:0:0:0:
125,26,159125,1,0,0:0:0:0:
89,27,159193,1,0,0:0:0:0:
56,43,159262,1,0,0:0:0:0:
34,71,159330,1,0,0:0:0:0:
28,106,159398,1,0,0:0:0:0:
34,141,159466,1,0,0:0:0:0:
57,168,159534,5,0,0:0:0:0:
254,246,159671,1,0,0:0:0:0:
169,132,159807,1,0,0:0:0:0:
189,324,159943,1,0,0:0:0:0:
285,77,160080,1,0,0:0:0:0:
88,247,160216,1,0,0:0:0:0:
382,149,160352,1,0,0:0:0:0:
145,40,160489,1,0,0:0:0:0:
314,298,160625,1,0,0:0:0:0:
356,37,160762,1,0,0:0:0:0:
189,324,160898,5,0,0:0:0:0:
166,296,160966,1,0,0:0:0:0:
151,263,161034,1,0,0:0:0:0:
150,227,161102,1,0,0:0:0:0:
161,192,161171,1,0,0:0:0:0:
183,163,161239,1,0,0:0:0:0:
213,144,161307,1,0,0:0:0:0:
248,137,161375,1,0,0:0:0:0:
283,142,161443,1,0,0:0:0:0:
316,156,161512,1,0,0:0:0:0:
349,168,161580,1,0,0:0:0:0:
384,170,161648,1,0,0:0:0:0:
418,160,161716,6,0,P|430:93|425:28,1,119.999996337891
305,330,161988,1,0,0:0:0:0:
173,44,162125,2,0,P|170:103|182:162,1,119.999996337891
305,330,162398,1,0,0:0:0:0:
15,290,162534,2,0,P|79:280|145:289,1,119.999996337891
389,361,162807,5,0,0:0:0:0:
428,346,162875,1,0,0:0:0:0:
456,315,162943,1,0,0:0:0:0:
465,273,163012,1,0,0:0:0:0:
462,231,163080,2,0,P|458:204|431:153,1,59.9999981689454
294,43,163216,5,0,0:0:0:0:
257,63,163284,1,0,0:0:0:0:
235,99,163352,1,0,0:0:0:0:
235,141,163421,1,0,0:0:0:0:
251,179,163489,2,0,P|253:202|245:253,1,59.9999981689454
100,291,163625,2,0,P|96:261|98:231,2,59.9999981689454
271,353,163898,6,0,B|284:309|284:309|280:238,1,100
266,50,164171,1,0,0:0:0:0:
159,210,164307,1,0,0:0:0:0:
383,21,164443,2,0,P|396:71|383:128,1,100
315,328,164716,1,0,0:0:0:0:
315,328,164784,1,0,0:0:0:0:
315,328,164852,1,0,0:0:0:0:
249,141,164989,1,0,0:0:0:0:
201,284,165125,1,0,0:0:0:0:
144,94,165262,5,0,0:0:0:0:
144,94,165330,1,0,0:0:0:0:
144,94,165398,1,0,0:0:0:0:
327,189,165534,1,0,0:0:0:0:
58,155,165671,1,0,0:0:0:0:
292,74,165807,1,0,0:0:0:0:
292,74,165875,1,0,0:0:0:0:
292,74,165943,1,0,0:0:0:0:
50,199,166079,5,0,0:0:0:0:
45,239,166147,1,0,0:0:0:0:
51,279,166215,1,0,0:0:0:0:
66,317,166283,1,0,0:0:0:0:
96,345,166352,1,0,0:0:0:0:
134,360,166420,1,0,0:0:0:0:
175,361,166488,1,0,0:0:0:0:
215,350,166556,1,0,0:0:0:0:
236,314,166624,5,0,0:0:0:0:
265,283,166693,1,0,0:0:0:0:
301,263,166761,1,0,0:0:0:0:
341,253,166829,1,0,0:0:0:0:
382,253,166897,1,0,0:0:0:0:
417,274,166965,1,0,0:0:0:0:
439,308,167033,1,0,0:0:0:0:
434,349,167102,1,0,0:0:0:0:
412,382,167170,5,0,0:0:0:0:
397,344,167238,1,0,0:0:0:0:
395,303,167306,1,0,0:0:0:0:
403,262,167374,1,0,0:0:0:0:
415,222,167443,1,0,0:0:0:0:
420,181,167511,1,0,0:0:0:0:
412,141,167579,1,0,0:0:0:0:
395,103,167647,1,0,0:0:0:0:
365,75,167715,5,0,0:0:0:0:
330,54,167783,1,0,0:0:0:0:
290,44,167852,1,0,0:0:0:0:
251,53,167920,1,0,0:0:0:0:
222,81,167988,1,0,0:0:0:0:
216,121,168056,1,0,0:0:0:0:
224,161,168124,1,0,0:0:0:0:
253,191,168193,1,0,0:0:0:0:
294,195,168261,6,0,B|347:211|347:211|388:262,1,100
91,271,168534,1,0,0:0:0:0:
270,107,168671,1,0,0:0:0:0:
237,299,168807,1,0,0:0:0:0:
119,82,168943,1,0,0:0:0:0:
56,348,169080,1,0,0:0:0:0:
56,348,169148,1,0,0:0:0:0:
56,348,169216,1,0,0:0:0:0:
56,131,169352,6,0,P|108:122|166:130,1,100
327,269,169625,1,0,0:0:0:0:
327,269,169693,1,0,0:0:0:0:
327,269,169762,1,0,0:0:0:0:
260,64,169898,1,0,0:0:0:0:
197,307,170034,1,0,0:0:0:0:
372,151,170171,1,0,0:0:0:0:
372,151,170239,1,0,0:0:0:0:
372,151,170307,1,0,0:0:0:0:
114,55,170443,5,0,0:0:0:0:
96,85,170512,1,0,0:0:0:0:
92,119,170580,1,0,0:0:0:0:
97,153,170648,1,0,0:0:0:0:
109,185,170716,1,0,0:0:0:0:
118,218,170784,1,0,0:0:0:0:
118,252,170852,2,0,P|118:281|111:324,1,50
188,142,170989,5,0,0:0:0:0:
216,122,171057,1,0,0:0:0:0:
250,114,171125,1,0,0:0:0:0:
284,118,171193,1,0,0:0:0:0:
315,134,171262,2,0,P|332:162|340:206,1,50
274,355,171398,5,0,0:0:0:0:
248,331,171466,1,0,0:0:0:0:
239,297,171534,1,0,0:0:0:0:
241,262,171602,1,0,0:0:0:0:
251,228,171671,2,0,P|252:196|248:165,1,50
176,32,171807,5,0,0:0:0:0:
141,36,171875,1,0,0:0:0:0:
111,54,171943,1,0,0:0:0:0:
90,83,172012,1,0,0:0:0:0:
77,115,172080,2,0,P|72:147|75:177,1,50
175,318,172216,2,0,P|180:286|177:256,1,50
159,108,172352,5,0,0:0:0:0:
182,81,172421,1,0,0:0:0:0:
213,65,172489,1,0,0:0:0:0:
247,59,172557,1,0,0:0:0:0:
280,67,172625,6,0,P|329:89|364:144,1,100
334,326,172898,1,0,0:0:0:0:
334,326,172966,1,0,0:0:0:0:
334,326,173034,1,0,0:0:0:0:
450,179,173171,1,0,0:0:0:0:
215,212,173307,1,0,0:0:0:0:
400,270,173443,1,0,0:0:0:0:
400,270,173512,1,0,0:0:0:0:
400,270,173580,1,0,0:0:0:0:
252,22,173716,6,0,P|239:79|244:140,1,100
299,334,173989,1,0,0:0:0:0:
299,334,174057,1,0,0:0:0:0:
299,334,174125,1,0,0:0:0:0:
327,122,174262,1,0,0:0:0:0:
158,268,174398,1,0,0:0:0:0:
205,40,174534,1,0,0:0:0:0:
205,40,174602,1,0,0:0:0:0:
205,40,174671,1,0,0:0:0:0:
430,348,174806,5,0,0:0:0:0:
450,313,174874,1,0,0:0:0:0:
458,273,174943,1,0,0:0:0:0:
444,235,175011,1,0,0:0:0:0:
413,210,175079,1,0,0:0:0:0:
377,192,175147,1,0,0:0:0:0:
345,168,175215,1,0,0:0:0:0:
326,133,175283,1,0,0:0:0:0:
321,92,175352,5,0,0:0:0:0:
340,56,175420,1,0,0:0:0:0:
378,41,175488,1,0,0:0:0:0:
419,38,175556,1,0,0:0:0:0:
458,52,175624,1,0,0:0:0:0:
479,89,175693,1,0,0:0:0:0:
475,130,175761,1,0,0:0:0:0:
454,165,175829,1,0,0:0:0:0:
416,180,175897,5,0,0:0:0:0:
377,170,175965,1,0,0:0:0:0:
341,151,176033,1,0,0:0:0:0:
300,148,176102,1,0,0:0:0:0:
262,162,176170,1,0,0:0:0:0:
228,185,176238,1,0,0:0:0:0:
202,217,176306,1,0,0:0:0:0:
187,255,176374,1,0,0:0:0:0:
198,296,176443,5,0,0:0:0:0:
227,268,176511,1,0,0:0:0:0:
241,230,176579,1,0,0:0:0:0:
248,190,176647,1,0,0:0:0:0:
247,150,176715,2,0,P|245:117|236:84,1,50
116,28,176852,1,0,0:0:0:0:
116,28,176920,1,0,0:0:0:0:
116,28,176988,6,0,B|100:66|100:66|98:156,1,100
96,337,177262,1,0,0:0:0:0:
96,337,177330,1,0,0:0:0:0:
96,337,177398,1,0,0:0:0:0:
190,178,177534,1,0,0:0:0:0:
277,332,177671,1,0,0:0:0:0:
351,107,177807,1,0,0:0:0:0:
351,107,177875,1,0,0:0:0:0:
351,107,177943,1,0,0:0:0:0:
128,27,178080,6,0,P|119:89|127:140,1,100
304,245,178352,1,0,0:0:0:0:
304,245,178421,1,0,0:0:0:0:
304,245,178489,1,0,0:0:0:0:
222,106,178625,1,0,0:0:0:0:
182,289,178762,1,0,0:0:0:0:
386,133,178898,1,0,0:0:0:0:
386,133,178966,1,0,0:0:0:0:
386,133,179034,1,0,0:0:0:0:
110,58,179171,5,0,0:0:0:0:
90,86,179239,1,0,0:0:0:0:
84,120,179307,1,0,0:0:0:0:
85,154,179375,1,0,0:0:0:0:
93,187,179443,1,0,0:0:0:0:
117,212,179512,1,0,0:0:0:0:
149,225,179580,2,0,P|181:232|211:229,1,50
402,194,179716,5,0,0:0:0:0:
422,222,179784,1,0,0:0:0:0:
426,256,179852,1,0,0:0:0:0:
423,291,179921,1,0,0:0:0:0:
409,323,179989,2,0,P|384:344|354:357,1,50
153,357,180125,5,0,0:0:0:0:
142,323,180193,1,0,0:0:0:0:
142,287,180262,1,0,0:0:0:0:
155,254,180330,1,0,0:0:0:0:
177,227,180398,2,0,P|188:196|191:160,1,50
132,22,180534,5,0,0:0:0:0:
98,32,180602,1,0,0:0:0:0:
78,61,180671,1,0,0:0:0:0:
64,93,180739,1,0,0:0:0:0:
61,127,180807,2,0,L|64:195,3,50
147,156,181080,2,0,L|150:224,3,50
220,115,181352,5,0,0:0:0:0:
381,347,181625,6,0,B|394:295|394:295|383:225,1,100
220,115,181898,2,0,B|212:160|212:160|225:212,1,100
381,347,182171,2,0,B|394:295|394:295|383:225,1,100
122,38,182443,5,0,0:0:0:0:
106,75,182512,1,0,0:0:0:0:
100,114,182580,1,0,0:0:0:0:
106,153,182648,1,0,0:0:0:0:
122,189,182716,1,0,0:0:0:0:
135,226,182784,1,0,0:0:0:0:
139,265,182852,1,0,0:0:0:0:
130,304,182921,1,0,0:0:0:0:
109,338,182989,5,0,0:0:0:0:
96,300,183057,1,0,0:0:0:0:
106,261,183125,1,0,0:0:0:0:
128,227,183193,1,0,0:0:0:0:
158,200,183262,1,0,0:0:0:0:
195,185,183330,1,0,0:0:0:0:
234,180,183398,1,0,0:0:0:0:
272,168,183466,1,0,0:0:0:0:
300,137,183534,5,0,0:0:0:0:
146,47,183671,1,0,0:0:0:0:
417,92,183807,1,0,0:0:0:0:
198,212,183943,1,0,0:0:0:0:
337,39,184080,1,0,0:0:0:0:
329,341,184216,1,0,0:0:0:0:
268,114,184352,1,0,0:0:0:0:
177,274,184489,1,0,0:0:0:0:
425,128,184625,6,0,P|366:99|293:98,1,119.999996337891
54,143,184897,1,0,0:0:0:0:
450,285,185034,2,0,L|310:235,1,119.999996337891
178,89,185307,1,0,0:0:0:0:
178,89,185375,1,0,0:0:0:0:
178,89,185443,1,0,0:0:0:0:
127,278,185580,1,0,0:0:0:0:
274,155,185716,1,0,0:0:0:0:
393,360,185852,6,0,B|411:325|411:325|407:232,1,119.999996337891
381,45,186125,1,0,0:0:0:0:
300,228,186262,1,0,0:0:0:0:
176,78,186398,1,0,0:0:0:0:
145,302,186534,1,0,0:0:0:0:
145,302,186602,1,0,0:0:0:0:
145,302,186671,1,0,0:0:0:0:
233,149,186807,5,0,0:0:0:0:
46,253,186943,1,0,0:0:0:0:
257,338,187080,1,0,0:0:0:0:
257,338,187148,1,0,0:0:0:0:
257,338,187216,1,0,0:0:0:0:
76,152,187352,1,0,0:0:0:0:
355,122,187489,1,0,0:0:0:0:
16,65,187625,1,0,0:0:0:0:
16,65,187693,1,0,0:0:0:0:
16,65,187762,1,0,0:0:0:0:
464,278,187898,6,0,B|230:253|353:372|143:336,1,324.999985122681
49,304,188307,2,0,B|157:141|211:299|321:136,1,324.999985122681
279,75,188716,2,0,P|393:149|333:154,1,324.999985122681
275,178,189125,2,0,B|179:188|145:169|145:169|161:206|158:298,1,259.999988098145
291,355,189534,5,0,0:0:0:0:
349,351,189602,1,0,0:0:0:0:
402,327,189670,1,0,0:0:0:0:
442,285,189738,1,0,0:0:0:0:
466,232,189806,1,0,0:0:0:0:
469,174,189874,1,0,0:0:0:0:
451,119,189943,1,0,0:0:0:0:
414,74,190011,1,0,0:0:0:0:
367,45,190080,6,0,P|295:35|251:50,1,100
128,205,190352,1,0,0:0:0:0:
128,205,190421,1,0,0:0:0:0:
128,205,190489,1,0,0:0:0:0:
165,64,190625,1,0,0:0:0:0:
206,299,190762,1,0,0:0:0:0:
41,166,190898,1,0,0:0:0:0:
41,166,190966,1,0,0:0:0:0:
41,166,191034,1,0,0:0:0:0:
296,229,191171,6,0,P|309:169|301:118,1,100
122,329,191443,1,0,0:0:0:0:
122,329,191512,1,0,0:0:0:0:
122,329,191580,1,0,0:0:0:0:
204,152,191716,1,0,0:0:0:0:
291,365,191852,1,0,0:0:0:0:
103,218,191989,1,0,0:0:0:0:
103,218,192057,1,0,0:0:0:0:
103,218,192125,1,0,0:0:0:0:
393,245,192262,5,0,0:0:0:0:
172,300,192398,1,0,0:0:0:0:
290,134,192534,1,0,0:0:0:0:
72,85,192671,1,0,0:0:0:0:
212,277,192807,1,0,0:0:0:0:
305,29,192943,1,0,0:0:0:0:
328,231,193080,1,0,0:0:0:0:
184,51,193216,1,0,0:0:0:0:
139,368,193352,6,0,P|128:308|141:246,1,119.999996337891
318,94,193625,1,0,0:0:0:0:
246,312,193762,1,0,0:0:0:0:
425,194,193898,2,0,P|436:252|425:311,1,119.999996337891
258,35,194171,2,0,B|240:87|240:87|259:122|259:122|266:220|185:244,1,239.999992675781
93,319,194580,5,0,0:0:0:0:
156,76,194716,1,0,0:0:0:0:
156,76,194785,1,0,0:0:0:0:
156,76,194853,1,0,0:0:0:0:
224,238,194989,1,0,0:0:0:0:
366,115,195126,1,0,0:0:0:0:
381,320,195262,1,0,0:0:0:0:
381,320,195330,1,0,0:0:0:0:
381,320,195398,1,0,0:0:0:0:
271,43,195535,6,0,P|256:103|271:165,1,100
455,234,195807,1,0,0:0:0:0:
455,234,195876,1,0,0:0:0:0:
455,234,195944,1,0,0:0:0:0:
211,240,196080,1,0,0:0:0:0:
321,74,196216,1,0,0:0:0:0:
359,331,196352,1,0,0:0:0:0:
359,331,196421,1,0,0:0:0:0:
359,331,196489,1,0,0:0:0:0:
219,45,196625,6,0,P|102:40|51:265,1,375.000014305115
56,338,197034,2,0,B|107:347|154:378|154:378|192:291|284:301|284:301|287:231|323:189,1,375.000014305115
411,185,197443,5,0,0:0:0:0:
419,160,197512,1,0,0:0:0:0:
421,134,197580,1,0,0:0:0:0:
416,108,197648,1,0,0:0:0:0:
405,84,197716,1,0,0:0:0:0:
386,65,197784,1,0,0:0:0:0:
361,57,197852,5,0,0:0:0:0:
336,66,197921,1,0,0:0:0:0:
310,70,197989,1,0,0:0:0:0:
284,70,198057,1,0,0:0:0:0:
258,67,198125,1,0,0:0:0:0:
232,62,198193,1,0,0:0:0:0:
206,57,198262,5,0,0:0:0:0:
164,74,198330,1,0,0:0:0:0:
143,114,198398,1,0,0:0:0:0:
143,159,198466,1,0,0:0:0:0:
167,197,198534,5,0,0:0:0:0:
184,238,198602,1,0,0:0:0:0:
171,282,198670,1,0,0:0:0:0:
139,313,198738,1,0,0:0:0:0:
93,322,198807,5,0,0:0:0:0:
341,142,199080,5,0,0:0:0:0:
439,74,199216,1,0,0:0:0:0:
256,49,199352,1,0,0:0:0:0:
171,142,199626,5,0,0:0:0:0:
73,74,199762,1,0,0:0:0:0:
256,49,199898,1,0,0:0:0:0:
299,247,200171,5,0,0:0:0:0:
201,315,200307,1,0,0:0:0:0:
384,340,200443,1,0,0:0:0:0:
67,237,200716,6,0,P|55:184|74:122,1,100
203,170,200989,2,0,B|220:104|192:38|192:38|152:48|108:33,1,200
309,170,201398,2,0,B|292:104|320:38|320:38|360:48|404:33,1,200
65,355,201807,2,0,B|141:318|130:248|101:186|101:186|215:211|197:357|197:357|246:261|360:275|360:275|294:190|344:139|353:64|304:17|266:-2|191:120|116:17,1,1000
336,308,203443,5,0,0:0:0:0:
396,234,203580,1,0,0:0:0:0:
303,221,203716,1,0,0:0:0:0:
176,76,203989,5,0,0:0:0:0:
116,150,204124,1,0,0:0:0:0:
209,163,204261,1,0,0:0:0:0:
373,150,204533,5,0,0:0:0:0:
433,76,204670,1,0,0:0:0:0:
340,63,204806,1,0,0:0:0:0:
178,318,205080,6,0,P|120:327|64:320,1,100
327,187,205352,2,0,B|325:233|366:279|366:279|365:342|332:369,1,200
223,88,205762,2,0,P|290:60|421:102,1,200
90,189,206171,2,0,B|76:135|76:135|88:84,2,100
368,331,206989,5,0,0:0:0:0:
390,283,207080,1,0,0:0:0:0:
379,231,207171,1,0,0:0:0:0:
351,186,207262,1,0,0:0:0:0:
340,134,207353,1,0,0:0:0:0:
362,86,207444,1,0,0:0:0:0:
414,83,207534,5,0,0:0:0:0:
144,193,207807,5,0,0:0:0:0:
21,132,207943,1,0,0:0:0:0:
125,43,208080,1,0,0:0:0:0:
368,193,208352,5,0,0:0:0:0:
491,132,208488,1,0,0:0:0:0:
387,43,208625,1,0,0:0:0:0:
201,219,208898,5,0,0:0:0:0:
158,349,209034,1,0,0:0:0:0:
294,338,209171,1,0,0:0:0:0:
461,68,209443,6,0,P|476:130|471:177,1,100
68,82,209716,2,0,B|171:46|171:46|279:70,1,200
178,159,210125,2,0,B|267:179|267:179|370:143,1,200
70,355,210534,2,0,B|11:268|136:197|23:100|23:100|102:110|147:48|147:48|136:147|259:168|163:283|163:283|222:376|340:363|425:314|381:207,1,1000
281,30,212171,5,0,0:0:0:0:
243,169,212307,1,0,0:0:0:0:
453,88,212443,1,0,0:0:0:0:
231,30,212716,5,0,0:0:0:0:
269,169,212852,1,0,0:0:0:0:
59,88,212988,1,0,0:0:0:0:
290,344,213262,5,0,0:0:0:0:
384,235,213398,1,0,0:0:0:0:
159,219,213534,1,0,0:0:0:0:
349,39,213807,6,0,P|358:87|356:128,1,75.0000028610231
186,56,214080,2,0,P|177:119|187:163,1,100
322,341,214352,1,0,0:0:0:0:
322,341,214489,2,0,B|212:359|212:359|94:332,1,200
436,149,214898,2,0,L|453:267,1,100
100,37,215171,6,0,P|78:99|101:172,1,129.999994049073
285,306,215444,1,0,0:0:0:0:
181,8,215580,2,0,P|169:81|184:151,1,139.999995727539
368,330,215853,1,0,0:0:0:0:
9,336,215989,2,0,P|95:311|167:312,1,150.000005722046
450,355,216262,5,0,0:0:0:0:
252,216,216398,1,0,0:0:0:0:
306,326,216534,1,0,0:0:0:0:
371,142,216671,1,0,0:0:0:0:
396,273,216807,1,0,0:0:0:0:
291,67,216943,1,0,0:0:0:0:
187,219,217080,1,0,0:0:0:0:
419,84,217216,1,0,0:0:0:0:
116,151,217352,5,0,0:0:0:0:
453,172,217489,1,0,0:0:0:0:
208,27,217625,1,0,0:0:0:0:
125,308,217762,1,0,0:0:0:0:
315,161,217898,1,0,0:0:0:0:
383,350,218034,1,0,0:0:0:0:
141,92,218171,1,0,0:0:0:0:
436,212,218307,1,0,0:0:0:0:
49,204,218443,5,0,0:0:0:0:
426,93,218580,1,0,0:0:0:0:
30,49,218716,1,0,0:0:0:0:
178,348,218852,1,0,0:0:0:0:
335,29,218989,1,0,0:0:0:0:
416,301,219125,1,0,0:0:0:0:
106,111,219262,1,0,0:0:0:0:
466,42,219398,1,0,0:0:0:0:
127,352,219534,5,0,0:0:0:0:
87,343,219602,1,0,0:0:0:0:
63,311,219671,1,0,0:0:0:0:
64,270,219739,1,0,0:0:0:0:
87,236,219807,1,0,0:0:0:0:
119,210,219875,1,0,0:0:0:0:
142,175,219943,1,0,0:0:0:0:
152,135,220012,1,0,0:0:0:0:
143,95,220080,5,0,0:0:0:0:
106,111,220148,1,0,0:0:0:0:
85,145,220216,1,0,0:0:0:0:
77,184,220284,1,0,0:0:0:0:
85,224,220352,1,0,0:0:0:0:
116,250,220421,1,0,0:0:0:0:
156,259,220489,1,0,0:0:0:0:
195,247,220557,1,0,0:0:0:0:
234,233,220625,6,0,B|292:230|292:230|395:266,1,150.000005722046
125,345,220898,1,0,0:0:0:0:
125,345,220966,1,0,0:0:0:0:
125,345,221034,1,0,0:0:0:0:
204,159,221171,1,0,0:0:0:0:
40,258,221307,1,0,0:0:0:0:
267,334,221443,1,0,0:0:0:0:
267,334,221512,1,0,0:0:0:0:
267,334,221580,1,0,0:0:0:0:
101,26,221716,6,0,P|76:101|105:181,1,150.000005722046
298,76,221989,1,0,0:0:0:0:
298,76,222057,1,0,0:0:0:0:
298,76,222125,1,0,0:0:0:0:
217,242,222262,1,0,0:0:0:0:
373,21,222398,1,0,0:0:0:0:
417,321,222534,1,0,0:0:0:0:
417,321,222602,1,0,0:0:0:0:
417,321,222671,1,0,0:0:0:0:
190,143,222807,5,0,0:0:0:0:
428,223,222943,1,0,0:0:0:0:
136,249,223080,1,0,0:0:0:0:
355,114,223216,1,0,0:0:0:0:
65,70,223352,1,0,0:0:0:0:
256,293,223489,1,0,0:0:0:0:
260,32,223625,1,0,0:0:0:0:
43,227,223762,1,0,0:0:0:0:
343,202,223898,6,0,B|364:280|364:280|351:354,1,150.000005722046
32,48,224171,2,0,B|113:31|113:31|223:56,1,150.000005722046
62,357,224443,2,0,B|53:302|53:302|62:201,1,150.000005722046
450,357,224716,2,0,B|459:302|459:302|450:201,1,150.000005722046
186,54,224989,5,0,0:0:0:0:
323,266,225125,1,0,0:0:0:0:
321,109,225262,1,0,0:0:0:0:
188,297,225398,1,0,0:0:0:0:
120,42,225534,1,0,0:0:0:0:
74,353,225671,1,0,0:0:0:0:
271,167,225807,1,0,0:0:0:0:
27,90,225943,1,0,0:0:0:0:
344,52,226080,1,0,0:0:0:0:
124,252,226216,1,0,0:0:0:0:
386,136,226352,6,0,L|466:128,3,75.0000028610231
356,222,226625,2,0,L|436:214,3,75.0000028610231
327,321,226898,2,0,L|407:313,3,75.0000028610231
218,358,227171,5,0,0:0:0:0:
196,351,227239,1,0,0:0:0:0:
175,341,227307,1,0,0:0:0:0:
159,325,227375,1,0,0:0:0:0:
146,306,227443,1,0,0:0:0:0:
136,285,227512,1,0,0:0:0:0:
130,263,227580,1,0,0:0:0:0:
126,240,227648,1,0,0:0:0:0:
126,217,227716,1,0,0:0:0:0:
131,195,227784,1,0,0:0:0:0:
141,175,227852,1,0,0:0:0:0:
150,154,227921,1,0,0:0:0:0:
155,132,227989,5,0,0:0:0:0:
140,89,228057,1,0,0:0:0:0:
99,68,228125,1,0,0:0:0:0:
54,73,228193,1,0,0:0:0:0:
24,107,228262,6,0,P|19:147|25:193,1,75.0000028610231
166,356,228398,2,0,P|171:316|165:270,1,75.0000028610231
54,73,228534,5,0,0:0:0:0:
106,70,228602,1,0,0:0:0:0:
152,95,228671,1,0,0:0:0:0:
203,106,228739,1,0,0:0:0:0:
255,104,228807,1,0,0:0:0:0:
306,92,228875,1,0,0:0:0:0:
353,69,228943,1,0,0:0:0:0:
405,61,229012,1,0,0:0:0:0:
455,74,229080,1,0,0:0:0:0:
492,110,229148,1,0,0:0:0:0:
505,160,229216,1,0,0:0:0:0:
507,212,229284,1,0,0:0:0:0:
484,259,229352,6,0,P|409:285|322:261,1,150.000005722046
197,84,229625,1,0,0:0:0:0:
197,84,229693,1,0,0:0:0:0:
197,84,229762,1,0,0:0:0:0:
135,321,229898,1,0,0:0:0:0:
242,172,230034,1,0,0:0:0:0:
292,361,230171,1,0,0:0:0:0:
292,361,230239,1,0,0:0:0:0:
292,361,230307,1,0,0:0:0:0:
21,294,230443,6,0,L|186:282,1,150.000005722046
440,267,230716,1,0,0:0:0:0:
440,267,230784,1,0,0:0:0:0:
440,267,230852,1,0,0:0:0:0:
198,190,230989,1,0,0:0:0:0:
341,364,231125,1,0,0:0:0:0:
347,108,231262,1,0,0:0:0:0:
347,108,231330,1,0,0:0:0:0:
347,108,231398,1,0,0:0:0:0:
166,315,231534,5,0,0:0:0:0:
236,54,231671,1,0,0:0:0:0:
36,193,231807,1,0,0:0:0:0:
363,288,231943,1,0,0:0:0:0:
132,101,232080,1,0,0:0:0:0:
459,196,232216,1,0,0:0:0:0:
132,333,232352,1,0,0:0:0:0:
216,37,232489,1,0,0:0:0:0:
363,355,232625,6,0,P|386:272|367:202,1,150.000005722046
149,355,232898,2,0,P|126:272|145:202,1,150.000005722046
472,85,233171,2,0,B|421:60|421:60|298:77,1,150.000005722046
40,85,233443,2,0,B|91:60|91:60|214:77,1,150.000005722046
439,318,233716,5,0,0:0:0:0:
180,152,233852,1,0,0:0:0:0:
249,343,233989,1,0,0:0:0:0:
371,96,234125,1,0,0:0:0:0:
58,204,234262,1,0,0:0:0:0:
411,255,234398,1,0,0:0:0:0:
53,93,234534,1,0,0:0:0:0:
418,37,234671,1,0,0:0:0:0:
156,304,234807,1,0,0:0:0:0:
222,38,234943,1,0,0:0:0:0:
172,378,235080,5,0,0:0:0:0:
160,342,235148,1,0,0:0:0:0:
156,304,235216,1,0,0:0:0:0:
163,267,235284,1,0,0:0:0:0:
182,234,235352,1,0,0:0:0:0:
201,201,235421,1,0,0:0:0:0:
213,165,235489,1,0,0:0:0:0:
218,127,235557,1,0,0:0:0:0:
214,89,235625,1,0,0:0:0:0:
196,55,235693,1,0,0:0:0:0:
165,32,235762,1,0,0:0:0:0:
128,22,235830,1,0,0:0:0:0:
92,35,235898,6,0,P|74:69|71:116,7,75.0000028610231
162,118,236443,2,0,P|152:155|119:190,7,75.0000028610231
254,32,236989,5,0,0:0:0:0:
298,30,237057,1,0,0:0:0:0:
341,39,237125,1,0,0:0:0:0:
378,63,237193,1,0,0:0:0:0:
398,103,237262,2,0,P|405:143|393:201,1,75.0000028610231
294,342,237398,5,0,0:0:0:0:
249,333,237466,1,0,0:0:0:0:
218,300,237534,1,0,0:0:0:0:
205,256,237602,1,0,0:0:0:0:
213,211,237671,1,0,0:0:0:0:
211,166,237739,1,0,0:0:0:0:
189,126,237807,2,0,P|161:98|46:95,1,150.000005722046
256,192,238080,12,0,239443,0:0:0:0:
477,348,239716,6,0,B|355:293|279:390|183:309,1,300.000011444092
150,198,240398,1,0,0:0:0:0:
150,198,240466,1,0,0:0:0:0:
150,198,240534,1,0,0:0:0:0:
25,200,240670,2,0,P|18:153|35:99,1,75.0000028610231
154,24,240943,2,0,P|160:71|150:127,2,75.0000028610231
256,192,241352,12,0,242716,0:0:0:0:
155,31,242988,6,0,L|131:128,1,75.0000028610231
317,94,243262,2,0,L|341:191,1,75.0000028610231
167,172,243534,2,0,L|143:269,1,75.0000028610231
304,282,243806,5,0,0:0:0:0:
337,287,243874,1,0,0:0:0:0:
368,301,243943,1,0,0:0:0:0:
394,322,244011,5,0,0:0:0:0:
425,334,244079,1,0,0:0:0:0:
458,331,244147,2,0,L|491:279,2,37.5000014305115
433,203,244352,2,0,L|403:262,3,37.5000014305115
490,127,244625,5,0,0:0:0:0:
333,132,244762,1,0,0:0:0:0:
182,51,245034,1,0,0:0:0:0:
120,308,245307,1,0,0:0:0:0:
120,308,245443,2,8,B|209:335|209:335|248:299|248:299|319:294|319:294|343:241|343:241|404:247|404:247|449:227,1,375.000014305115
449,49,246262,5,0,0:0:0:0:
361,149,246397,1,0,0:0:0:0:
178,38,246670,1,0,0:0:0:0:
185,311,246943,1,0,0:0:0:0:
185,311,247080,2,8,B|115:284|115:284|134:239|134:239|121:199|121:199|144:160|144:160|116:132|116:132|84:122|84:122|48:152|48:152|36:186|36:186|42:225|42:225,1,375.000014305115
98,352,247898,5,0,0:0:0:0:
153,210,248034,1,0,0:0:0:0:
333,351,248306,1,0,0:0:0:0:
467,170,248579,1,0,0:0:0:0:
467,170,248716,2,8,B|389:197|389:197|375:148|375:148|310:143|310:143|305:90|305:90|266:52|266:52|232:78|232:78|198:79|198:79,1,375.000014305115
129,199,249534,5,0,0:0:0:0:
306,94,249671,1,0,0:0:0:0:
372,350,249943,1,0,0:0:0:0:
165,302,250216,1,0,0:0:0:0:
165,302,250352,2,0,P|140:258|136:210,1,75.0000028610231
77,121,250556,1,0,0:0:0:0:
77,121,250625,2,0,P|121:96|166:91,1,75.0000028610231
238,44,250829,1,0,0:0:0:0:
238,44,250897,2,0,P|263:88|264:137,1,75.0000028610231
278,222,251171,5,0,0:0:0:0:
76,232,251306,1,0,0:0:0:0:
189,142,251579,1,0,0:0:0:0:
141,330,251852,1,0,0:0:0:0:
141,330,251989,2,8,B|165:268|165:268|140:219|140:219|192:163|192:163|242:217|242:217|308:221|308:221|360:194|360:194,1,375.000014305115
420,77,252807,5,0,0:0:0:0:
460,251,252944,1,0,0:0:0:0:
294,159,253216,1,0,0:0:0:0:
190,345,253489,1,0,0:0:0:0:
190,345,253625,2,8,B|231:338|231:338|264:291|264:291|210:232|210:232|154:258|154:258|110:218|110:218|72:227|72:227|40:190|40:190,1,375.000014305115
133,36,254443,5,0,0:0:0:0:
48,199,254580,1,0,0:0:0:0:
271,144,254852,1,0,0:0:0:0:
278,346,255125,1,0,0:0:0:0:
278,346,255262,2,8,B|351:330|351:330|372:277|372:277|331:221|331:221|397:176|397:176|391:113|391:113|357:79|357:79,1,375.000014305115
243,52,256080,5,0,0:0:0:0:
243,52,256216,2,0,P|201:92|188:158,1,100
297,187,256489,1,0,0:0:0:0:
247,312,256625,1,0,0:0:0:0:
187,130,256762,1,0,0:0:0:0:
94,218,256898,5,0,0:0:0:0:
59,209,256966,1,0,0:0:0:0:
44,176,257034,1,0,0:0:0:0:
46,140,257102,1,0,0:0:0:0:
62,107,257171,2,0,L|85:37,3,50
187,130,257443,2,0,L|171:177,3,50
337,36,257716,6,0,B|436:41|464:114|408:153|444:214|494:244|494:244|443:242|351:234|366:343|279:380|204:370|204:370|154:351|141:303,1,700
228,227,258807,1,8,0:0:0:0:
29,166,258943,1,8,0:0:0:0:
358,83,259898,6,0,B|314:36|254:43|254:43|218:57|197:85|197:85|169:74|146:47|146:47|97:86|48:41,1,350
72,183,260989,2,0,B|71:224|88:262|88:262|89:331|42:366,1,200
440,183,261398,2,0,B|441:224|424:262|424:262|423:331|470:366,1,200
450,37,261807,2,0,L|324:51,1,100
103,85,262079,5,8,0:0:0:0:
186,295,262216,1,8,0:0:0:0:
437,198,262489,5,8,0:0:0:0:
437,198,262625,2,0,B|411:134|411:134|336:98,1,150.000005722046
103,299,263171,5,8,0:0:0:0:
186,89,263308,1,8,0:0:0:0:
437,186,263581,5,8,0:0:0:0:
437,186,263717,2,0,B|411:250|411:250|336:286,1,150.000005722046
66,313,264262,6,0,P|49:255|65:202,1,100
247,64,264534,1,0,0:0:0:0:
70,105,264671,1,0,0:0:0:0:
328,199,264807,1,0,0:0:0:0:
274,21,264943,1,0,0:0:0:0:
221,311,265080,1,0,0:0:0:0:
167,123,265216,1,0,0:0:0:0:
361,358,265352,5,0,0:0:0:0:
394,335,265421,1,0,0:0:0:0:
416,302,265489,1,0,0:0:0:0:
426,263,265557,1,0,0:0:0:0:
425,223,265625,1,0,0:0:0:0:
411,185,265693,1,0,0:0:0:0:
395,147,265762,1,0,0:0:0:0:
389,107,265830,1,0,0:0:0:0:
404,70,265898,5,0,0:0:0:0:
429,100,265966,1,0,0:0:0:0:
428,139,266034,1,0,0:0:0:0:
412,175,266102,1,0,0:0:0:0:
382,202,266171,1,0,0:0:0:0:
343,211,266239,1,0,0:0:0:0:
303,206,266307,1,0,0:0:0:0:
266,190,266375,1,0,0:0:0:0:
241,158,266443,6,0,B|205:132|205:132|167:57|16:67|20:211|20:211|59:244|74:306|74:306|154:269|236:310,1,600
455,47,267398,2,0,B|431:53|409:63|399:89|406:127|393:154|349:162|349:162|364:198|357:225|379:252|415:260|415:260|448:305|425:332|399:358|353:381|302:375|287:339|196:375|158:220|321:163|209:77,1,800
56,52,268625,5,0,0:0:0:0:
49,260,268762,1,0,0:0:0:0:
100,119,268898,1,0,0:0:0:0:
168,317,269034,1,0,0:0:0:0:
137,180,269171,1,0,0:0:0:0:
49,330,269307,1,0,0:0:0:0:
53,162,269443,1,0,0:0:0:0:
126,369,269579,2,0,B|172:391|196:387|247:352|280:346|308:356|347:376|360:398|360:398|385:408|416:397|416:397|440:384|458:356|458:356|439:336|423:254|494:257|489:186|433:120,1,600
164,43,270534,6,0,L|93:25,3,50
263,56,270806,5,0,0:0:0:0:
271,101,270874,1,0,0:0:0:0:
253,143,270943,1,0,0:0:0:0:
220,174,271011,1,0,0:0:0:0:
177,189,271079,1,0,0:0:0:0:
132,183,271147,1,0,0:0:0:0:
87,186,271215,1,0,0:0:0:0:
47,208,271283,1,0,0:0:0:0:
27,250,271352,5,0,0:0:0:0:
31,295,271420,1,0,0:0:0:0:
54,333,271488,1,0,0:0:0:0:
93,355,271556,1,0,0:0:0:0:
136,364,271624,1,0,0:0:0:0:
180,355,271693,1,0,0:0:0:0:
215,328,271761,1,0,0:0:0:0:
221,284,271829,1,0,0:0:0:0:
206,242,271897,5,0,0:0:0:0:
207,207,271965,1,0,0:0:0:0:
226,177,272033,1,0,0:0:0:0:
256,157,272102,1,0,0:0:0:0:
291,151,272170,1,0,0:0:0:0:
326,157,272238,1,0,0:0:0:0:
356,177,272306,1,0,0:0:0:0:
369,211,272374,1,0,0:0:0:0:
360,247,272443,5,0,0:0:0:0:
355,283,272511,1,0,0:0:0:0:
367,317,272579,1,0,0:0:0:0:
394,341,272647,1,0,0:0:0:0:
428,351,272715,1,0,0:0:0:0:
463,351,272783,1,0,0:0:0:0:
491,329,272852,1,0,0:0:0:0:
502,296,272920,1,0,0:0:0:0:
509,261,272988,6,0,L|515:177,3,50
406,219,273262,2,0,L|400:135,3,50
327,280,273534,2,0,L|323:329,3,50
265,194,273807,2,0,L|259:110,3,50
324,330,274079,5,0,0:0:0:0:
289,310,274147,1,0,0:0:0:0:
249,301,274215,1,0,0:0:0:0:
208,304,274283,1,0,0:0:0:0:
167,306,274352,1,0,0:0:0:0:
127,296,274420,1,0,0:0:0:0:
93,274,274488,1,0,0:0:0:0:
74,239,274556,1,0,0:0:0:0:
70,199,274624,5,0,0:0:0:0:
110,164,274715,5,0,0:0:0:0:
164,162,274806,5,0,0:0:0:0:
213,184,274897,5,0,0:0:0:0:
265,195,274988,5,0,0:0:0:0:
315,176,275079,5,0,0:0:0:0:
334,126,275170,6,0,P|403:87|398:323,1,500
157,213,275988,2,0,P|140:260|164:326,1,100
341,94,276261,2,0,P|206:26|70:110,1,300
70,307,276806,5,0,0:0:0:0:
215,181,276943,1,0,0:0:0:0:
115,235,277079,1,0,0:0:0:0:
298,270,277215,1,0,0:0:0:0:
178,307,277352,1,0,0:0:0:0:
311,179,277488,1,0,0:0:0:0:
283,354,277624,1,0,0:0:0:0:
244,217,277761,1,0,0:0:0:0:
338,291,277897,5,0,0:0:0:0:
260,122,278033,1,0,0:0:0:0:
248,262,278170,1,0,0:0:0:0:
350,95,278306,1,0,0:0:0:0:
322,210,278443,1,0,0:0:0:0:
226,53,278579,1,0,0:0:0:0:
216,202,278715,1,0,0:0:0:0:
300,64,278852,2,0,P|313:34|318:-9,5,50
382,105,279262,6,0,L|371:145,6,25
451,30,279533,5,0,0:0:0:0:
481,69,279602,1,0,0:0:0:0:
495,116,279670,1,0,0:0:0:0:
491,165,279738,1,0,0:0:0:0:
468,209,279806,1,0,0:0:0:0:
425,233,279874,1,0,0:0:0:0:
386,265,279943,1,0,0:0:0:0:
377,313,280011,1,0,0:0:0:0:
396,358,280079,5,0,0:0:0:0:
414,312,280147,1,0,0:0:0:0:
403,263,280215,1,0,0:0:0:0:
374,222,280283,1,0,0:0:0:0:
331,194,280352,1,0,0:0:0:0:
281,191,280420,1,0,0:0:0:0:
234,208,280488,1,0,0:0:0:0:
195,238,280556,1,0,0:0:0:0:
165,277,280624,5,0,0:0:0:0:
213,266,280693,1,0,0:0:0:0:
253,236,280762,1,0,0:0:0:0:
277,193,280830,1,0,0:0:0:0:
284,144,280898,1,0,0:0:0:0:
273,95,280966,1,0,0:0:0:0:
248,52,281034,1,0,0:0:0:0:
208,22,281102,1,0,0:0:0:0:
157,20,281171,5,0,0:0:0:0:
114,44,281239,1,0,0:0:0:0:
93,88,281307,1,0,0:0:0:0:
104,136,281375,1,0,0:0:0:0:
137,171,281443,1,0,0:0:0:0:
159,215,281512,1,0,0:0:0:0:
167,263,281580,1,0,0:0:0:0:
143,306,281648,1,0,0:0:0:0:
98,327,281716,6,0,P|74:296|68:218,1,100
105,31,281989,1,0,0:0:0:0:
187,364,282125,2,0,P|207:301|192:233,1,100
143,61,282397,1,0,0:0:0:0:
90,241,282534,1,0,0:0:0:0:
99,56,282671,1,0,0:0:0:0:
356,265,282807,6,0,P|324:197|289:162,1,100
149,91,283080,1,0,0:0:0:0:
465,94,283216,2,0,P|367:69|331:74,1,100
84,279,283489,1,0,0:0:0:0:
42,28,283625,2,0,P|38:78|49:137,1,100
253,135,283898,5,0,0:0:0:0:
216,288,284034,1,0,0:0:0:0:
328,161,284171,1,0,0:0:0:0:
142,206,284307,1,0,0:0:0:0:
308,331,284443,1,0,0:0:0:0:
281,101,284580,1,0,0:0:0:0:
147,289,284716,1,0,0:0:0:0:
405,219,284852,1,0,0:0:0:0:
205,41,284989,5,0,0:0:0:0:
99,333,285125,1,0,0:0:0:0:
424,284,285262,1,0,0:0:0:0:
278,25,285398,1,0,0:0:0:0:
68,273,285534,1,0,0:0:0:0:
354,333,285671,1,0,0:0:0:0:
329,52,285807,1,0,0:0:0:0:
47,217,285943,1,0,0:0:0:0:
365,258,286080,5,0,0:0:0:0:
31,105,286216,1,0,0:0:0:0:
422,73,286352,1,0,0:0:0:0:
84,345,286489,1,0,0:0:0:0:
309,3,286625,1,0,0:0:0:0:
2,255,286762,1,0,0:0:0:0:
419,253,286898,1,0,0:0:0:0:
47,21,287034,1,0,0:0:0:0:
333,289,287170,5,0,0:0:0:0:
373,312,287238,1,0,0:0:0:0:
419,315,287306,1,0,0:0:0:0:
459,290,287374,1,0,0:0:0:0:
479,246,287443,1,0,0:0:0:0:
470,199,287511,1,0,0:0:0:0:
435,167,287579,5,0,0:0:0:0:
392,186,287647,1,0,0:0:0:0:
344,187,287715,1,0,0:0:0:0:
299,171,287783,1,0,0:0:0:0:
271,131,287852,1,0,0:0:0:0:
265,84,287920,1,0,0:0:0:0:
277,38,287988,5,0,0:0:0:0:
300,78,288056,1,0,0:0:0:0:
286,123,288124,1,0,0:0:0:0:
244,147,288193,1,0,0:0:0:0:
201,140,288262,6,0,P|133:138|66:178,1,119.999996337891
435,328,288534,2,0,P|447:261|436:203,1,119.999996337891
77,328,288807,2,0,P|65:261|76:203,1,119.999996337891
479,54,289080,2,0,L|338:50,1,119.999996337891
56,47,289352,5,0,0:0:0:0:
336,146,289489,1,0,0:0:0:0:
106,140,289625,1,0,0:0:0:0:
396,73,289762,1,0,0:0:0:0:
216,283,289898,1,0,0:0:0:0:
310,32,290034,1,0,0:0:0:0:
348,237,290171,1,0,0:0:0:0:
164,10,290307,1,0,0:0:0:0:
108,346,290443,6,0,P|96:266|107:207,1,119.999996337891
410,227,290716,2,0,P|415:287|404:346,1,119.999996337891
312,46,290989,2,0,P|381:37|437:53,1,119.999996337891
200,46,291262,2,0,P|131:37|75:53,1,119.999996337891
313,312,291534,5,0,0:0:0:0:
142,120,291671,1,0,0:0:0:0:
129,307,291807,1,0,0:0:0:0:
278,71,291943,1,0,0:0:0:0:
40,172,292080,1,0,0:0:0:0:
393,122,292216,1,0,0:0:0:0:
195,254,292352,1,0,0:0:0:0:
231,12,292489,1,0,0:0:0:0:
435,328,292625,6,0,B|390:346|390:346|299:349,1,119.999996337891
109,79,292898,2,0,P|91:150|97:200,1,119.999996337891
358,0,293171,2,0,P|376:71|370:121,1,119.999996337891
37,343,293443,2,0,L|169:316,1,119.999996337891
454,222,293716,5,0,0:0:0:0:
198,164,293852,1,0,0:0:0:0:
326,263,293989,1,0,0:0:0:0:
315,49,294125,1,0,0:0:0:0:
195,331,294262,1,0,0:0:0:0:
112,102,294398,1,0,0:0:0:0:
421,204,294534,1,0,0:0:0:0:
200,24,294671,1,0,0:0:0:0:
429,339,294806,5,0,0:0:0:0:
469,134,294943,1,0,0:0:0:0:
352,243,295079,1,0,0:0:0:0:
341,32,295215,1,0,0:0:0:0:
274,323,295352,1,0,0:0:0:0:
226,127,295488,1,0,0:0:0:0:
146,235,295624,1,0,0:0:0:0:
88,60,295761,1,0,0:0:0:0:
85,353,295898,6,0,L|94:287,1,59.9999981689454
280,38,296034,2,0,L|271:104,1,59.9999981689454
247,376,296171,2,0,L|238:316,1,59.9999981689454
120,11,296307,2,0,L|128:70,1,59.9999981689454
373,236,296443,5,0,0:0:0:0:
325,256,296511,1,0,0:0:0:0:
275,236,296579,1,0,0:0:0:0:
240,195,296647,1,0,0:0:0:0:
203,156,296715,1,0,0:0:0:0:
151,144,296783,1,0,0:0:0:0:
98,149,296852,1,0,0:0:0:0:
53,176,296921,1,0,0:0:0:0:
21,220,296989,6,8,P|13:293|65:342,1,150.000005722046
272,168,297261,1,0,0:0:0:0:
184,344,297397,1,0,0:0:0:0:
174,79,297533,1,0,0:0:0:0:
327,302,297671,1,0,0:0:0:0:
93,138,297806,1,0,0:0:0:0:
366,189,297942,1,0,0:0:0:0:
43,349,298080,6,8,P|12:276|37:192,1,150.000005722046
296,95,298352,1,0,0:0:0:0:
210,327,298488,1,0,0:0:0:0:
181,41,298624,1,0,0:0:0:0:
306,338,298762,1,0,0:0:0:0:
101,83,298897,1,0,0:0:0:0:
84,353,299033,1,0,0:0:0:0:
25,148,299171,6,8,B|6:75|6:75|22:-10,1,150.000005722046
190,330,299443,1,0,0:0:0:0:
279,61,299579,1,0,0:0:0:0:
325,292,299715,1,0,0:0:0:0:
179,60,299851,1,0,0:0:0:0:
248,341,299988,1,0,0:0:0:0:
355,112,300124,1,0,0:0:0:0:
125,263,300261,6,0,P|37:243|9:160,1,150.000005722046,8|0,0:0|0:0,0:0:0:0:
387,263,300534,2,8,P|475:243|503:160,1,150.000005722046
131,12,300807,2,8,B|117:52|117:52|112:183,1,150.000005722046
381,12,301080,2,8,B|395:52|395:52|400:183,1,150.000005722046
228,313,301352,5,0,0:0:0:0:
102,80,301488,1,0,0:0:0:0:
107,293,301624,1,0,0:0:0:0:
249,11,301761,1,0,0:0:0:0:
290,241,301897,1,0,0:0:0:0:
61,23,302033,1,0,0:0:0:0:
349,96,302170,1,0,0:0:0:0:
42,211,302306,1,0,0:0:0:0:
375,353,302443,5,0,0:0:0:0:
394,311,302512,1,0,0:0:0:0:
396,266,302580,1,0,0:0:0:0:
388,221,302648,1,0,0:0:0:0:
360,185,302716,2,0,P|312:168|271:167,1,75.0000028610231
160,260,302852,2,0,P|208:277|249:278,1,75.0000028610231
101,143,302989,5,0,0:0:0:0:
57,155,303057,1,0,0:0:0:0:
24,186,303125,1,0,0:0:0:0:
12,229,303193,1,0,0:0:0:0:
13,274,303262,1,0,0:0:0:0:
35,312,303330,1,0,0:0:0:0:
74,333,303398,1,0,0:0:0:0:
118,332,303466,1,0,0:0:0:0:
158,311,303534,5,0,0:0:0:0:
198,112,303671,1,0,0:0:0:0:
295,351,303807,1,0,0:0:0:0:
401,50,303943,1,0,0:0:0:0:
468,367,304080,2,8,P|482:289|464:212,1,150.000005722046
251,64,304352,2,8,L|410:49,1,150.000005722046
297,377,304625,5,0,0:0:0:0:
227,384,304693,1,0,0:0:0:0:
156,375,304762,1,0,0:0:0:0:
99,333,304830,1,0,0:0:0:0:
59,275,304898,1,0,0:0:0:0:
45,206,304966,1,0,0:0:0:0:
57,137,305034,1,0,0:0:0:0:
88,74,305102,1,0,0:0:0:0:
98,3,305171,5,0,0:0:0:0:
53,57,305239,1,0,0:0:0:0:
38,125,305307,1,0,0:0:0:0:
62,190,305375,1,0,0:0:0:0:
112,238,305443,1,0,0:0:0:0:
176,266,305512,1,0,0:0:0:0:
245,270,305580,1,0,0:0:0:0:
311,249,305648,1,0,0:0:0:0:
369,207,305716,6,0,B|342:132|342:132|446:105|401:5,1,225.000008583069
333,23,305989,2,0,B|186:88|319:279|149:326,1,375.000014305115
70,356,306398,2,0,P|53:170|209:148,1,375.000014305115
210,244,306807,2,0,B|267:350|433:254|258:49|410:26,1,375.000014305115
466,50,307216,2,0,B|452:324|452:324|378:293|323:341,1,375.000014305115
249,359,307625,2,0,B|216:303|311:216|248:121,1,225.000008583069
149,114,307898,2,0,P|242:45|354:98,1,225.000008583069
417,325,308171,5,0,0:0:0:0:
360,343,308239,1,0,0:0:0:0:
300,343,308307,1,0,0:0:0:0:
242,328,308375,1,0,0:0:0:0:
193,292,308443,1,0,0:0:0:0:
165,237,308512,1,0,0:0:0:0:
160,177,308580,2,0,P|161:143|149:91,1,75.0000028610231
38,9,308716,5,0,0:0:0:0:
12,63,308784,1,0,0:0:0:0:
12,122,308852,1,0,0:0:0:0:
35,178,308921,1,0,0:0:0:0:
81,215,308989,2,0,P|125:225|171:220,1,75.0000028610231
420,135,309125,5,0,0:0:0:0:
463,176,309193,1,0,0:0:0:0:
481,233,309262,1,0,0:0:0:0:
471,292,309330,1,0,0:0:0:0:
435,339,309398,2,0,P|389:354|329:352,1,75.0000028610231
110,320,309534,5,0,0:0:0:0:
96,261,309602,1,0,0:0:0:0:
101,200,309671,1,0,0:0:0:0:
125,145,309739,1,0,0:0:0:0:
164,100,309807,2,0,P|194:87|251:83,1,75.0000028610231
489,166,309943,5,0,0:0:0:0:
437,197,310012,1,0,0:0:0:0:
377,201,310080,2,0,P|337:199|291:185,1,75.0000028610231
309,70,310216,2,0,P|269:72|223:86,1,75.0000028610231
114,279,310352,5,0,0:0:0:0:
170,321,310421,1,0,0:0:0:0:
239,329,310489,1,0,0:0:0:0:
307,315,310557,1,0,0:0:0:0:
363,274,310625,1,0,0:0:0:0:
384,207,310693,1,0,0:0:0:0:
363,139,310762,5,0,0:0:0:0:
308,182,310830,1,0,0:0:0:0:
293,250,310898,1,0,0:0:0:0:
322,313,310966,1,0,0:0:0:0:
379,352,311034,1,0,0:0:0:0:
448,359,311102,1,0,0:0:0:0:
505,317,311171,5,0,0:0:0:0:
435,306,311239,1,0,0:0:0:0:
365,313,311307,1,0,0:0:0:0:
297,330,311375,1,0,0:0:0:0:
228,341,311443,1,0,0:0:0:0:
157,341,311512,1,0,0:0:0:0:
91,318,311580,5,0,0:0:0:0:
66,252,311648,1,0,0:0:0:0:
74,182,311716,1,0,0:0:0:0:
111,123,311784,1,0,0:0:0:0:
174,93,311852,1,0,0:0:0:0:
244,86,311921,1,0,0:0:0:0:
303,123,311989,5,0,0:0:0:0:
250,169,312057,1,0,0:0:0:0:
180,177,312125,1,0,0:0:0:0:
111,165,312193,1,0,0:0:0:0:
57,118,312262,6,0,P|20:237|36:315,1,200
303,123,312534,6,0,P|370:138|437:119,1,129.999994049073
180,177,312943,6,0,B|161:256|161:256|174:340,1,129.999994049073
477,334,313352,6,0,P|408:349|334:323,1,129.999994049073
74,50,313762,6,0,L|82:192,1,129.999994049073
441,146,314171,5,0,0:0:0:0:
441,146,314239,1,0,0:0:0:0:
441,146,314307,1,0,0:0:0:0:
358,69,314443,5,0,0:0:0:0:
358,69,314511,1,0,0:0:0:0:
358,69,314579,1,0,0:0:0:0:
208,349,314716,5,0,0:0:0:0:
126,265,314852,1,0,0:0:0:0:
11,290,314989,1,0,0:0:0:0:
304,349,315262,5,0,0:0:0:0:
386,265,315398,1,0,0:0:0:0:
501,290,315535,1,0,0:0:0:0:
97,98,315807,5,0,0:0:0:0:
206,56,315943,1,0,0:0:0:0:
300,127,316080,1,0,0:0:0:0:
72,343,316352,6,0,P|63:287|74:230,1,100
345,294,316625,2,0,P|255:325|145:292,1,200
429,74,317034,2,0,L|444:297,1,200
338,352,317443,2,0,B|242:324|208:206|357:181|351:98|325:18|325:18|281:155|129:28|11:216|228:239|169:348|169:348|110:377|30:357|38:277|38:277,1,1000
66,68,319080,5,0,0:0:0:0:
206,80,319216,1,0,0:0:0:0:
310,161,319352,1,0,0:0:0:0:
446,68,319624,5,0,0:0:0:0:
306,80,319762,1,0,0:0:0:0:
202,161,319898,1,0,0:0:0:0:
124,289,320171,5,0,0:0:0:0:
258,329,320307,1,0,0:0:0:0:
385,293,320443,1,0,0:0:0:0:
256,192,320716,6,0,L|256:62,1,100
157,113,320989,2,0,P|141:178|40:132,1,200
355,113,321398,2,0,P|371:178|472:132,1,200
255,58,321807,2,0,L|255:285,1,200
73,312,322625,5,0,0:0:0:0:
121,334,322716,1,0,0:0:0:0:
172,323,322807,1,0,0:0:0:0:
218,295,322898,1,0,0:0:0:0:
270,284,322989,1,0,0:0:0:0:
318,306,323080,1,0,0:0:0:0:
321,358,323170,1,0,0:0:0:0:
261,79,323443,5,0,0:0:0:0:
230,203,323580,1,0,0:0:0:0:
83,167,323716,1,0,0:0:0:0:
251,79,323989,5,0,0:0:0:0:
282,203,324124,1,0,0:0:0:0:
429,167,324262,1,0,0:0:0:0:
360,256,324534,5,0,0:0:0:0:
329,132,324671,1,0,0:0:0:0:
182,168,324807,1,0,0:0:0:0:
228,356,325080,6,0,P|161:362|116:348,1,100
337,164,325352,2,0,L|352:371,1,200
213,40,325762,2,0,L|198:247,1,200
323,67,326171,2,0,B|369:52|395:90|412:130|491:98|491:98|437:160|431:219|482:242|503:312|466:384|366:388|296:372|292:286|295:243|295:243|263:277|217:331|133:324|59:275|48:209|76:148,1,1000
298,104,327807,5,0,0:0:0:0:
171,43,327943,1,0,0:0:0:0:
119,225,328080,1,0,0:0:0:0:
214,104,328353,5,0,0:0:0:0:
341,43,328489,1,0,0:0:0:0:
393,225,328626,1,0,0:0:0:0:
122,279,328898,5,0,0:0:0:0:
249,340,329034,1,0,0:0:0:0:
301,158,329171,1,0,0:0:0:0:
51,46,329443,6,0,P|101:37|141:44,1,75.0000028610231
413,190,329716,2,0,P|424:136|412:85,1,100
335,324,329988,1,0,0:0:0:0:
146,175,330125,2,0,B|123:217|123:217|152:311|125:377,1,200
461,144,330534,2,0,L|351:153,1,100
52,304,330807,6,0,P|40:204|58:146,1,129.999994049073
243,35,331080,1,0,0:0:0:0:
261,366,331216,2,0,L|253:206,1,129.999994049073
226,15,331489,1,0,0:0:0:0:
455,343,331625,2,0,P|374:307|335:245,1,129.999994049073
81,31,331898,6,0,L|65:228,1,170.000003242493
57,353,332171,1,0,0:0:0:0:
165,117,332307,1,0,0:0:0:0:
183,277,332443,1,0,0:0:0:0:
283,57,332580,1,0,0:0:0:0:
86,205,332716,1,0,0:0:0:0:
379,164,332852,1,0,0:0:0:0:
36,56,332989,6,0,P|126:34|214:57,1,170.000003242493
329,255,333261,1,0,0:0:0:0:
331,86,333397,1,0,0:0:0:0:
253,313,333533,1,0,0:0:0:0:
379,164,333670,1,0,0:0:0:0:
33,256,333807,6,0,L|224:237,1,170.000003242493
440,219,334080,1,0,0:0:0:0:
197,165,334216,1,0,0:0:0:0:
322,348,334352,1,0,0:0:0:0:
385,102,334489,1,0,0:0:0:0:
149,243,334625,1,0,0:0:0:0:
359,185,334762,1,0,0:0:0:0:
98,170,334898,1,0,0:0:0:0:
258,361,335034,1,0,0:0:0:0:
253,66,335171,5,0,0:0:0:0:
53,318,335307,1,0,0:0:0:0:
361,259,335443,1,0,0:0:0:0:
119,72,335580,1,0,0:0:0:0:
168,370,335716,1,0,0:0:0:0:
381,57,335852,1,0,0:0:0:0:
0,203,335989,1,0,0:0:0:0:
312,381,336125,1,0,0:0:0:0:
99,127,336261,5,0,0:0:0:0:
92,91,336329,1,0,0:0:0:0:
97,55,336397,1,0,0:0:0:0:
115,24,336465,1,0,0:0:0:0:
147,9,336533,1,0,0:0:0:0:
183,10,336602,1,0,0:0:0:0:
215,25,336670,1,0,0:0:0:0:
237,52,336738,1,0,0:0:0:0:
251,84,336806,5,0,0:0:0:0:
278,106,336874,1,0,0:0:0:0:
311,120,336943,1,0,0:0:0:0:
346,122,337011,1,0,0:0:0:0:
381,118,337079,1,0,0:0:0:0:
414,104,337147,1,0,0:0:0:0:
440,80,337215,1,0,0:0:0:0:
460,50,337283,1,0,0:0:0:0:
477,17,337352,5,0,0:0:0:0:
445,33,337420,1,0,0:0:0:0:
428,64,337488,1,0,0:0:0:0:
428,99,337556,1,0,0:0:0:0:
436,133,337624,1,0,0:0:0:0:
446,167,337693,1,0,0:0:0:0:
451,202,337761,1,0,0:0:0:0:
448,237,337829,1,0,0:0:0:0:
434,270,337897,5,0,0:0:0:0:
409,296,337965,1,0,0:0:0:0:
378,315,338033,1,0,0:0:0:0:
342,322,338102,1,0,0:0:0:0:
306,321,338170,1,0,0:0:0:0:
272,307,338238,1,0,0:0:0:0:
246,288,338306,2,0,P|220:265|185:251,1,50
29,153,338443,5,0,0:0:0:0:
65,107,338511,1,0,0:0:0:0:
118,83,338579,1,0,0:0:0:0:
176,80,338647,1,0,0:0:0:0:
231,97,338715,1,0,0:0:0:0:
277,131,338783,1,0,0:0:0:0:
316,174,338852,1,0,0:0:0:0:
369,198,338920,1,0,0:0:0:0:
424,180,338988,5,0,0:0:0:0:
454,130,339056,1,0,0:0:0:0:
451,71,339124,1,0,0:0:0:0:
410,27,339193,1,0,0:0:0:0:
353,12,339261,1,0,0:0:0:0:
294,18,339329,1,0,0:0:0:0:
245,50,339397,1,0,0:0:0:0:
221,103,339465,1,0,0:0:0:0:
250,153,339533,5,0,0:0:0:0:
249,164,339602,1,0,0:0:0:0:
247,175,339670,1,0,0:0:0:0:
242,185,339738,1,0,0:0:0:0:
235,194,339806,1,0,0:0:0:0:
226,202,339874,1,0,0:0:0:0:
216,208,339943,1,0,0:0:0:0:
205,212,340011,1,0,0:0:0:0:
193,214,340079,1,0,0:0:0:0:
181,214,340147,1,0,0:0:0:0:
169,210,340215,1,0,0:0:0:0:
158,205,340283,1,0,0:0:0:0:
148,198,340352,1,0,0:0:0:0:
140,188,340420,1,0,0:0:0:0:
135,177,340488,1,0,0:0:0:0:
132,165,340556,1,0,0:0:0:0:
132,153,340624,5,0,0:0:0:0:
406,110,341716,5,0,0:0:0:0:
221,345,342807,5,0,0:0:0:0:
105,50,343898,5,0,0:0:0:0:
391,316,344989,5,0,0:0:0:0:
70,225,346080,5,0,0:0:0:0:
342,70,347171,5,0,0:0:0:0:
321,309,348261,5,0,0:0:0:0:
341,252,348352,1,0,0:0:0:0:
337,192,348443,1,0,0:0:0:0:
310,138,348534,2,0,P|301:95|309:52,1,66.6666666666667
441,62,348717,5,0,0:0:0:0:
429,120,348807,1,0,0:0:0:0:
392,167,348898,1,0,0:0:0:0:
337,192,348989,1,0,0:0:0:0:
278,180,349080,6,0,P|226:172|196:175,2,66.6666666666667
398,315,349352,6,0,B|348:338|348:338|248:332,1,150.000005722046
18,188,349761,1,0,0:0:0:0:
18,188,349898,2,0,P|0:252|14:343,1,150.000005722046
323,190,350307,5,0,0:0:0:0:
149,34,350443,2,0,B|121:83|121:83|111:197,1,150.000005722046
363,34,350852,2,0,B|391:83|391:83|401:197,1,150.000005722046
145,322,351262,1,0,0:0:0:0:
145,322,351398,1,0,0:0:0:0:
145,322,351534,2,0,L|317:334,1,150.000005722046
439,342,352080,1,0,0:0:0:0:
119,308,352352,5,0,0:0:0:0:
237,112,352625,2,0,P|153:78|83:99,1,150.000005722046
363,269,353171,2,0,P|410:222|410:125,1,150.000005722046
195,23,353716,6,0,P|184:65|191:105,1,75.0000028610231
318,166,353988,1,0,0:0:0:0:
318,166,354125,2,0,P|329:208|322:248,1,75.0000028610231
81,112,354398,2,0,P|70:154|77:194,1,75.0000028610231
404,59,354671,1,0,0:0:0:0:
399,60,354807,2,0,P|410:102|403:142,1,75.0000028610231
176,330,355080,2,0,P|165:288|172:248,1,75.0000028610231
383,295,355352,2,0,P|394:253|387:213,1,75.0000028610231
58,243,355625,2,0,P|47:201|54:161,1,75.0000028610231
396,38,355898,6,8,L|417:167,1,100
116,38,356171,2,0,L|93:182,1,119.999996337891
396,38,356443,2,8,L|426:212,1,139.999995727539
116,38,356716,2,0,L|88:214,1,160
383,369,356989,5,0,0:0:0:0:
400,333,357057,1,0,0:0:0:0:
405,293,357125,1,0,0:0:0:0:
402,253,357193,1,0,0:0:0:0:
387,215,357262,1,0,0:0:0:0:
358,187,357330,1,0,0:0:0:0:
322,168,357398,1,0,0:0:0:0:
283,159,357466,1,0,0:0:0:0:
244,169,357534,5,0,0:0:0:0:
204,165,357602,1,0,0:0:0:0:
169,144,357671,1,0,0:0:0:0:
143,113,357739,1,0,0:0:0:0:
130,75,357807,1,0,0:0:0:0:
146,38,357875,1,0,0:0:0:0:
180,18,357943,1,0,0:0:0:0:
220,19,358012,1,0,0:0:0:0:
247,44,358080,6,0,P|253:138|236:202,1,150.000005722046
77,291,358352,1,0,0:0:0:0:
77,291,358421,1,0,0:0:0:0:
77,291,358489,1,0,0:0:0:0:
334,229,358625,1,0,0:0:0:0:
57,157,358762,1,0,0:0:0:0:
247,348,358898,1,0,0:0:0:0:
247,348,358966,1,0,0:0:0:0:
247,348,359034,1,0,0:0:0:0:
159,32,359171,6,0,P|145:113|158:189,1,150.000005722046
352,286,359443,1,0,0:0:0:0:
352,286,359512,1,0,0:0:0:0:
352,286,359580,1,0,0:0:0:0:
252,144,359716,1,0,0:0:0:0:
167,316,359852,1,0,0:0:0:0:
374,163,359989,1,0,0:0:0:0:
374,163,360057,1,0,0:0:0:0:
374,163,360125,1,0,0:0:0:0:
106,237,360262,5,0,0:0:0:0:
284,61,360398,1,0,0:0:0:0:
307,321,360534,1,0,0:0:0:0:
153,97,360671,1,0,0:0:0:0:
431,142,360807,1,0,0:0:0:0:
64,171,360943,1,0,0:0:0:0:
331,95,361080,1,0,0:0:0:0:
20,44,361216,1,0,0:0:0:0:
140,368,361352,6,0,P|152:288|136:197,1,150.000005722046
372,368,361625,2,0,P|360:288|376:197,1,150.000005722046
16,57,361898,2,0,P|98:36|173:55,1,150.000005722046
496,57,362171,2,0,P|414:36|339:55,1,150.000005722046
174,344,362443,5,0,0:0:0:0:
273,128,362580,1,0,0:0:0:0:
300,282,362716,1,0,0:0:0:0:
359,46,362852,1,0,0:0:0:0:
134,202,362989,1,0,0:0:0:0:
431,166,363125,1,0,0:0:0:0:
156,45,363262,1,0,0:0:0:0:
72,315,363398,1,0,0:0:0:0:
255,152,363534,1,0,0:0:0:0:
420,378,363671,1,0,0:0:0:0:
470,28,363807,5,0,0:0:0:0:
464,49,363875,1,0,0:0:0:0:
459,70,363943,1,0,0:0:0:0:
454,92,364012,1,0,0:0:0:0:
449,113,364080,1,0,0:0:0:0:
444,135,364148,1,0,0:0:0:0:
439,157,364216,1,0,0:0:0:0:
433,178,364284,1,0,0:0:0:0:
427,199,364352,1,0,0:0:0:0:
422,221,364421,1,0,0:0:0:0:
417,242,364489,1,0,0:0:0:0:
412,263,364557,1,0,0:0:0:0:
405,284,364625,5,0,0:0:0:0:
368,310,364693,1,0,0:0:0:0:
322,315,364762,1,0,0:0:0:0:
277,306,364830,1,0,0:0:0:0:
238,283,364898,1,0,0:0:0:0:
199,260,364966,1,0,0:0:0:0:
157,243,365034,1,0,0:0:0:0:
112,240,365102,1,0,0:0:0:0:
70,258,365171,5,0,0:0:0:0:
62,302,365239,1,0,0:0:0:0:
82,341,365307,1,0,0:0:0:0:
124,356,365375,1,0,0:0:0:0:
168,350,365443,5,0,0:0:0:0:
195,304,365512,1,0,0:0:0:0:
209,253,365580,1,0,0:0:0:0:
206,200,365648,1,0,0:0:0:0:
185,151,365716,2,0,P|178:109|187:63,1,75.0000028610231
353,25,365852,2,0,P|357:62|350:98,1,75.0000028610231
160,253,365989,5,0,0:0:0:0:
204,280,366057,1,0,0:0:0:0:
256,285,366125,2,0,P|303:286|337:277,1,75.0000028610231
454,134,366262,2,0,P|407:133|373:142,1,75.0000028610231
181,355,366398,5,0,0:0:0:0:
108,338,366466,1,0,0:0:0:0:
61,279,366534,1,0,0:0:0:0:
42,206,366602,1,0,0:0:0:0:
51,130,366671,1,0,0:0:0:0:
89,65,366739,1,0,0:0:0:0:
152,25,366807,6,0,B|211:15|211:15|306:48,1,150.000005722046
435,313,367080,1,0,0:0:0:0:
435,313,367148,1,0,0:0:0:0:
435,313,367216,1,0,0:0:0:0:
399,140,367352,1,0,0:0:0:0:
316,370,367489,1,0,0:0:0:0:
195,171,367625,1,0,0:0:0:0:
195,171,367693,1,0,0:0:0:0:
195,171,367762,1,0,0:0:0:0:
56,361,367898,6,0,P|41:303|51:199,1,150.000005722046
152,36,368171,1,0,0:0:0:0:
152,36,368239,1,0,0:0:0:0:
152,36,368307,1,0,0:0:0:0:
110,249,368443,1,0,0:0:0:0:
240,121,368580,1,0,0:0:0:0:
282,339,368716,1,0,0:0:0:0:
282,339,368784,1,0,0:0:0:0:
282,339,368852,1,0,0:0:0:0:
127,139,368989,5,0,0:0:0:0:
394,229,369125,1,0,0:0:0:0:
167,289,369262,1,0,0:0:0:0:
398,81,369398,1,0,0:0:0:0:
422,353,369534,1,0,0:0:0:0:
302,18,369671,1,0,0:0:0:0:
246,230,369807,1,0,0:0:0:0:
91,62,369943,1,0,0:0:0:0:
128,371,370080,5,0,0:0:0:0:
160,352,370148,1,0,0:0:0:0:
180,320,370216,1,0,0:0:0:0:
191,284,370284,1,0,0:0:0:0:
194,246,370352,1,0,0:0:0:0:
187,208,370421,1,0,0:0:0:0:
172,173,370489,1,0,0:0:0:0:
152,141,370557,1,0,0:0:0:0:
143,104,370625,5,0,0:0:0:0:
156,69,370693,1,0,0:0:0:0:
181,41,370762,1,0,0:0:0:0:
215,27,370830,1,0,0:0:0:0:
252,22,370898,1,0,0:0:0:0:
289,23,370966,1,0,0:0:0:0:
325,32,371034,1,0,0:0:0:0:
356,51,371102,1,0,0:0:0:0:
382,78,371171,5,0,0:0:0:0:
315,339,371307,1,0,0:0:0:0:
258,135,371443,1,0,0:0:0:0:
443,291,371580,1,0,0:0:0:0:
111,243,371716,1,0,0:0:0:0:
366,50,371852,1,0,0:0:0:0:
16,162,371989,1,0,0:0:0:0:
411,210,372125,1,0,0:0:0:0:
78,57,372262,1,0,0:0:0:0:
211,346,372398,1,0,0:0:0:0:
319,17,372533,5,0,0:0:0:0:
366,7,372602,1,0,0:0:0:0:
412,19,372670,1,0,0:0:0:0:
448,49,372738,1,0,0:0:0:0:
467,92,372806,1,0,0:0:0:0:
469,139,372874,1,0,0:0:0:0:
448,181,372943,1,0,0:0:0:0:
411,210,373011,1,0,0:0:0:0:
366,222,373079,1,0,0:0:0:0:
320,212,373147,1,0,0:0:0:0:
280,188,373215,1,0,0:0:0:0:
234,178,373283,1,0,0:0:0:0:
187,185,373352,6,0,P|155:206|132:255,7,75.0000028610231
229,271,373898,2,0,P|209:302|178:322,7,75.0000028610231
271,178,374443,5,0,0:0:0:0:
312,341,374579,1,0,0:0:0:0:
367,23,374715,1,0,0:0:0:0:
435,283,374852,1,0,0:0:0:0:
189,73,374989,5,0,0:0:0:0:
117,80,375080,5,0,0:0:0:0:
63,127,375171,5,0,0:0:0:0:
33,192,375262,5,0,0:0:0:0:
49,261,375352,5,0,0:0:0:0:
99,312,375443,5,0,0:0:0:0:
168,330,375534,6,0,B|252:341|289:253|403:318,1,239.999992675781
168,53,375943,1,0,0:0:0:0:
168,53,376080,2,0,B|146:114|146:114|155:188,1,119.999996337891
288,342,376352,1,0,0:0:0:0:
305,239,376489,1,0,0:0:0:0:
458,32,376625,6,0,P|473:92|456:160,1,119.999996337891
197,320,376898,1,0,0:0:0:0:
108,298,377034,1,0,0:0:0:0:
44,235,377171,2,0,P|33:176|41:132,2,100
188,63,377580,1,0,0:0:0:0:
186,358,377716,2,0,B|64:187|188:63|188:63|210:179|210:179|274:238|274:238|322:119|457:167,1,719.999978027344
304,353,378806,5,0,0:0:0:0:
340,262,378943,1,0,0:0:0:0:
301,173,379079,1,0,0:0:0:0:
346,87,379215,1,0,0:0:0:0:
276,18,379352,2,0,B|228:36|228:36|173:27,3,100
66,349,379898,6,0,B|61:286|145:288|132:195|99:143|39:199|13:100|64:33|64:33|98:25|135:37|135:37|115:78|138:149|199:171|238:168|238:168|189:263|283:326,2,800
416,59,382352,6,0,P|429:111|418:173,1,100
319,140,382625,2,0,P|306:192|317:254,1,100
416,325,382898,2,0,P|429:273|418:211,1,100
296,77,383170,5,0,0:0:0:0:
296,77,383307,2,0,P|347:85|409:62,2,100
356,186,383716,1,0,0:0:0:0:
356,186,383852,2,0,P|348:243|363:298,2,100
125,42,384262,5,0,0:0:0:0:
197,11,384398,1,0,0:0:0:0:
273,15,384534,1,0,0:0:0:0:
339,55,384671,1,0,0:0:0:0:
388,119,384807,2,0,P|401:187|382:250,1,119.999996337891
258,95,385080,2,0,P|251:157|273:227,1,119.999996337891
322,359,385352,5,0,0:0:0:0:
249,384,385489,1,0,0:0:0:0:
173,373,385624,1,0,0:0:0:0:
108,328,385762,1,0,0:0:0:0:
65,266,385897,2,0,P|52:198|63:131,1,119.999996337891
189,294,386171,2,0,P|202:226|191:159,1,119.999996337891
106,37,386443,5,0,0:0:0:0:
136,107,386580,1,0,0:0:0:0:
206,135,386716,1,0,0:0:0:0:
281,117,386852,1,0,0:0:0:0:
350,149,386988,2,0,P|363:217|341:283,1,119.999996337891
242,123,387262,2,0,P|228:181|241:239,1,119.999996337891
336,338,387534,5,0,0:0:0:0:
384,276,387671,1,0,0:0:0:0:
394,198,387807,1,0,0:0:0:0:
377,120,387943,1,0,0:0:0:0:
321,64,388080,2,0,P|251:40|176:56,1,119.999996337891
305,172,388352,2,0,P|231:164|170:117,1,119.999996337891,0|0,3:0|0:0,0:0:0:0:
56,35,388624,5,0,0:0:0:0:
31,106,388761,1,0,0:0:0:0:
54,177,388897,1,0,0:0:0:0:
24,246,389033,1,0,0:0:0:0:
56,314,389170,2,0,P|110:358|174:360,1,119.999996337891
143,255,389443,2,0,P|203:263|254:296,1,119.999996337891
453,350,389715,5,0,0:0:0:0:
409,287,389852,1,0,0:0:0:0:
454,226,389988,1,0,0:0:0:0:
407,166,390124,1,0,0:0:0:0:
460,111,390261,2,0,P|435:50|374:17,1,119.999996337891
372,97,390534,2,0,P|304:108|242:87,1,119.999996337891
61,81,390807,6,0,B|20:147|107:222|62:298,1,200
446,328,391352,2,0,P|425:258|345:233,1,150.000005722046
175,35,391898,5,0,0:0:0:0:
162,59,391966,1,0,0:0:0:0:
156,85,392034,1,0,0:0:0:0:
156,112,392102,1,0,0:0:0:0:
162,138,392171,1,0,0:0:0:0:
321,162,392307,5,0,0:0:0:0:
327,188,392375,1,0,0:0:0:0:
329,215,392443,1,0,0:0:0:0:
327,242,392512,1,0,0:0:0:0:
321,268,392580,1,0,0:0:0:0:
309,292,392648,1,0,0:0:0:0:
289,311,392716,1,0,0:0:0:0:
265,324,392784,1,0,0:0:0:0:
238,332,392852,1,0,0:0:0:0:
210,332,392921,1,0,0:0:0:0:
184,325,392989,6,0,P|163:260|171:190,1,129.999994049073
281,56,393262,1,0,0:0:0:0:
281,56,393330,1,0,0:0:0:0:
281,56,393398,1,0,0:0:0:0:
313,247,393534,1,0,0:0:0:0:
193,126,393671,1,0,0:0:0:0:
180,336,393807,1,0,0:0:0:0:
180,336,393875,1,0,0:0:0:0:
180,336,393943,1,0,0:0:0:0:
439,264,394080,6,0,P|373:245|284:254,1,129.999994049073
91,358,394352,1,0,0:0:0:0:
91,358,394420,1,0,0:0:0:0:
91,358,394488,1,0,0:0:0:0:
181,180,394625,1,0,0:0:0:0:
221,324,394762,1,0,0:0:0:0:
263,103,394898,1,0,0:0:0:0:
263,103,394966,1,0,0:0:0:0:
263,103,395034,1,0,0:0:0:0:
451,300,395170,5,0,0:0:0:0:
417,333,395238,1,0,0:0:0:0:
371,343,395306,1,0,0:0:0:0:
325,332,395374,1,0,0:0:0:0:
285,306,395443,1,0,0:0:0:0:
246,279,395511,1,0,0:0:0:0:
201,264,395579,1,0,0:0:0:0:
154,261,395647,1,0,0:0:0:0:
115,288,395715,5,0,0:0:0:0:
129,332,395783,1,0,0:0:0:0:
170,355,395852,1,0,0:0:0:0:
212,335,395920,1,0,0:0:0:0:
225,290,395988,1,0,0:0:0:0:
220,243,396056,1,0,0:0:0:0:
199,201,396124,1,0,0:0:0:0:
171,162,396193,1,0,0:0:0:0:
156,117,396261,5,0,0:0:0:0:
171,72,396329,1,0,0:0:0:0:
205,40,396397,1,0,0:0:0:0:
250,31,396465,1,0,0:0:0:0:
296,37,396533,1,0,0:0:0:0:
336,61,396602,1,0,0:0:0:0:
351,105,396670,1,0,0:0:0:0:
346,151,396738,1,0,0:0:0:0:
304,173,396806,5,0,0:0:0:0:
273,208,396874,1,0,0:0:0:0:
260,253,396943,1,0,0:0:0:0:
272,298,397011,1,0,0:0:0:0:
296,337,397079,1,0,0:0:0:0:
337,357,397147,1,0,0:0:0:0:
386,358,397215,1,0,0:0:0:0:
425,332,397283,1,0,0:0:0:0:
449,291,397352,6,0,P|468:231|418:136,1,129.999994049073
270,53,397625,1,0,0:0:0:0:
270,53,397693,1,0,0:0:0:0:
270,53,397762,1,0,0:0:0:0:
355,202,397898,1,0,0:0:0:0:
165,117,398034,1,0,0:0:0:0:
405,88,398171,1,0,0:0:0:0:
405,88,398239,1,0,0:0:0:0:
405,88,398307,1,0,0:0:0:0:
252,355,398443,6,0,B|235:312|235:312|239:216,1,129.999994049073
247,32,398716,1,0,0:0:0:0:
247,32,398784,1,0,0:0:0:0:
247,32,398852,1,0,0:0:0:0:
159,243,398989,1,0,0:0:0:0:
310,112,399125,1,0,0:0:0:0:
74,38,399262,1,0,0:0:0:0:
74,38,399330,1,0,0:0:0:0:
74,38,399398,1,0,0:0:0:0:
121,361,399534,5,0,0:0:0:0:
151,327,399602,1,0,0:0:0:0:
168,284,399671,1,0,0:0:0:0:
169,238,399739,1,0,0:0:0:0:
158,193,399807,1,0,0:0:0:0:
136,153,399875,1,0,0:0:0:0:
124,109,399943,2,0,P|136:74|169:44,1,64.9999970245363
385,36,400080,5,0,0:0:0:0:
411,73,400148,1,0,0:0:0:0:
421,117,400216,1,0,0:0:0:0:
413,161,400284,1,0,0:0:0:0:
376,187,400352,2,0,P|331:200|292:194,1,64.9999970245363
136,153,400489,5,0,0:0:0:0:
93,167,400557,1,0,0:0:0:0:
63,201,400625,1,0,0:0:0:0:
44,242,400693,1,0,0:0:0:0:
45,288,400762,2,0,P|65:319|93:334,1,64.9999970245363
286,346,400898,5,0,0:0:0:0:
319,315,400966,1,0,0:0:0:0:
340,274,401034,1,0,0:0:0:0:
345,228,401102,1,0,0:0:0:0:
326,185,401171,5,0,0:0:0:0:
328,139,401239,1,0,0:0:0:0:
354,102,401307,1,0,0:0:0:0:
396,86,401375,1,0,0:0:0:0:
439,99,401443,5,0,0:0:0:0:
415,138,401512,1,0,0:0:0:0:
369,141,401580,1,0,0:0:0:0:
326,125,401648,1,0,0:0:0:0:
286,102,401716,6,0,P|209:87|141:112,1,129.999994049073
104,290,401989,1,0,0:0:0:0:
104,290,402057,1,0,0:0:0:0:
104,290,402125,1,0,0:0:0:0:
236,195,402262,1,0,0:0:0:0:
3,268,402398,1,0,0:0:0:0:
270,340,402534,1,0,0:0:0:0:
270,340,402602,1,0,0:0:0:0:
270,340,402671,1,0,0:0:0:0:
123,74,402807,6,0,P|101:140|116:219,1,129.999994049073
356,258,403080,1,0,0:0:0:0:
356,258,403148,1,0,0:0:0:0:
356,258,403216,1,0,0:0:0:0:
205,125,403352,1,0,0:0:0:0:
211,322,403489,1,0,0:0:0:0:
314,81,403625,1,0,0:0:0:0:
314,81,403693,1,0,0:0:0:0:
314,81,403762,1,0,0:0:0:0:
211,322,403897,5,0,0:0:0:0:
167,308,403965,1,0,0:0:0:0:
135,274,404033,1,0,0:0:0:0:
124,227,404102,1,0,0:0:0:0:
138,182,404170,1,0,0:0:0:0:
154,138,404238,1,0,0:0:0:0:
154,91,404306,1,0,0:0:0:0:
139,46,404374,1,0,0:0:0:0:
107,11,404443,5,0,0:0:0:0:
61,6,404511,1,0,0:0:0:0:
21,28,404579,1,0,0:0:0:0:
2,70,404647,1,0,0:0:0:0:
10,116,404715,1,0,0:0:0:0:
44,148,404783,1,0,0:0:0:0:
91,155,404852,1,0,0:0:0:0:
135,139,404920,1,0,0:0:0:0:
178,119,404988,5,0,0:0:0:0:
225,121,405056,1,0,0:0:0:0:
269,138,405124,1,0,0:0:0:0:
296,177,405193,1,0,0:0:0:0:
311,221,405261,1,0,0:0:0:0:
311,267,405329,1,0,0:0:0:0:
291,309,405397,1,0,0:0:0:0:
260,343,405465,1,0,0:0:0:0:
214,348,405533,5,0,0:0:0:0:
186,309,405602,1,0,0:0:0:0:
183,262,405670,1,0,0:0:0:0:
199,217,405738,1,0,0:0:0:0:
227,179,405806,1,0,0:0:0:0:
241,134,405874,1,0,0:0:0:0:
240,86,405943,1,0,0:0:0:0:
218,44,406011,1,0,0:0:0:0:
179,18,406079,6,0,P|114:7|35:36,1,129.999994049073
323,148,406352,1,0,0:0:0:0:
323,148,406421,1,0,0:0:0:0:
323,148,406489,1,0,0:0:0:0:
130,198,406625,1,0,0:0:0:0:
285,46,406762,1,0,0:0:0:0:
279,298,406898,1,0,0:0:0:0:
279,298,406966,1,0,0:0:0:0:
279,298,407034,1,0,0:0:0:0:
45,134,407171,6,0,P|107:118|183:135,1,129.999994049073
110,347,407443,1,0,0:0:0:0:
110,347,407512,1,0,0:0:0:0:
110,347,407580,1,0,0:0:0:0:
266,197,407716,1,0,0:0:0:0:
67,243,407852,1,0,0:0:0:0:
342,301,407989,1,0,0:0:0:0:
342,301,408057,1,0,0:0:0:0:
342,301,408125,1,0,0:0:0:0:
32,161,408262,5,0,0:0:0:0:
51,119,408330,1,0,0:0:0:0:
87,92,408398,1,0,0:0:0:0:
130,79,408466,1,0,0:0:0:0:
175,80,408534,1,0,0:0:0:0:
217,95,408602,1,0,0:0:0:0:
253,123,408671,2,0,P|291:136|330:134,1,64.9999970245363
481,57,408807,5,0,0:0:0:0:
477,102,408875,1,0,0:0:0:0:
474,147,408943,1,0,0:0:0:0:
471,192,409012,1,0,0:0:0:0:
464,236,409080,2,0,P|428:251|391:248,1,64.9999970245363
188,182,409216,5,0,0:0:0:0:
145,198,409284,1,0,0:0:0:0:
115,232,409352,1,0,0:0:0:0:
100,275,409421,1,0,0:0:0:0:
103,320,409489,2,0,P|120:349|150:367,1,64.9999970245363
357,373,409625,5,0,0:0:0:0:
374,331,409693,1,0,0:0:0:0:
377,285,409762,1,0,0:0:0:0:
362,242,409830,1,0,0:0:0:0:
332,207,409898,6,0,L|322:133,3,64.9999970245363
225,167,410171,2,0,L|215:93,3,64.9999970245363
216,315,410443,5,0,0:0:0:0:
174,337,410511,1,0,0:0:0:0:
127,345,410579,1,0,0:0:0:0:
82,333,410647,1,0,0:0:0:0:
42,308,410715,1,0,0:0:0:0:
17,269,410783,1,0,0:0:0:0:
14,222,410852,5,0,0:0:0:0:
59,213,410920,1,0,0:0:0:0:
100,193,410988,1,0,0:0:0:0:
129,157,411056,1,0,0:0:0:0:
148,115,411124,1,0,0:0:0:0:
153,68,411193,1,0,0:0:0:0:
126,30,411261,5,0,0:0:0:0:
128,77,411329,1,0,0:0:0:0:
148,119,411397,1,0,0:0:0:0:
181,153,411465,1,0,0:0:0:0:
225,167,411533,1,0,0:0:0:0:
272,166,411602,1,0,0:0:0:0:
313,144,411670,5,0,0:0:0:0:
357,160,411738,1,0,0:0:0:0:
369,205,411806,1,0,0:0:0:0:
353,249,411874,1,0,0:0:0:0:
316,280,411943,1,0,0:0:0:0:
270,290,412011,1,0,0:0:0:0:
224,282,412079,6,0,P|206:254|199:207,3,64.9999970245363
316,280,412352,2,0,P|333:314|340:358,3,64.9999970245363
246,163,412625,6,0,L|174:133,1,64.9999970245363
252,50,412762,2,0,L|180:20,1,64.9999970245363
31,73,412898,1,0,0:0:0:0:
20,117,412966,1,0,0:0:0:0:
14,162,413034,6,0,L|25:247,1,64.9999970245363
102,107,413171,2,0,L|113:192,1,64.9999970245363
213,338,413307,5,0,0:0:0:0:
257,347,413375,1,0,0:0:0:0:
301,340,413443,2,0,L|373:311,1,64.9999970245363
308,237,413580,2,0,L|380:208,1,64.9999970245363
467,42,413716,5,0,0:0:0:0:
424,58,413784,1,0,0:0:0:0:
378,58,413852,2,0,P|328:51|293:52,1,64.9999970245363
101,66,413989,5,0,0:0:0:0:
68,98,414057,1,0,0:0:0:0:
52,140,414125,1,0,0:0:0:0:
45,184,414193,1,0,0:0:0:0:
51,229,414262,5,0,0:0:0:0:
95,220,414330,1,0,0:0:0:0:
140,222,414398,1,0,0:0:0:0:
180,242,414466,1,0,0:0:0:0:
196,284,414534,5,0,0:0:0:0:
150,289,414602,1,0,0:0:0:0:
106,303,414671,1,0,0:0:0:0:
69,329,414739,1,0,0:0:0:0:
39,370,414807,6,0,B|69:327|91:261|80:159|81:105|81:105|142:167|231:147,1,425.000008106232
248,60,415216,2,0,P|343:49|384:351,1,474.999987316132
329,372,415625,2,0,B|264:302|386:248|375:147|375:147|313:112|243:138,1,375.000014305115
218,225,416034,2,0,P|132:253|15:132,1,250
67,63,416443,2,0,B|128:48|128:48|208:83|208:83|307:57|307:57|391:90,1,300
452,213,416716,2,0,P|472:114|441:19,1,200
256,192,416989,12,0,421352,0:0:0:0:
