osu file format v14

[General]
AudioFilename: audio.mp3
AudioLeadIn: 0
PreviewTime: 49505
Countdown: 1
SampleSet: Soft
StackLeniency: 0.2
Mode: 0
LetterboxInBreaks: 0
WidescreenStoryboard: 1

[Editor]
Bookmarks: 7705,26554,49686,72819,95951,119084,139325,148323,156761
DistanceSpacing: 1
BeatDivisor: 16
GridSize: 4
TimelineZoom: 1.2

[Metadata]
Title:Alice
TitleUnicode:Alice
Artist:Unlucky Morpheus
ArtistUnicode:Unlucky Morpheus
Creator:Hysteria
Version:Fading Away
Source:東方怪綺談 ~ Mystic Square
Tags:東方project touhou alice margatroid zun hannah 「Signs」 UNDEAD CORPORATION Celektus Joe Castle
BeatmapID:1497219
BeatmapSetID:708148

[Difficulty]
HPDrainRate:6
CircleSize:4
OverallDifficulty:6
ApproachRate:6
SliderMultiplier:2.1
SliderTickRate:1

[Events]
//Background and Video events
0,0,"bg_alice_FIXED.jpg",0,0
//Break Periods
//Storyboard Layer 0 (Background)
//Storyboard Layer 1 (Fail)
//Storyboard Layer 2 (Pass)
//Storyboard Layer 3 (Foreground)
//Storyboard Sound Samples

[TimingPoints]
477,769.230769230769,4,2,1,40,1,0
861,722.89156626506,4,2,1,40,1,0
1583,732.15375228798,4,2,1,60,1,0
1583,-50,4,2,1,60,0,0
1628,-50,4,2,1,30,0,0
3413,732.15375228798,4,2,1,40,1,0
6340,600,4,2,1,40,1,0
6642,705.882352941176,4,2,1,40,1,0
6994,648.648648648649,4,2,1,40,1,0
7330,750,4,2,1,60,1,0
7330,-50,4,2,1,60,0,0
7376,-50,4,2,1,30,0,0
7705,-50,4,2,1,60,0,0
7751,-50,4,2,1,30,0,0
8830,720.720720720721,4,2,1,40,1,0
9190,720.720720720721,4,2,1,40,1,0
11712,784.313725490196,4,2,1,40,1,0
12104,681.818181818182,4,2,1,40,1,0
12444,697.674418604651,4,2,1,40,1,0
12792,714.285714285714,4,2,1,40,1,0
13149,730.816077953715,4,2,1,40,1,0
13514,727.272727272727,4,2,1,40,1,0
14968,727.272727272727,4,2,1,40,1,0
15331,694.444444444444,4,2,1,40,1,0
15678,761.421319796954,4,2,1,40,1,0
16058,727.272727272727,4,2,1,40,1,0
17517,714.285714285714,4,2,1,40,1,0
17874,693.64161849711,4,2,1,60,1,0
17874,-50,4,2,1,60,0,0
17917,-50,4,2,1,30,0,0
18220,764.331210191083,4,2,1,40,1,0
18220,-50,4,2,1,40,0,0
18602,625,4,2,1,40,1,0
18914,882.352941176471,4,2,1,40,1,0
19355,834.492350486787,4,2,1,40,1,0
21023,851.063829787234,4,2,1,40,1,0
26129,-50,4,2,1,5,0,0
26554,722.89156626506,4,2,1,40,1,0
26554,-100,4,2,1,40,0,0
28541,-66.6666666667,4,2,1,40,0,0
30891,-100,4,2,1,40,0,0
31975,-66.6666666667,4,2,1,40,0,0
33782,-100,4,2,1,40,0,0
34867,-66.6666666667,4,2,1,40,0,0
36132,-100,4,2,1,40,0,0
37397,-66.6666666667,4,2,1,40,0,0
38120,-100,4,2,1,40,0,0
39204,-66.6666666667,4,2,1,40,0,0
39566,-100,4,2,1,40,0,0
40288,-66.6666666667,4,2,1,40,0,0
43180,-100,4,2,1,40,0,0
43903,-66.6666666667,4,2,1,40,0,0
44445,-100,4,2,1,40,0,0
44987,-66.6666666667,4,2,1,40,0,0
45349,-100,4,2,1,40,0,0
49686,-66.6666666667,4,2,1,60,0,1
51132,-100,4,2,1,60,0,1
52216,-66.6666666667,4,2,1,60,0,1
55469,-100,4,2,1,60,0,1
57999,-66.6666666667,4,2,1,60,0,1
59807,-100,4,2,1,60,0,1
60529,-66.6666666667,4,2,1,60,0,1
61252,-100,4,2,1,60,0,1
61794,-66.6666666667,4,2,1,60,0,1
62698,-100,4,2,1,60,0,1
63421,-66.6666666667,4,2,1,60,0,1
64686,-100,4,2,1,60,0,1
65228,-66.6666666667,4,2,1,60,0,1
65590,-100,4,2,1,60,0,1
67035,-100,4,3,4,60,0,1
67397,-100,4,2,1,60,0,1
68120,-66.6666666667,4,2,1,60,0,1
68481,-100,4,2,1,60,0,1
69204,-66.6666666667,4,2,1,60,0,1
69927,-100,4,3,2,60,0,1
70650,-100,4,2,1,40,0,1
72819,-100,4,2,1,40,0,0
75710,-50,4,2,1,60,0,0
75755,-50,4,2,1,30,0,0
77156,-50,4,2,1,60,0,0
77201,-50,4,2,1,30,0,0
78602,-50,4,2,1,40,0,0
81493,-50,4,2,1,60,0,0
81538,-50,4,2,1,30,0,0
82939,-100,4,2,1,40,0,0
84385,-50,4,2,1,40,0,0
87276,-50,4,2,1,60,0,0
87322,-50,4,2,1,30,0,0
88722,-50,4,2,1,40,0,0
95951,-100,4,2,1,40,0,0
97939,-66.6666666667,4,2,1,40,0,0
100288,-100,4,2,1,40,0,0
101373,-66.6666666667,4,2,1,40,0,0
103180,-100,4,2,1,40,0,0
104264,-66.6666666667,4,2,1,40,0,0
106072,-100,4,2,1,40,0,0
106794,-66.6666666667,4,2,1,40,0,0
107517,-100,4,2,1,40,0,0
108602,-66.6666666667,4,2,1,40,0,0
108963,-100,4,2,1,40,0,0
109686,-66.6666666667,4,2,1,40,0,0
111493,-100,4,2,1,40,0,0
112216,-66.6666666667,4,2,1,40,0,0
112578,-100,4,2,1,40,0,0
114385,-66.6666666667,4,2,1,40,0,0
119084,-66.6666666667,4,2,1,60,0,1
120529,-100,4,2,1,60,0,1
121614,-66.6666666667,4,2,1,60,0,1
124867,-100,4,2,1,60,0,1
127397,-66.6666666667,4,2,1,60,0,1
129204,-100,4,2,1,60,0,1
129927,-66.6666666667,4,2,1,60,0,1
130650,-100,4,2,1,60,0,1
131192,-66.6666666667,4,2,1,60,0,1
132096,-100,4,2,1,60,0,1
132457,-66.6666666667,4,2,1,60,0,1
132819,-66.6666666667,4,2,1,60,0,1
134084,-100,4,2,1,60,0,1
134626,-66.6666666667,4,2,1,60,0,1
134987,-100,4,2,1,60,0,1
135710,-100,4,2,1,60,0,1
136433,-100,4,3,4,60,0,1
136794,-100,4,2,1,60,0,1
137517,-66.6666666667,4,2,1,60,0,1
137879,-100,4,2,1,60,0,1
138602,-66.6666666667,4,2,1,60,0,1
139325,-100,4,3,2,40,0,0
139867,-100,4,2,1,5,0,0
140047,-100,4,2,1,40,0,0
141132,645.161290322581,4,2,1,40,1,0
141777,800,4,2,1,40,1,0
142178,769.230769230769,4,2,1,40,1,0
142947,779.220779220779,4,2,1,40,1,0
143336,1061.94690265487,4,2,1,40,1,0
143866,743.034055727554,4,2,1,40,1,0
145352,743.034055727554,4,2,1,40,1,0
147952,-100,4,2,1,5,0,0
148323,745.341614906832,4,2,1,60,1,0
148323,-50,4,2,1,60,0,0
148369,-50,4,2,1,30,0,0
149441,740.740740740741,4,2,1,60,1,0
149441,-50,4,2,1,60,0,0
149487,-50,4,2,1,30,0,0
152403,710.059171597633,4,2,1,40,1,0
153823,701.754385964912,4,2,1,60,1,0
153823,-50,4,2,1,60,0,0
153866,-50,4,2,1,30,0,0
154875,833.333333333333,4,2,1,60,1,0
154875,-50,4,2,1,60,0,0
154927,-50,4,2,1,30,0,0
155291,784.313725490196,4,2,1,60,1,0
155291,-50,4,2,1,60,0,0
155340,-50,4,2,1,30,0,0
156858,764.331210191083,4,2,1,40,1,0
157618,666.666666666667,4,2,1,40,1,0
157951,722.89156626506,4,2,1,40,1,0
158316,701.754385964912,4,2,1,40,1,0
158666,769.230769230769,4,2,1,40,1,0
159050,828.729281767956,4,2,1,40,1,0
159464,1081.08108108108,4,2,1,40,1,0
160004,759.493670886076,4,2,1,40,1,0
160004,-50,4,2,1,40,0,0
160051,-50,4,2,1,30,0,0
161522,944.88188976378,4,2,1,40,1,0
161522,-50,4,2,1,40,0,0
161581,-50,4,2,1,30,0,0
163411,714.285714285714,4,2,1,40,1,0
164125,731.707317073171,4,2,1,40,1,0
164856,789.473684210526,4,2,1,40,1,0
165250,869.565217391304,4,2,1,40,1,0
166554,821.917808219178,4,2,1,60,1,0
166554,-50,4,2,1,60,0,0
166605,-50,4,2,1,30,0,0
167375,652.173913043478,4,2,1,40,1,0
168027,566.037735849057,4,2,1,40,1,0
168593,722.89156626506,4,2,1,60,1,0
168593,-50,4,2,1,60,0,0
168638,-50,4,2,1,30,0,0
169315,645.161290322581,4,2,1,60,1,0
169315,-50,4,2,1,60,0,0
169355,-50,4,2,1,30,0,0
169960,566.037735849057,4,2,1,40,1,0
170526,517.241379310345,4,2,1,40,1,0
171043,681.818181818182,4,2,1,40,1,0
171724,779.220779220779,4,2,1,40,1,0
172503,810.810810810811,4,2,1,40,1,0
173313,1608.57908847185,4,2,1,40,1,0
174787,1500,4,2,1,40,1,0
174974,1500,4,2,1,60,1,0
174974,-50,4,2,1,60,0,0
175067,-50,4,2,1,30,0,0

[Colours]
Combo1 : 106,106,106
Combo2 : 211,65,65
Combo3 : 211,138,65
Combo4 : 211,211,65
Combo5 : 65,211,211
Combo6 : 65,138,211
Combo7 : 65,65,211
Combo8 : 212,212,212

[HitObjects]
212,132,477,101,0,0:0:0:0:
268,236,861,1,0,0:0:0:0:
204,156,1222,1,0,0:0:0:0:
275,32,1583,2,2,L|302:29,1,26.25
302,30,4877,5,0,0:0:0:0:
275,32,6340,101,0,0:0:0:0:
280,120,6642,1,0,0:0:0:0:
285,208,6994,1,0,0:0:0:0:
127,128,7330,2,2,L|99:125,1,26.25
285,208,7705,2,2,L|312:205,1,26.25
311,205,8830,5,0,0:0:0:0:
285,208,9190,1,0,0:0:0:0:
101,126,9550,101,0,0:0:0:0:
127,128,9910,1,0,0:0:0:0:
224,277,10271,5,0,0:0:0:0:
209,255,10631,1,0,0:0:0:0:
189,55,10991,101,0,0:0:0:0:
200,79,11352,1,0,0:0:0:0:
119,238,11712,5,0,0:0:0:0:
294,96,12104,101,0,0:0:0:0:
130,214,12444,1,0,0:0:0:0:
279,118,12792,1,0,0:0:0:0:
204,165,13149,1,0,0:0:0:0:
204,165,15331,5,0,0:0:0:0:
224,277,15678,1,0,0:0:0:0:
189,56,16058,1,0,0:0:0:0:
290,97,16422,101,0,0:0:0:0:
204,165,16786,1,0,0:0:0:0:
118,233,17149,1,0,0:0:0:0:
224,277,17517,1,0,0:0:0:0:
103,124,17874,6,2,L|75:121,1,26.25
0,211,18220,1,0,0:0:0:0:
51,120,18602,1,0,0:0:0:0:
157,298,18914,1,0,0:0:0:0:
104,209,19355,1,0,0:0:0:0:
256,192,19772,12,0,26129,0:0:0:0:
104,209,26554,6,0,P|154:198|205:210,1,105,0|0,3:0|0:0,0:0:0:0:
332,211,27999,6,0,P|281:221|230:209,1,105,8|0,0:0|0:0,0:0:0:0:
337,144,28541,2,0,B|348:183|332:211|332:211|340:231|340:231|324:259|336:295,1,157.500006008148
484,274,29084,2,0,B|444:264|444:264|405:266,1,78.7500030040742,8|0,0:0|0:0,0:0:0:0:
343,382,29445,2,0,B|365:336|341:308|341:304|317:276|340:230,1,157.500006008148,0|0,3:0|0:0,0:0:0:0:
484,274,30168,1,0,0:0:0:0:
407,266,30529,1,0,0:0:0:0:
452,203,30891,6,0,P|462:152|450:101,1,105,8|0,0:0|0:0,0:0:0:0:
336,49,31433,2,0,P|374:83|424:98,1,105
504,33,31975,2,0,B|466:51|466:51|438:77,1,78.7500030040742,8|0,0:0|0:0,0:0:0:0:
452,203,32337,2,0,B|412:191|384:207|384:207|364:199|364:199|336:215|300:203,1,157.500006008148,0|0,3:0|0:0,0:0:0:0:
330,134,33060,1,0,0:0:0:0:
422,272,33421,1,0,0:0:0:0:
422,272,33782,6,0,P|432:323|420:374,1,105,8|0,0:0|0:0,0:0:0:0:
250,316,34325,2,0,P|301:306|352:318,1,105
181,363,34867,2,0,B|171:322|171:322|173:284,1,78.7500030040742,8|0,0:0|0:0,0:0:0:0:
289,222,35228,2,0,B|243:244|215:220|211:220|183:196|137:219,1,157.500006008148,0|0,3:0|0:0,0:0:0:0:
0,155,36313,6,0,P|50:165|101:153,2,105,0|8|0,0:0|0:0|0:0,0:0:0:0:
138,220,37397,6,0,B|148:260|148:260|145:298,1,78.7500030040742
215,366,37758,2,0,P|213:326|222:288,1,78.7500030040742,8|0,0:0|0:0,0:0:0:0:
342,180,38120,2,0,P|291:191|240:181,1,105,0|0,3:0|0:0,0:0:0:0:
183,69,38662,2,0,P|218:105|235:155,1,105
185,245,39204,38,0,P|195:206|215:172,1,78.7500030040742
221,311,39566,2,0,B|175:334|147:310|143:310|115:286|69:308,1,157.500006008148,8|0,0:0|0:0,0:0:0:0:
7,355,40288,2,0,B|-3:315|-3:315|0:277,1,78.7500030040742
53,153,40650,2,0,P|51:193|60:231,1,78.7500030040742,8|0,0:0|0:0,0:0:0:0:
176,84,41011,6,0,B|136:96|108:80|108:80|88:88|88:88|60:72|24:84,2,157.500006008148,0|0|0,3:0|0:0|0:0,0:0:0:0:
245,131,42096,2,0,B|255:90|255:90|253:52,1,78.7500030040742
169,167,42457,2,0,P|167:207|176:245,1,78.7500030040742,8|0,0:0|0:0,0:0:0:0:
270,134,42819,2,0,B|280:93|280:93|278:55,1,78.7500030040742
245,131,43180,2,0,P|295:142|346:132,1,105,0|8,0:0|0:0,0:0:0:0:
413,97,43903,6,0,B|436:143|412:171|412:175|388:203|410:249,1,157.500006008148,0|0,3:0|0:0,0:0:0:0:
500,326,44445,2,0,P|461:290|412:272,1,105
251,334,44987,2,0,B|290:320|290:320|320:298,1,78.7500030040742
393,160,45349,2,0,P|402:211|391:261,1,105,8|0,0:0|0:0,0:0:0:0:
320,298,46072,1,0,0:0:0:0:
413,272,46433,1,8,0:0:0:0:
227,324,46794,6,0,B|171:236|227:179|227:171|279:107|227:25,1,315,0|2,3:0|0:0,0:0:0:0:
155,55,48240,2,0,P|126:156|147:47,1,367.5,0|0,3:0|0:0,0:0:0:0:
106,96,49686,6,0,B|94:136|110:164|110:164|102:184|102:184|118:212|106:248,1,157.500006008148,2|2,3:0|0:0,0:0:0:0:
37,218,50409,1,0,0:0:0:0:
175,277,50770,1,2,3:2:0:0:
12,221,51132,2,0,P|1:171|11:120,1,105,8|2,0:0|0:0,0:0:0:0:
37,218,51674,2,0,P|48:268|38:319,1,105
12,119,52216,2,0,B|50:116|50:116|90:126,1,78.7500030040742,10|0,0:0|0:0,0:0:0:0:
152,241,52578,6,0,B|130:195|154:167|154:163|178:135|155:89,1,157.500006008148,0|2,3:0|0:0,0:0:0:0:
217,205,53300,1,0,0:0:0:0:
89,126,53662,1,2,3:2:0:0:
242,208,54023,2,0,B|282:220|310:204|310:204|330:212|330:212|358:196|394:208,1,157.500006008148,8|2,0:0|0:0,0:0:0:0:
371,354,54566,2,0,B|361:314|361:314|364:276,2,78.7500030040742
512,313,55108,2,0,P|474:304|435:307,1,78.7500030040742,10|0,0:0|0:0,0:0:0:0:
346,357,55469,38,0,P|296:368|245:358,1,105,0|2,3:0|0:0,0:0:0:0:
217,259,56192,2,0,P|189:302|146:331,1,105,0|2,0:0|3:2,0:0:0:0:
57,280,56915,2,0,P|68:330|58:380,1,105,8|2,0:0|0:0,0:0:0:0:
82,277,57457,2,0,P|71:225|82:174,1,105
130,106,57999,2,0,B|89:96|89:96|51:98,1,78.7500030040742,10|0,0:0|0:0,0:0:0:0:
167,182,58361,6,0,B|213:205|241:181|245:181|273:157|319:179,1,157.500006008148,0|2,3:0|0:0,0:0:0:0:
283,244,59084,1,2,0:0:0:0:
203,117,59445,2,0,B|193:76|193:76|195:38,1,78.7500030040742,0|0,3:2|3:0,0:0:0:0:
279,36,59807,2,0,B|243:48|215:32|215:32|195:40|195:40|167:24|127:36,1,157.500006008148,8|0,0:0|3:0,0:0:0:0:
95,141,60529,2,0,B|96:177|96:177|86:218,1,78.7500030040742,0|0,0:0|3:0,0:0:0:0:
1,289,60891,2,0,P|40:285|78:294,1,78.7500030040742,10|0,0:0|3:0,0:0:0:0:
188,218,61252,6,0,P|136:229|85:218,1,105,4|2,3:2|0:0,0:0:0:0:
192,193,61794,2,0,B|193:229|193:229|183:270,2,78.7500030040742
263,161,62337,2,0,B|261:124|261:124|271:83,1,78.7500030040742,2|0,3:2|0:0,0:0:0:0:
443,50,62698,2,0,P|393:40|341:50,1,105,8|2,0:0|0:0,0:0:0:0:
447,26,63421,2,0,P|408:16|369:20,1,78.7500030040742
271,83,63782,2,0,B|312:93|312:93|348:91,1,78.7500030040742,10|0,0:0|0:0,0:0:0:0:
202,54,64144,6,0,B|190:90|206:118|206:118|198:138|198:138|214:166|202:206,1,157.500006008148,0|2,3:0|0:0,0:0:0:0:
96,138,64686,2,0,P|147:127|198:138,1,105
283,112,65228,2,0,P|245:121|206:118,1,78.7500030040742,2|0,3:2|0:0,0:0:0:0:
349,75,65590,2,0,B|372:121|348:149|348:153|324:181|346:227,1,157.500006008148,10|0,0:0|3:0,0:0:0:0:
433,230,66313,2,0,B|393:218|365:234|365:234|345:226|345:226|317:242|281:230,1,157.500006008148,10|0,0:0|3:0,0:0:0:0:
193,178,67035,6,0,P|182:229|193:281,1,105,2|0,0:0|0:0,0:0:0:0:
278,357,67578,2,0,P|239:321|189:305,1,105,0|0,3:0|0:0,0:0:0:0:
90,364,68120,2,0,P|127:352|159:330,1,78.7500030040742,0|0,3:0|0:0,0:0:0:0:
81,341,68481,2,0,P|130:325|169:290,1,105,8|0,0:0|0:0,0:0:0:0:
170,176,69204,2,0,P|160:214|163:253,1,78.7500030040742,0|0,3:0|0:0,0:0:0:0:
294,338,69566,2,0,P|265:311|230:294,1,78.7500030040742,8|0,0:0|0:0,0:0:0:0:
193,178,69927,6,0,B|281:234|338:178|346:178|410:126|492:178,1,315,2|0,0:0|0:0,0:0:0:0:
490,204,71373,2,0,B|408:256|344:204|336:204|279:148|191:204,1,315
187,229,72819,5,0,0:0:0:0:
264,317,73180,1,0,0:0:0:0:
191,204,73541,1,0,0:0:0:0:
268,342,73903,1,0,0:0:0:0:
150,271,74264,1,0,0:0:0:0:
308,274,74626,1,0,0:0:0:0:
188,340,74987,1,0,0:0:0:0:
270,205,75349,1,0,0:0:0:0:
193,66,75710,6,2,L|165:63,1,26.25
196,92,77156,2,2,L|224:89,1,26.25
193,118,78602,101,0,0:0:0:0:
116,206,78963,1,0,0:0:0:0:
196,92,79325,1,0,0:0:0:0:
119,232,79686,1,0,0:0:0:0:
279,229,80047,1,0,0:0:0:0:
116,206,80409,1,0,0:0:0:0:
198,218,80770,1,0,0:0:0:0:
146,283,81132,1,0,0:0:0:0:
168,141,81493,6,2,L|165:113,1,26.25
166,115,82939,1,0,0:0:0:0:
168,141,84385,101,0,0:0:0:0:
285,123,84746,1,0,0:0:0:0:
166,115,85108,1,0,0:0:0:0:
283,149,85469,1,0,0:0:0:0:
145,130,85831,1,0,0:0:0:0:
307,138,86192,1,0,0:0:0:0:
149,49,86553,1,0,0:0:0:0:
141,211,86915,1,0,0:0:0:0:
277,298,87276,6,2,L|305:295,1,26.25
303,295,88722,1,0,0:0:0:0:
277,298,90168,101,0,0:0:0:0:
289,216,90529,1,0,0:0:0:0:
277,134,90891,1,0,0:0:0:0:
289,52,91252,1,0,0:0:0:0:
354,103,91614,1,0,0:0:0:0:
277,134,91975,1,0,0:0:0:0:
366,21,92337,1,0,0:0:0:0:
431,72,92698,1,0,0:0:0:0:
289,52,93060,5,0,0:0:0:0:
419,154,93782,1,0,0:0:0:0:
366,21,94505,1,0,0:0:0:0:
342,185,95228,1,0,0:0:0:0:
431,72,95951,6,0,P|442:122|430:173,1,105,0|0,3:0|0:0,0:0:0:0:
429,300,97397,6,0,P|419:249|431:198,1,105,8|0,0:0|2:0,2:0:0:0:
497,304,97939,2,0,B|457:316|429:300|429:300|409:308|409:308|381:292|345:304,1,157.500006008148
260,373,98481,2,0,B|270:333|270:333|268:294,1,78.7500030040742,8|0,0:0|0:0,0:0:0:0:
152,232,98843,2,0,B|198:254|226:230|230:230|258:206|304:229,2,157.500006008148,0|0|0,3:0|0:0|0:0,0:0:0:0:
196,88,99746,2,0,B|197:125|197:125|187:165,1,78.7500030040742
222,85,100288,6,0,P|171:74|119:85,1,105,8|0,0:0|0:0,0:0:0:0:
196,88,100831,2,0,P|231:49|247:-1,1,105
206,63,101373,2,0,B|215:99|215:99|237:134,1,78.7500030040742,8|0,0:0|0:0,0:0:0:0:
268,205,101734,2,0,B|314:227|342:203|346:203|374:179|420:202,2,157.500006008148,0|0|0,3:0|0:0|0:0,0:0:0:0:
190,174,102638,2,0,B|189:211|189:211|199:252,1,78.7500030040742
256,123,103180,6,0,P|267:72|256:20,1,105,8|0,0:0|0:0,0:0:0:0:
168,72,103722,2,0,P|117:82|65:72,1,105
178,47,104264,2,0,B|179:83|179:83|169:124,1,78.7500030040742,8|0,0:0|0:0,0:0:0:0:
73,189,104626,2,0,B|61:225|77:253|77:253|69:273|69:273|85:301|72:341,1,157.500006008148,0|0,3:0|0:0,0:0:0:0:
2,309,105349,1,0,0:0:0:0:
144,217,105710,1,0,0:0:0:0:
294,293,106072,6,0,B|340:315|368:291|372:291|400:267|446:290,1,157.500006008148,8|0,0:0|0:0,0:0:0:0:
304,268,106794,2,0,B|294:228|294:228|297:190,1,78.7500030040742
350,66,107156,2,0,P|348:106|357:144,1,78.7500030040742,8|0,0:0|0:0,0:0:0:0:
469,220,107517,2,0,P|418:209|366:220,1,105,0|0,3:0|0:0,0:0:0:0:
202,268,108060,2,0,P|253:279|305:268,1,105
133,221,108602,2,0,B|123:262|123:262|125:300,1,78.7500030040742
160,364,108963,6,0,B|114:387|86:363|82:363|54:339|8:361,1,157.500006008148,8|0,0:0|0:0,0:0:0:0:
150,339,109686,2,0,B|160:299|160:299|157:261,1,78.7500030040742
227,193,110047,2,0,P|225:233|234:271,1,78.7500030040742,8|0,0:0|0:0,0:0:0:0:
255,122,110409,2,0,B|219:110|191:126|191:126|171:118|171:118|143:134|103:121,2,157.500006008148,0|0|0,3:0|0:0|0:0,0:0:0:0:
171,118,111493,2,0,P|160:66|171:15,1,105,8|0,0:0|3:0,0:0:0:0:
255,122,112216,2,0,B|265:162|265:162|262:199,1,78.7500030040742,8|0,0:0|3:0,0:0:0:0:
234,271,112578,38,0,B|270:283|298:267|298:267|318:275|318:275|346:259|386:272,1,157.500006008148,0|0,3:0|0:0,0:0:0:0:
396,349,113300,2,0,P|406:297|395:246,1,105,8|0,0:0|0:0,0:0:0:0:
297,221,113843,2,0,P|335:255|385:271,1,105
433,206,114385,2,0,B|395:224|395:224|368:250,1,78.7500030040742,8|0,0:0|0:0,0:0:0:0:
499,241,114746,6,0,B|522:195|498:167|498:163|474:135|496:89,1,157.500006008148,0|0,3:0|0:0,0:0:0:0:
504,63,115469,1,0,0:0:0:0:
433,206,115831,1,0,0:0:0:0:
344,73,116192,6,0,B|256:16|199:72|191:72|127:124|45:72,1,315,2|0,3:0|0:0,0:0:0:0:
341,98,117638,2,0,B|259:150|195:98|187:98|130:42|42:98,1,315
338,123,119084,6,0,B|350:163|334:191|334:191|342:211|342:211|326:239|338:275,1,157.500006008148,2|2,3:0|0:0,0:0:0:0:
407,245,119807,1,0,0:0:0:0:
269,304,120168,1,2,3:2:0:0:
432,242,120529,2,0,P|443:292|433:343,1,105,8|2,0:0|0:0,0:0:0:0:
407,245,121072,2,0,P|396:195|406:144,1,105
510,147,121614,2,0,B|472:150|472:150|432:140,1,78.7500030040742,10|0,0:0|0:0,0:0:0:0:
383,48,121975,6,0,B|337:25|309:49|305:49|277:73|231:51,1,157.500006008148,0|2,3:0|0:0,0:0:0:0:
205,43,122698,1,0,0:0:0:0:
348,114,123060,1,2,3:2:0:0:
215,202,123421,2,0,B|203:242|219:270|219:270|211:290|211:290|227:318|215:354,1,157.500006008148,8|2,0:0|0:0,0:0:0:0:
69,332,123963,2,0,B|109:322|109:322|147:325,2,78.7500030040742
219,270,124505,2,0,P|258:273|296:264,1,78.7500030040742,10|0,0:0|0:0,0:0:0:0:
383,211,124867,54,0,P|372:263|383:313,1,105,0|2,3:0|0:0,0:0:0:0:
471,159,125590,2,0,P|481:107|470:56,1,105,0|2,0:0|3:2,0:0:0:0:
383,109,126313,2,0,P|332:120|280:109,1,105,8|2,0:0|0:0,0:0:0:0:
171,129,126855,2,0,P|222:118|273:129,1,105
108,176,127397,2,0,B|98:136|98:136|101:98,1,78.7500030040742,10|0,0:0|0:0,0:0:0:0:
181,208,127758,6,0,B|204:254|180:282|180:286|156:314|178:360,1,157.500006008148,0|2,3:0|0:0,0:0:0:0:
243,324,128481,1,2,0:0:0:0:
116,244,128843,2,0,B|75:234|75:234|37:236,1,78.7500030040742,0|0,3:0|3:0,0:0:0:0:
35,320,129204,2,0,B|47:284|31:256|31:256|39:236|39:236|23:208|35:168,1,157.500006008148,8|0,0:0|3:0,0:0:0:0:
142,136,129927,2,0,B|152:95|152:95|151:59,1,78.7500030040742,0|0,0:0|3:0,0:0:0:0:
134,155,130288,2,0,P|172:164|211:160,1,78.7500030040742,10|0,0:0|3:0,0:0:0:0:
271,262,130650,6,0,P|219:251|168:262,1,105,4|2,3:2|0:0,0:0:0:0:
270,358,131192,2,0,B|280:317|280:317|279:281,2,78.7500030040742
271,262,131734,2,0,B|261:221|261:221|262:185,1,78.7500030040742,2|0,3:2|0:0,0:0:0:0:
355,106,132096,2,0,P|304:116|252:106,1,105,8|2,0:0|0:0,0:0:0:0:
358,130,132819,2,0,P|319:139|280:135,1,78.7500030040742
175,114,133180,2,0,B|216:104|216:104|252:106,1,78.7500030040742,10|0,0:0|0:0,0:0:0:0:
171,182,133541,6,0,B|159:142|175:114|175:114|167:94|167:94|183:66|171:30,1,157.500006008148,0|2,3:0|0:0,0:0:0:0:
65,94,134084,2,0,P|116:105|167:94,1,105
69,70,134626,2,0,B|59:111|59:111|61:147,1,78.7500030040742,2|0,3:2|0:0,0:0:0:0:
25,213,134987,2,0,B|71:235|99:211|103:211|131:187|177:210,1,157.500006008148,10|0,0:0|3:0,0:0:0:0:
180,298,135710,2,0,B|168:258|184:230|184:230|176:210|176:210|192:182|180:146,1,157.500006008148,2|0,0:0|3:0,0:0:0:0:
184,231,136433,6,0,P|235:242|287:232,1,105,2|0,0:0|0:0,0:0:0:0:
176,210,136975,2,0,P|140:248|124:298,1,105,0|0,3:0|0:0,0:0:0:0:
184,231,137517,2,0,P|173:193|153:160,1,78.7500030040742,0|0,3:0|0:0,0:0:0:0:
197,213,137879,2,0,P|181:163|146:124,1,105,8|0,0:0|0:0,0:0:0:0:
184,231,138602,2,0,P|221:241|260:240,1,78.7500030040742,0|0,3:0|0:0,0:0:0:0:
176,210,138963,2,0,P|148:237|129:271,1,78.7500030040742,8|0,0:0|0:0,0:0:0:0:
93,337,139325,6,0,B|139:359|167:335|171:335|199:311|245:334,1,157.500006008148,2|0,0:0|0:0,0:0:0:0:
245,334,140047,1,0,0:0:0:0:
129,272,140409,1,0,0:0:0:0:
259,183,140770,1,0,0:0:0:0:
219,265,141132,37,0,0:0:0:0:
168,189,141454,1,0,0:0:0:0:
271,341,141777,1,0,0:0:0:0:
352,176,142178,5,0,0:0:0:0:
352,176,142947,1,0,0:0:0:0:
263,235,143336,1,0,0:0:0:0:
307,205,143866,1,0,0:0:0:0:
256,192,144051,12,0,147952,0:0:0:0:
307,205,148324,70,2,L|310:232,1,26.25
281,202,149441,2,2,L|284:174,1,26.25
255,205,152403,5,0,0:0:0:0:
229,202,153823,102,2,L|231:175,1,26.25
255,205,154875,6,2,L|258:232,1,26.25
335,47,155291,2,2,L|338:19,1,26.25
335,47,156761,101,0,0:0:0:0:
338,21,156858,1,0,0:0:0:0:
326,125,157240,1,0,0:0:0:0:
423,84,157618,5,0,0:0:0:0:
323,99,157951,1,0,0:0:0:0:
386,179,158316,101,0,0:0:0:0:
326,125,158666,1,0,0:0:0:0:
310,204,159050,5,0,0:0:0:0:
323,151,159464,1,0,0:0:0:0:
362,188,160004,102,2,L|365:215,1,26.25
331,181,161522,6,2,L|334:154,1,26.25
332,181,163411,101,0,0:0:0:0:
228,185,163768,1,0,0:0:0:0:
220,5,164125,5,0,0:0:0:0:
276,93,164490,1,0,0:0:0:0:
124,190,164856,101,0,0:0:0:0:
172,96,165250,1,0,0:0:0:0:
76,284,165684,5,0,0:0:0:0:
76,284,166554,102,2,L|49:287,1,26.25
24,290,167375,5,0,0:0:0:0:
56,333,168027,1,0,0:0:0:0:
96,235,168593,102,2,L|93:208,1,26.25
122,238,169315,6,2,L|119:266,1,26.25
148,235,169960,101,0,0:0:0:0:
263,223,170526,5,0,0:0:0:0:
196,130,171043,101,0,0:0:0:0:
146,261,171724,5,0,0:0:0:0:
286,211,172503,101,0,0:0:0:0:
174,115,173313,5,0,0:0:0:0:
202,196,174787,101,0,0:0:0:0:
202,196,174974,6,2,L|229:199,1,26.25
