osu file format v14

[General]
AudioFilename: audio.mp3
AudioLeadIn: 0
PreviewTime: -1
Countdown: 1
SampleSet: None
StackLeniency: 0.7
Mode: 0
LetterboxInBreaks: 0
WidescreenStoryboard: 0

[Editor]
DistanceSpacing: 0.9
BeatDivisor: 8
GridSize: 32
TimelineZoom: 1

[Metadata]
Title:cascade
TitleUnicode:cascade
Artist:Unlimits
ArtistUnicode:Unlimits
Creator:l3ssili
Version:
Source:
Tags:
BeatmapID:1695432
BeatmapSetID:807875

[Difficulty]
HPDrainRate:5
CircleSize:5
OverallDifficulty:5
ApproachRate:5
SliderMultiplier:3.4
SliderTickRate:4

[Events]
//Background and Video events
0,0,"naruto vs sasuke.png",0,0
//Break Periods
//Storyboard Layer 0 (Background)
//Storyboard Layer 1 (Fail)
//Storyboard Layer 2 (Pass)
//Storyboard Layer 3 (Foreground)
//Storyboard Sound Samples

[TimingPoints]
-157.112691688076,168.090769015268,4,2,0,100,1,0

[HitObjects]
83,287,1145,6,0,L|351:126,5,297.5
108,93,2322,1,0,0:0:0:0:
108,93,2595,1,0,0:0:0:0:
108,93,2742,1,0,0:0:0:0:
68,241,3330,2,0,L|311:43,3,297.5
370,206,3877,1,0,0:0:0:0:
370,206,4045,1,0,0:0:0:0:
90,255,4507,1,0,0:0:0:0:
230,155,4738,1,0,0:0:0:0:
230,155,4906,1,0,0:0:0:0:
230,155,5116,1,0,0:0:0:0:
21,71,5158,1,0,0:0:0:0:
230,155,5284,1,0,0:0:0:0:
72,81,5642,1,0,0:0:0:0:
237,252,6167,1,0,0:0:0:0:
237,252,6335,1,0,0:0:0:0:
237,252,6545,1,0,0:0:0:0:
50,70,7932,2,0,L|331:258,4,297.5
195,311,9024,2,0,L|270:60,3,255
14,218,9844,1,0,0:0:0:0:
14,218,10033,1,0,0:0:0:0:
197,183,10684,1,0,0:0:0:0:
337,103,11168,1,0,0:0:0:0:
389,307,11294,1,0,0:0:0:0:
369,227,11546,1,0,0:0:0:0:
172,97,11630,1,0,0:0:0:0:
30,211,12008,1,0,0:0:0:0:
240,208,12449,1,0,0:0:0:0:
216,75,12533,1,0,0:0:0:0:
240,208,12617,1,0,0:0:0:0:
240,208,12848,1,0,0:0:0:0:
471,200,12995,1,0,0:0:0:0:
245,255,13437,1,0,0:0:0:0:
272,102,13626,1,0,0:0:0:0:
272,102,13836,1,0,0:0:0:0:
167,124,13899,1,0,0:0:0:0:
163,120,14235,1,0,0:0:0:0:
289,12,14340,1,0,0:0:0:0:
163,120,14403,1,0,0:0:0:0:
365,303,14802,1,0,0:0:0:0:
123,158,14929,1,0,0:0:0:0:
123,158,15097,1,0,0:0:0:0:
124,272,15244,1,0,0:0:0:0:
183,88,15433,1,0,0:0:0:0:
183,88,15622,1,0,0:0:0:0:
202,112,15643,1,0,0:0:0:0:
301,129,16000,1,0,0:0:0:0:
297,48,16105,1,0,0:0:0:0:
64,196,16399,1,0,0:0:0:0:
267,274,16525,1,0,0:0:0:0:
141,169,16736,1,0,0:0:0:0:
183,299,16988,1,0,0:0:0:0:
79,177,17072,1,0,0:0:0:0:
141,169,17387,1,0,0:0:0:0:
173,168,17408,1,0,0:0:0:0:
286,59,17870,1,0,0:0:0:0:
141,169,17933,1,0,0:0:0:0:
141,169,18122,1,0,0:0:0:0:
245,300,18290,1,0,0:0:0:0:
194,104,18732,1,0,0:0:0:0:
362,209,18816,1,0,0:0:0:0:
362,209,18984,1,0,0:0:0:0:
362,209,19152,1,0,0:0:0:0:
362,209,19341,1,0,0:0:0:0:
149,300,19845,1,0,0:0:0:0:
71,196,20055,1,0,0:0:0:0:
71,196,20223,1,0,0:0:0:0:
145,140,20286,1,0,0:0:0:0:
71,196,20455,1,0,0:0:0:0:
71,196,20623,1,0,0:0:0:0:
71,196,20896,1,0,0:0:0:0:
71,196,21316,1,0,0:0:0:0:
281,308,21673,1,0,0:0:0:0:
403,211,21925,1,0,0:0:0:0:
268,31,22093,1,0,0:0:0:0:
403,211,22114,1,0,0:0:0:0:
403,211,22367,1,0,0:0:0:0:
123,194,22535,1,0,0:0:0:0:
403,211,22556,1,0,0:0:0:0:
403,211,22787,1,0,0:0:0:0:
399,209,22808,1,0,0:0:0:0:
403,211,22976,1,0,0:0:0:0:
403,211,23207,1,0,0:0:0:0:
403,211,23459,1,0,0:0:0:0:
261,224,23543,1,0,0:0:0:0:
403,211,23648,1,0,0:0:0:0:
228,79,23984,1,0,0:0:0:0:
73,128,24153,1,0,0:0:0:0:
114,345,25161,1,0,0:0:0:0:
301,218,25371,1,0,0:0:0:0:
301,218,25560,1,0,0:0:0:0:
225,155,25623,1,0,0:0:0:0:
301,218,25791,1,0,0:0:0:0:
301,218,25981,1,0,0:0:0:0:
301,218,26233,1,0,0:0:0:0:
301,218,26401,1,0,0:0:0:0:
188,327,26863,1,0,0:0:0:0:
9,207,26989,1,0,0:0:0:0:
9,207,27157,1,0,0:0:0:0:
189,104,27283,1,0,0:0:0:0:
9,207,27388,1,0,0:0:0:0:
129,149,27766,1,0,0:0:0:0:
157,216,27808,1,0,0:0:0:0:
129,149,27935,1,0,0:0:0:0:
129,149,28187,1,0,0:0:0:0:
250,111,28271,1,0,0:0:0:0:
179,118,28628,1,0,0:0:0:0:
262,311,28754,1,0,0:0:0:0:
179,118,28817,1,0,0:0:0:0:
179,118,29048,1,0,0:0:0:0:
171,77,29258,1,0,0:0:0:0:
323,153,29489,1,0,0:0:0:0:
71,266,29742,1,0,0:0:0:0:
323,153,29889,1,0,0:0:0:0:
323,153,30120,1,0,0:0:0:0:
261,57,30246,1,0,0:0:0:0:
323,153,30288,1,0,0:0:0:0:
323,153,30477,1,0,0:0:0:0:
326,271,30708,1,0,0:0:0:0:
165,308,30939,1,0,0:0:0:0:
115,117,31128,1,0,0:0:0:0:
367,52,32053,1,0,0:0:0:0:
19,238,32116,1,0,0:0:0:0:
19,238,32284,1,0,0:0:0:0:
295,250,32452,1,0,0:0:0:0:
19,238,32494,1,0,0:0:0:0:
19,238,32683,1,0,0:0:0:0:
401,356,32914,1,0,0:0:0:0:
196,89,32977,1,0,0:0:0:0:
196,89,33145,1,0,0:0:0:0:
399,86,33355,1,0,0:0:0:0:
196,89,33376,1,0,0:0:0:0:
196,89,33545,1,0,0:0:0:0:
65,212,33860,1,0,0:0:0:0:
65,212,34049,1,0,0:0:0:0:
208,112,34154,1,0,0:0:0:0:
65,212,34343,1,0,0:0:0:0:
448,365,34574,1,0,0:0:0:0:
152,140,34721,1,0,0:0:0:0:
152,140,34868,1,0,0:0:0:0:
330,126,35373,1,0,0:0:0:0:
127,240,35499,1,0,0:0:0:0:
127,240,35667,1,0,0:0:0:0:
322,56,35814,1,0,0:0:0:0:
127,240,35898,1,0,0:0:0:0:
127,240,36087,1,0,0:0:0:0:
163,55,36297,1,0,0:0:0:0:
385,38,36633,1,0,0:0:0:0:
306,243,36759,1,0,0:0:0:0:
63,143,36969,1,0,0:0:0:0:
473,96,37201,1,0,0:0:0:0:
190,218,37411,1,0,0:0:0:0:
296,317,37684,1,0,0:0:0:0:
355,77,37810,1,0,0:0:0:0:
261,117,38167,1,0,0:0:0:0:
104,175,38230,1,0,0:0:0:0:
388,31,38839,1,0,0:0:0:0:
253,157,39050,1,0,0:0:0:0:
253,157,39239,1,0,0:0:0:0:
185,296,39344,1,0,0:0:0:0:
253,157,39470,1,0,0:0:0:0:
253,157,39638,1,0,0:0:0:0:
25,118,39869,1,0,0:0:0:0:
253,157,39932,1,0,0:0:0:0:
253,157,40100,1,0,0:0:0:0:
261,320,40289,1,0,0:0:0:0:
312,51,40983,1,0,0:0:0:0:
79,303,41046,1,0,0:0:0:0:
79,303,41235,1,0,0:0:0:0:
131,4,41424,1,0,0:0:0:0:
148,53,42054,1,0,0:0:0:0:
395,0,42369,1,0,0:0:0:0:
377,302,42916,1,0,0:0:0:0:
166,195,43336,1,0,0:0:0:0:
201,158,43378,1,0,0:0:0:0:
166,195,43504,1,0,0:0:0:0:
166,195,43756,1,0,0:0:0:0:
194,218,43777,1,0,0:0:0:0:
166,195,43924,1,0,0:0:0:0:
319,63,44155,1,0,0:0:0:0:
325,328,44576,1,0,0:0:0:0:
347,44,44954,1,0,0:0:0:0:
424,234,45122,1,0,0:0:0:0:
163,160,45668,1,0,0:0:0:0:
194,187,45710,1,0,0:0:0:0:
322,198,46067,1,0,0:0:0:0:
329,181,46088,1,0,0:0:0:0:
322,198,46256,1,0,0:0:0:0:
322,198,46467,1,0,0:0:0:0:
323,208,46488,1,0,0:0:0:0:
322,198,46740,1,0,0:0:0:0:
356,51,46908,1,0,0:0:0:0:
256,168,47118,1,0,0:0:0:0:
178,180,47160,1,0,0:0:0:0:
256,168,47286,1,0,0:0:0:0:
209,111,48168,1,0,0:0:0:0:
209,111,48358,1,0,0:0:0:0:
209,111,48568,1,0,0:0:0:0:
358,24,48967,1,0,0:0:0:0:
85,96,49492,1,0,0:0:0:0:
113,167,49534,1,0,0:0:0:0:
85,96,49681,1,0,0:0:0:0:
85,96,49891,1,0,0:0:0:0:
225,184,49996,1,0,0:0:0:0:
85,96,50060,1,0,0:0:0:0:
301,189,50333,1,0,0:0:0:0:
409,302,50438,1,0,0:0:0:0:
301,189,50522,1,0,0:0:0:0:
43,126,51194,1,0,0:0:0:0:
43,126,51362,1,0,0:0:0:0:
403,78,51930,1,0,0:0:0:0:
403,78,52098,1,0,0:0:0:0:
204,251,53043,1,0,0:0:0:0:
94,188,54157,1,0,0:0:0:0:
388,169,54535,1,0,0:0:0:0:
226,122,54787,1,0,0:0:0:0:
226,122,54976,1,0,0:0:0:0:
397,201,55859,1,0,0:0:0:0:
397,201,56069,1,0,0:0:0:0:
121,237,56405,1,0,0:0:0:0:
341,209,56489,1,0,0:0:0:0:
253,66,56762,1,0,0:0:0:0:
253,66,56951,1,0,0:0:0:0:
208,233,57077,1,0,0:0:0:0:
61,104,57329,1,0,0:0:0:0:
305,227,57645,1,0,0:0:0:0:
366,208,58212,1,0,0:0:0:0:
246,22,58569,1,0,0:0:0:0:
328,283,58674,1,0,0:0:0:0:
66,140,58968,1,0,0:0:0:0:
411,255,59031,1,0,0:0:0:0:
210,229,59347,1,0,0:0:0:0:
202,124,59683,1,0,0:0:0:0:
63,191,60376,2,0,L|272:40,4,255
95,115,61784,1,0,0:0:0:0:
95,115,61973,1,0,0:0:0:0:
95,115,62183,1,0,0:0:0:0:
95,115,62372,1,0,0:0:0:0:
374,153,62708,1,0,0:0:0:0:
58,200,63444,1,0,0:0:0:0:
58,200,63654,1,0,0:0:0:0:
246,95,64116,1,0,0:0:0:0:
65,260,64978,1,0,0:0:0:0:
65,260,65377,1,0,0:0:0:0:
65,260,65566,1,0,0:0:0:0:
109,172,65902,1,0,0:0:0:0:
109,172,66091,1,0,0:0:0:0:
221,75,66700,1,0,0:0:0:0:
221,75,66911,1,0,0:0:0:0:
257,300,67058,2,0,L|381:246,1,127.5
270,155,67814,1,0,0:0:0:0:
270,155,68003,1,0,0:0:0:0:
270,155,68234,1,0,0:0:0:0:
270,155,68423,1,0,0:0:0:0:
52,123,68465,1,0,0:0:0:0:
52,123,68655,1,0,0:0:0:0:
46,280,68823,1,0,0:0:0:0:
285,82,69243,1,0,0:0:0:0:
285,82,69474,1,0,0:0:0:0:
285,82,69642,1,0,0:0:0:0:
17,112,69957,1,0,0:0:0:0:
334,348,70083,1,0,0:0:0:0:
334,348,70272,1,0,0:0:0:0:
408,75,70398,1,0,0:0:0:0:
334,348,70588,1,0,0:0:0:0:
334,348,70756,1,0,0:0:0:0:
108,160,71008,1,0,0:0:0:0:
365,221,71050,1,0,0:0:0:0:
108,160,71197,1,0,0:0:0:0:
108,160,71386,1,0,0:0:0:0:
410,30,71428,1,0,0:0:0:0:
134,263,71743,2,0,L|202:108,1,170
137,255,72500,2,0,L|358:107,4,255
359,91,73634,1,0,0:0:0:0:
135,173,73676,1,0,0:0:0:0:
135,173,73844,1,0,0:0:0:0:
311,280,74075,1,0,0:0:0:0:
227,76,74517,1,0,0:0:0:0:
110,296,74538,1,0,0:0:0:0:
227,76,74706,1,0,0:0:0:0:
227,76,74916,1,0,0:0:0:0:
227,76,75105,1,0,0:0:0:0:
111,274,75252,1,0,0:0:0:0:
227,76,75336,1,0,0:0:0:0:
111,274,75441,1,0,0:0:0:0:
1,120,75714,1,0,0:0:0:0:
285,226,75798,1,0,0:0:0:0:
88,161,76135,1,0,0:0:0:0:
353,84,76177,1,0,0:0:0:0:
286,303,76534,1,0,0:0:0:0:
177,148,76576,1,0,0:0:0:0:
99,300,76933,1,0,0:0:0:0:
317,33,77059,1,0,0:0:0:0:
317,33,77248,1,0,0:0:0:0:
178,200,77311,1,0,0:0:0:0:
178,200,77500,1,0,0:0:0:0:
236,104,77710,1,0,0:0:0:0:
1,50,77858,1,0,0:0:0:0:
341,226,78110,1,0,0:0:0:0:
331,108,78551,1,0,0:0:0:0:
133,42,78824,1,0,0:0:0:0:
80,186,78971,1,0,0:0:0:0:
255,210,79286,1,0,0:0:0:0:
283,195,79349,1,0,0:0:0:0:
268,313,79749,1,0,0:0:0:0:
5,183,79980,1,0,0:0:0:0:
5,183,80148,1,0,0:0:0:0:
335,154,80358,1,0,0:0:0:0:
5,183,80379,1,0,0:0:0:0:
335,154,80547,1,0,0:0:0:0:
237,24,80841,1,0,0:0:0:0:
258,260,80988,1,0,0:0:0:0:
377,290,81114,1,0,0:0:0:0:
377,290,81282,1,0,0:0:0:0:
284,160,81513,1,0,0:0:0:0:
284,160,81724,1,0,0:0:0:0:
191,334,82102,1,0,0:0:0:0:
183,189,82375,1,0,0:0:0:0:
305,305,82396,1,0,0:0:0:0:
305,305,82606,1,0,0:0:0:0:
183,189,82669,1,0,0:0:0:0:
387,123,83005,1,0,0:0:0:0:
45,101,83089,1,0,0:0:0:0:
387,123,83194,1,0,0:0:0:0:
45,101,83278,1,0,0:0:0:0:
387,123,83447,1,0,0:0:0:0:
45,101,83531,1,0,0:0:0:0:
387,123,83615,1,0,0:0:0:0:
45,101,83699,1,0,0:0:0:0:
387,123,83867,1,0,0:0:0:0:
387,123,84035,1,0,0:0:0:0:
387,123,84287,1,0,0:0:0:0:
256,192,84623,12,0,87166,0:0:0:0:
129,164,84707,5,0,0:0:0:0:
48,202,86031,1,0,0:0:0:0:
