osu file format v14

[General]
AudioFilename: audio.mp3
AudioLeadIn: 0
PreviewTime: 40552
Countdown: 0
SampleSet: Soft
StackLeniency: 0.7
Mode: 0
LetterboxInBreaks: 0
WidescreenStoryboard: 1

[Editor]
Bookmarks: 15289
DistanceSpacing: 1.3
BeatDivisor: 8
GridSize: 8
TimelineZoom: 1.4

[Metadata]
Title:Utatane Sunshine
TitleUnicode:うたたねサンシャイン
Artist:Unlimited tone
ArtistUnicode:アンリミテッドトーン
Creator:AlfaJorgito
Version:Advanced
Source:田中くんはいつもけだるげ
Tags:Tanaka kun wa itsumo kedaruge Instrumental MegaDarkLugia11
BeatmapID:1141128
BeatmapSetID:534474

[Difficulty]
HPDrainRate:5
CircleSize:4
OverallDifficulty:5
ApproachRate:5
SliderMultiplier:1.4
SliderTickRate:1

[Events]
//Background and Video events
0,0,"exmi8uu.jpg",0,0
//Break Periods
//Storyboard Layer 0 (Background)
//Storyboard Layer 1 (Fail)
//Storyboard Layer 2 (Pass)
//Storyboard Layer 3 (Foreground)
//Storyboard Sound Samples

[TimingPoints]
553,526.315789473684,4,2,1,60,1,0
15289,-125,4,2,1,15,0,0
23710,-100,4,2,1,30,0,0
40552,-100,4,2,1,80,0,1
57395,-100,4,2,1,60,0,0
97921,-100,4,2,1,45,0,0
98447,-100,4,2,1,35,0,0
98974,-100,4,2,1,25,0,0
99500,-100,4,2,1,15,0,0
100026,-100,4,2,1,10,0,0
100552,-100,4,2,1,5,0,0

[Colours]
Combo1 : 255,55,55
Combo2 : 252,191,109
Combo3 : 249,150,40

[HitObjects]
16,128,553,6,0,L|120:160,1,105,2|0,0:0|0:0,0:0:0:0:
144,192,1079,2,0,P|176:240|240:192,1,140,2|0,0:0|0:0,0:0:0:0:
264,168,1737,2,0,P|320:104|408:146,1,192.5,0|4,0:0|0:0,0:0:0:0:
184,264,3184,5,2,0:0:0:0:
344,352,3710,2,0,P|374:317|368:272,1,87.5,2|0,0:0|0:0,0:0:0:0:
328,224,4237,1,0,0:0:0:0:
232,160,4566,1,2,0:0:0:0:
48,328,5289,5,2,0:0:0:0:
224,288,5816,2,0,P|237:331|280:344,1,87.5,2|0,0:0|0:0,0:0:0:0:
336,312,6342,1,0,0:0:0:0:
312,200,6671,1,2,0:0:0:0:
96,72,7395,5,2,0:0:0:0:
48,248,7921,1,0,0:0:0:0:
104,344,8250,1,2,0:0:0:0:
160,320,8447,2,0,L|232:264,1,87.5,0|2,0:0|0:0,0:0:0:0:
384,72,9500,6,0,P|304:48|240:72,1,140,2|0,0:0|0:0,0:0:0:0:
184,88,10224,2,0,L|152:56,1,35
96,96,10552,1,2,0:0:0:0:
152,192,10881,1,4,0:0:0:0:
376,72,11605,5,8,0:0:0:0:
368,256,12131,2,0,P|328:232|272:224,1,87.5,2|0,0:0|0:0,0:0:0:0:
216,224,12658,1,8,0:0:0:0:
40,280,13184,1,8,0:0:0:0:
208,344,13710,5,8,0:0:0:0:
376,264,14237,1,2,0:0:0:0:
320,224,14434,2,0,L|288:192,1,35
224,192,14763,2,0,P|200:208|168:200,1,52.5,2|0,0:0|0:0,0:0:0:0:
177,205,15092,1,0,0:0:0:0:
96,168,15289,5,4,0:0:0:0:
192,56,15816,2,0,P|240:24|292:43,1,112,0|2,0:0|0:0,0:0:0:0:
304,184,16868,2,0,P|256:208|200:200,1,112,0|2,0:0|0:0,0:0:0:0:
136,136,17724,6,0,L|120:88,1,42,0|8,0:0|0:0,0:0:0:0:
200,40,18250,2,0,L|240:16,1,42,0|8,0:0|0:0,0:0:0:0:
344,112,18974,2,0,P|368:160|336:216,1,112,0|2,0:0|0:0,0:0:0:0:
272,264,19829,6,0,L|232:280,1,42,0|8,0:0|0:0,0:0:0:0:
144,256,20355,2,0,L|104:232,1,42,0|8,0:0|0:0,0:0:0:0:
200,120,21079,2,0,P|240:88|301:92,1,112,0|2,0:0|0:0,0:0:0:0:
368,144,21934,6,0,L|346:180,1,42,0|8,0:0|0:0,0:0:0:0:
304,256,22460,2,0,L|330:288,1,42,0|8,0:0|0:0,0:0:0:0:
184,312,23184,1,2,0:0:0:0:
48,112,23710,5,4,0:0:0:0:
120,24,24039,2,0,L|172:24,1,52.5,0|8,0:0|0:0,0:0:0:0:
104,160,24566,1,0,0:0:0:0:
104,160,24763,1,8,0:0:0:0:
280,120,25289,5,0,0:0:0:0:
304,304,25816,1,2,0:0:0:0:
200,248,26145,2,0,L|200:192,1,52.5,0|8,0:0|0:0,0:0:0:0:
104,136,26671,1,0,0:0:0:0:
104,136,26868,1,8,0:0:0:0:
280,88,27395,5,0,0:0:0:0:
312,264,27921,1,2,0:0:0:0:
408,200,28250,2,0,L|408:256,1,52.5,0|8,0:0|0:0,0:0:0:0:
224,264,28974,1,2,0:0:0:0:
336,256,29302,2,0,L|336:200,1,52.5,0|8,0:0|0:0,0:0:0:0:
440,48,30026,5,2,0:0:0:0:
328,48,30355,2,0,L|272:48,1,52.5,0|8,0:0|0:0,0:0:0:0:
224,104,30881,2,0,L|176:144,1,52.5,0|8,0:0|0:0,0:0:0:0:
256,304,31605,1,12,0:0:0:0:
296,128,32131,6,0,L|376:176,1,87.5,2|0,0:0|0:0,0:0:0:0:
400,232,32658,2,0,L|352:312,1,87.5,2|0,0:0|0:0,0:0:0:0:
288,304,33184,1,2,0:0:0:0:
136,208,33710,1,0,0:0:0:0:
224,48,34237,5,2,0:0:0:0:
336,80,34566,2,0,L|392:80,1,52.5,0|2,0:0|0:0,0:0:0:0:
384,192,35092,2,0,L|331:192,1,52.5,0|2,0:0|0:0,0:0:0:0:
168,272,35816,1,4,0:0:0:0:
64,128,36342,5,2,0:0:0:0:
64,248,36693,2,0,L|64:312,1,46.6666666666667,0|8,0:0|0:0,0:0:0:0:
248,304,37395,1,2,0:0:0:0:
248,192,37724,2,0,L|248:128,1,52.5,0|8,0:0|0:0,0:0:0:0:
64,136,38447,5,2,0:0:0:0:
64,248,38776,2,0,L|64:312,1,52.5,0|8,0:0|0:0,0:0:0:0:
176,304,39302,2,0,L|232:264,1,52.5,8|8,0:0|0:0,0:0:0:0:
344,232,39829,2,8,L|368:168,2,52.5,0|8|8,0:0|0:0|0:0,0:0:0:0:
296,240,40355,2,0,P|264:248|248:240,1,52.5,0|4,0:0|0:0,0:0:0:0:
232,56,41079,5,0,0:0:0:0:
64,128,41605,1,0,0:0:0:0:
120,224,41934,2,0,L|176:256,1,52.5
280,272,42460,2,0,P|312:272|328:248,1,52.5
288,80,43184,5,0,0:0:0:0:
200,240,43710,1,0,0:0:0:0:
96,200,44039,2,0,P|64:184|56:160,1,52.5
112,72,44566,2,0,P|136:56|168:48,1,52.5
320,136,45289,5,0,0:0:0:0:
480,232,45816,1,0,0:0:0:0:
384,296,46145,2,0,L|320:320,1,52.5
240,248,46671,2,0,L|224:184,1,52.5
72,96,47395,5,0,0:0:0:0:
144,264,47921,1,0,0:0:0:0:
248,304,48250,2,0,L|264:248,1,52.5
280,144,48776,2,0,L|224:144,1,52.5
72,232,49500,5,0,0:0:0:0:
208,352,50026,1,0,0:0:0:0:
304,296,50355,2,0,L|352:264,1,52.5
408,168,50881,2,0,L|360:128,1,52.5
192,80,51605,5,0,0:0:0:0:
48,192,52131,1,0,0:0:0:0:
160,224,52460,2,0,L|160:280,1,52.5
264,320,52987,2,0,L|312:344,1,52.5
464,240,53710,5,0,0:0:0:0:
312,144,54237,1,0,0:0:0:0:
240,240,54566,2,0,L|192:208,1,52.5
104,144,55092,2,0,L|120:80,1,52.5
296,56,55816,5,0,0:0:0:0:
116,93,56342,1,0,0:0:0:0:
216,144,56671,2,0,L|272:160,1,52.5
240,272,57197,2,0,L|176:248,1,52.5
328,296,57921,6,0,P|392:320|472:288,1,140,2|0,0:0|0:0,0:0:0:0:
464,120,58974,2,0,P|400:104|320:120,1,140,2|0,0:0|0:0,0:0:0:0:
176,216,60026,2,0,P|192:280|248:328,1,140,2|0,0:0|0:0,0:0:0:0:
416,264,61079,2,0,P|480:232|496:152,1,140,2|0,0:0|0:0,0:0:0:0:
384,168,61934,6,0,L|336:200,2,52.5
368,128,62460,1,0,0:0:0:0:
328,72,62658,2,0,L|272:56,1,52.5
232,64,62987,2,0,P|208:80|200:104,1,52.5
232,208,63513,1,0,0:0:0:0:
440,352,64237,5,0,0:0:0:0:
472,176,64763,2,0,P|472:120|440:96,1,87.5,2|0,0:0|0:0,0:0:0:0:
384,120,65289,2,0,P|376:168|408:200,1,87.5,2|0,0:0|0:0,0:0:0:0:
160,280,66342,5,8,0:0:0:0:
312,176,66868,2,0,P|304:136|264:96,1,87.5,2|0,0:0|0:0,0:0:0:0:
208,128,67395,2,0,P|208:176|240:216,1,87.5,2|0,0:0|0:0,0:0:0:0:
440,336,68447,5,8,0:0:0:0:
264,280,68974,2,0,P|256:232|288:208,1,87.5,2|0,0:0|0:0,0:0:0:0:
352,216,69500,2,0,B|376:216|376:216|432:256,1,87.5,2|0,0:0|0:0,0:0:0:0:
408,320,70026,6,0,P|357:365|292:349,1,140,2|2,0:0|0:0,0:0:0:0:
192,200,71079,2,0,P|128:216|88:288,1,140,2|0,0:0|0:0,0:0:0:0:
200,312,71934,1,0,0:0:0:0:
376,136,72658,5,8,0:0:0:0:
216,56,73184,1,2,0:0:0:0:
104,88,73513,2,0,L|48:80,1,52.5,0|2,0:0|0:0,0:0:0:0:
40,192,74039,1,0,0:0:0:0:
104,272,74763,6,0,P|128:336|200:360,1,140,2|2,0:0|0:0,0:0:0:0:
216,248,75618,1,0,0:0:0:0:
216,248,75816,2,0,P|232:208|280:184,1,87.5,2|0,0:0|0:0,0:0:0:0:
448,360,76868,5,8,0:0:0:0:
448,176,77395,2,0,P|440:112|368:40,2,140,0|8|4,0:0|0:0|0:0,0:0:0:0:
48,192,80026,5,8,0:0:0:0:
208,112,80552,2,0,P|144:72|80:104,1,140,0|8,0:0|0:0,0:0:0:0:
72,275,81605,6,0,P|40:308|41:363,1,87.5,2|0,0:0|0:0,0:0:0:0:
103,336,82131,2,0,B|144:306|139:265|139:265|173:272|206:261,1,140,2|0,0:0|0:0,0:0:0:0:
352,176,83184,6,0,P|368:136|352:96,1,87.5,2|0,0:0|0:0,0:0:0:0:
299,139,83710,2,0,B|274:101|296:62|296:62|264:65|228:39,1,140,2|0,0:0|0:0,0:0:0:0:
146,112,84566,5,0,0:0:0:0:
146,112,84763,2,0,P|98:144|130:216,1,140,2|2,0:0|0:0,0:0:0:0:
232,288,85816,6,0,P|242:329|280:348,1,87.5,2|0,0:0|0:0,0:0:0:0:
300,282,86342,2,0,B|293:237|253:224|253:224|281:214|305:176,1,140,2|0,0:0|0:0,0:0:0:0:
388,26,87395,5,0,0:0:0:0:
298,185,87921,2,0,P|266:201|242:193,1,52.5,8|0,0:0|0:0,0:0:0:0:
218,169,88250,1,0,0:0:0:0:
186,113,88447,2,0,L|130:105,1,52.5,8|0,0:0|0:0,0:0:0:0:
122,65,88776,1,0,0:0:0:0:
106,2,88974,1,4,0:0:0:0:
278,59,89500,5,0,0:0:0:0:
195,221,90026,6,0,P|163:253|163:309,1,87.5,2|0,0:0|0:0,0:0:0:0:
225,283,90552,2,0,B|282:246|254:188|254:188|293:169,1,140,2|0,0:0|0:0,0:0:0:0:
461,192,91605,6,0,P|470:152|450:106,1,87.5,2|0,0:0|0:0,0:0:0:0:
402,155,92131,2,0,B|360:94|422:47|422:47|402:27,1,140,2|0,0:0|0:0,0:0:0:0:
272,154,93184,6,0,P|200:138|168:74,3,140,8|8|8|8,0:0|0:0|0:0|0:0,0:0:0:0:
237,77,94960,2,0,L|277:69,1,35
338,55,95289,5,4,0:0:0:0:
256,192,97395,12,0,101605,0:0:0:0:
