osu file format v14

[General]
AudioFilename: audio.mp3
AudioLeadIn: 0
PreviewTime: 63082
Countdown: 0
SampleSet: Soft
StackLeniency: 0.7
Mode: 0
LetterboxInBreaks: 0
WidescreenStoryboard: 0

[Editor]
Bookmarks: 25728,29938
DistanceSpacing: 1
BeatDivisor: 4
GridSize: 8
TimelineZoom: 1

[Metadata]
Title:Utatane Sunshine (TV Size)
TitleUnicode:Utatane Sunshine (TV Size)
Artist:Unlimited Tone
ArtistUnicode:Unlimited Tone
Creator:Elva Anjani Uchiha
Version:Normal
Source:Tanaka-kun wa Itsumo Kedaruge
Tags:
BeatmapID:999884
BeatmapSetID:467311

[Difficulty]
HPDrainRate:3
CircleSize:4
OverallDifficulty:4
ApproachRate:4
SliderMultiplier:1.4
SliderTickRate:1

[Events]
//Background and Video events
0,0,"Tanaka.(Tanaka-kun.wa.Itsumo.Kedaruge).full.1996298.jpg",0,0
//Break Periods
2,16440,19131
//Storyboard Layer 0 (Background)
//Storyboard Layer 1 (Fail)
//Storyboard Layer 2 (Pass)
//Storyboard Layer 3 (Foreground)
//Storyboard Sound Samples

[TimingPoints]
3615,526.315789473684,4,2,0,48,1,0
20451,-100,4,2,0,20,0,0
24661,-100,4,2,0,12,0,0
41503,-100,4,3,0,39,0,0
49398,-100,4,2,0,58,0,0
58345,-200,4,2,0,58,0,0
63082,-100,4,2,0,73,0,0
64675,-100,4,2,0,50,0,1
65588,-100,4,2,0,50,0,0
66246,-100,4,2,0,50,0,1
67299,-100,4,2,0,50,0,0
68351,-100,4,2,0,50,0,1
69404,-100,4,2,0,50,0,0
73088,-100,4,2,0,50,0,1
81503,-100,4,2,0,20,0,0
88872,-100,4,2,0,70,0,0
98872,-100,4,2,0,45,0,0

[Colours]
Combo1 : 233,231,250
Combo2 : 125,236,139
Combo3 : 244,128,139

[HitObjects]
128,152,3609,6,0,P|160:88|224:48,1,140,0|2,0:0|0:0,0:0:0:0:
256,184,4661,2,0,P|240:256|160:304,1,140
328,264,5714,2,0,P|352:200|416:160,1,140,0|2,0:0|0:0,0:0:0:0:
304,72,6766,2,0,P|240:104|152:104,1,140
48,160,7819,5,4,0:0:0:0:
152,248,8345,1,2,0:0:0:0:
296,248,8872,1,0,0:0:0:0:
416,176,9398,1,2,0:0:0:0:
344,56,9924,2,0,B|304:48|280:80|280:80|256:48|200:56,2,140,2|2|2,0:0|0:0|0:0,0:0:0:0:
464,128,11503,6,0,P|424:192|448:248,1,140,0|2,0:0|0:0,0:0:0:0:
312,336,12556,2,0,P|240:312|168:344,1,140,0|2,0:0|0:0,0:0:0:0:
80,232,13609,2,0,P|104:160|64:96,1,140,0|2,0:0|0:0,0:0:0:0:
192,32,14661,1,0,0:0:0:0:
328,32,15187,1,2,0:0:0:0:
432,128,15714,1,0,0:0:0:0:
432,264,16240,1,4,0:0:0:0:
96,192,20451,5,0,0:0:0:0:
152,64,20977,1,0,0:0:0:0:
288,64,21503,1,0,0:0:0:0:
432,64,22030,1,0,0:0:0:0:
432,200,22556,2,0,L|432:352,1,140
296,336,23608,2,0,L|296:176,1,140
152,192,24661,6,0,P|128:128|128:48,1,140
40,168,25714,2,0,P|38:237|14:302,1,140
152,304,26766,2,0,B|224:288|224:288|304:312,1,140
288,168,27819,2,0,B|360:152|360:152|440:176,1,140
376,40,28872,6,0,B|336:40|312:72|312:72|288:40|224:40,2,140
344,176,30451,2,0,B|375:178|400:144|400:144|424:176|461:178,2,140
208,128,32030,2,0,B|152:104|120:168|64:112,1,140
80,264,33082,6,0,P|144:240|216:280,1,140
328,192,34135,2,0,P|392:168|472:208,1,140
368,88,35187,2,0,B|304:120|304:120|232:80,1,140
104,80,36240,2,0,B|72:136|72:136|120:200,1,140
120,336,37293,5,0,0:0:0:0:
256,336,37819,2,0,L|416:336,1,140
392,200,38872,1,0,0:0:0:0:
256,200,39398,2,0,L|104:200,1,140
120,56,40451,2,0,B|168:96|208:24|272:64,1,140
256,192,41503,6,0,P|280:224|280:344,1,140
176,240,42556,2,0,P|144:200|144:96,1,140
280,120,43608,2,0,B|344:144|312:200|376:216,1,140
232,216,44661,2,0,B|168:240|200:296|136:312,1,140
280,312,45714,6,0,B|320:280|320:280|408:280,2,140
240,176,47293,2,0,B|200:208|200:208|112:208,2,140
376,184,48872,1,0,0:0:0:0:
376,320,49398,1,4,0:0:0:0:
240,320,49924,6,0,P|168:272|136:200,1,140
40,128,50977,2,0,P|88:80|184:96,1,140
296,80,52030,2,0,P|364:80|412:128,1,140
416,272,53082,2,0,P|367:320|299:320,1,140
160,320,54135,5,0,0:0:0:0:
80,208,54661,1,0,0:0:0:0:
168,104,55187,1,0,0:0:0:0:
312,104,55714,2,0,L|408:208,2,140
296,240,57293,2,0,L|224:144,1,105
216,128,57819,1,2,0:0:0:0:
144,120,58345,6,0,P|112:200|136:256,1,140
192,192,59924,2,0,P|223:252|206:319,1,140
280,320,61503,2,0,L|360:320,2,70,0|0|4,0:0|0:0|0:0,0:0:0:0:
136,320,63082,6,2,P|96:248|96:168,1,140
224,240,64135,2,2,P|296:240|368:280,1,140,2|6,0:0|0:0,0:0:0:0:
472,192,65187,6,2,P|432:136|424:56,1,140
280,48,66240,2,2,P|184:48|128:96,1,140,6|2,0:0|0:0,0:0:0:0:
272,136,67293,2,2,P|340:127|402:158,1,140
280,216,68345,2,2,P|208:232|144:208,1,140,6|2,0:0|0:0,0:0:0:0:
88,80,69398,2,2,B|56:144|56:144|56:232,2,140
232,88,70977,2,2,B|264:152|264:152|264:240,2,140,2|2|6,0:0|0:0|0:0,0:0:0:0:
88,88,72556,1,6,0:0:0:0:
88,224,73082,5,6,0:0:0:0:
224,224,73608,2,2,B|264:264|296:184|360:240,1,140
248,328,74661,2,2,B|208:368|176:288|112:344,1,140
120,200,75714,2,2,B|120:112|120:112|168:64,1,140
256,176,76766,2,2,B|296:208|296:208|296:320,1,140
152,296,77819,2,2,B|152:248|120:224|120:224|120:136,1,140
184,40,78872,2,2,B|184:98|184:98|216:122|216:170,1,140
352,176,79924,2,0,B|384:176|408:136|408:136|432:176|480:176,2,140,2|0|4,0:0|0:0|0:0,0:0:0:0:
256,56,81503,6,8,L|96:56,2,140,12|8|12,0:0|0:0|0:0,0:0:0:0:
256,200,83082,1,8,0:0:0:0:
392,200,83608,2,12,B|432:256|432:256|392:328,1,140
256,320,84661,2,8,B|176:320|176:320|144:264,1,140
256,184,85714,2,8,B|336:184|336:184|365:131,1,140,8|12,0:0|0:0,0:0:0:0:
256,40,86766,6,8,B|192:8|168:88|104:40,1,140
240,128,87819,2,8,B|285:165|309:85|373:117,1,140
288,224,88872,2,0,B|328:224|344:256|344:256|360:224|408:224,2,140,0|0|4,0:0|0:0|0:0,0:0:0:0:
184,136,90451,1,2,0:0:0:0:
80,48,90977,6,2,B|40:104|40:104|40:200,1,140
160,248,92030,2,2,B|120:192|120:192|120:96,1,140
248,176,93082,2,2,B|296:176|320:216|320:216|400:216,1,140
368,72,94135,2,2,B|421:72|421:72|445:32|493:32,1,140,6|2,0:0|0:0,0:0:0:0:
496,168,95187,6,0,B|440:240|440:240|360:240,2,140,6|0|2,0:0|0:0|0:0,0:0:0:0:
360,160,96766,2,2,B|311:160|311:160|255:232,2,140,2|2|6,0:0|0:0|0:0,0:0:0:0:
360,304,98345,1,4,0:0:0:0:
256,192,98872,12,4,101503,0:0:0:0:
