osu file format v14

[General]
AudioFilename: audio.mp3
AudioLeadIn: 0
PreviewTime: -1
Countdown: 1
SampleSet: Normal
StackLeniency: 0.7
Mode: 0
LetterboxInBreaks: 0
WidescreenStoryboard: 0

[Editor]
DistanceSpacing: 1
BeatDivisor: 4
GridSize: 32
TimelineZoom: 1.8

[Metadata]
Title:Worst In Me
TitleUnicode:Worst In Me
Artist:Unlike Pluto
ArtistUnicode:Unlike Pluto
Creator:MistyAnima
Version:Horrible Day
Source:
Tags:jump,jumpspam,spam
BeatmapID:1749273
BeatmapSetID:835181

[Difficulty]
HPDrainRate:7
CircleSize:5
OverallDifficulty:6
ApproachRate:7
SliderMultiplier:1.4
SliderTickRate:1

[Events]
//Background and Video events
0,0,"UIBackgroundBitmap (2).jpg",0,0
//Break Periods
//Storyboard Layer 0 (Background)
//Storyboard Layer 1 (Fail)
//Storyboard Layer 2 (Pass)
//Storyboard Layer 3 (Foreground)
//Storyboard Sound Samples

[TimingPoints]
1436,319.148936170213,4,1,0,100,1,0

[HitObjects]
48,86,1436,5,0,0:0:0:0:
72,166,1755,1,0,0:0:0:0:
93,244,2074,2,0,P|199:238|203:257,1,140
148,293,2553,1,0,0:0:0:0:
245,287,2712,2,0,P|378:287|380:277,1,175
65,225,3510,2,0,P|323:218|342:208,1,280
364,180,4467,1,0,0:0:0:0:
276,275,4627,1,0,0:0:0:0:
276,182,4866,1,0,0:0:0:0:
192,274,5186,5,0,0:0:0:0:
95,230,5505,1,0,0:0:0:0:
198,260,5824,2,0,P|373:263|383:255,1,175
368,204,6303,2,0,P|198:188|183:177,1,175
52,178,6861,5,0,0:0:0:0:
88,255,7180,1,0,0:0:0:0:
148,287,7499,2,0,P|252:288|264:280,1,105
326,310,7898,1,0,0:0:0:0:
402,302,8058,2,0,P|401:224|389:204,1,70
387,159,8297,1,0,0:0:0:0:
332,202,8537,1,0,0:0:0:0:
269,244,8616,2,0,P|135:240|119:233,1,140
57,241,9015,2,0,P|72:158|81:148,1,70
62,172,9255,1,0,0:0:0:0:
173,167,9574,5,0,0:0:0:0:
242,139,9893,1,0,0:0:0:0:
92,68,10132,1,0,0:0:0:0:
95,189,10292,1,0,0:0:0:0:
160,131,10611,1,0,0:0:0:0:
185,242,10930,1,0,0:0:0:0:
255,189,11329,1,0,0:0:0:0:
77,126,11648,2,0,P|293:123|301:118,1,210
334,90,12287,2,0,P|335:271|330:273,1,210
289,297,12925,1,0,0:0:0:0:
91,297,13005,6,0,P|219:211|232:208,1,140
74,124,13723,5,0,0:0:0:0:
144,237,14042,1,0,0:0:0:0:
267,92,14361,1,0,0:0:0:0:
459,91,14680,1,0,0:0:0:0:
396,161,14840,2,0,P|306:168|296:164,1,70
265,170,15079,1,0,0:0:0:0:
413,325,15558,5,0,0:0:0:0:
348,206,15717,1,0,0:0:0:0:
330,274,15877,2,0,P|233:273|228:272,1,70
195,279,16116,1,0,0:0:0:0:
118,269,16196,2,0,P|115:174|117:168,1,70
175,189,16436,5,0,0:0:0:0:
102,47,16755,1,0,0:0:0:0:
169,88,16834,2,0,P|246:118|254:116,1,70
297,121,17074,1,0,0:0:0:0:
192,269,17553,5,0,0:0:0:0:
257,189,17792,1,0,0:0:0:0:
117,132,18031,1,0,0:0:0:0:
150,238,18350,1,0,0:0:0:0:
211,159,18510,1,0,0:0:0:0:
221,242,18590,2,0,P|316:241|322:239,1,70
290,246,18829,1,0,0:0:0:0:
325,158,19148,5,0,0:0:0:0:
407,196,19467,1,0,0:0:0:0:
472,226,19547,2,0,P|472:299|469:306,1,70
412,335,19787,1,0,0:0:0:0:
221,221,20186,1,0,0:0:0:0:
79,233,20505,1,0,0:0:0:0:
256,192,20664,12,0,21941,0:0:0:0:
57,169,22180,6,0,B|239:170|234:311|234:311|360:311|378:277|378:277|378:204,1,455
87,173,23856,1,0,0:0:0:0:
231,178,24095,1,0,0:0:0:0:
346,177,24334,1,0,0:0:0:0:
235,287,24574,1,0,0:0:0:0:
102,290,24733,2,0,P|99:184|101:180,1,105
156,177,25053,1,0,0:0:0:0:
161,226,25292,2,0,P|356:223|370:217,1,210
427,182,25930,1,0,0:0:0:0:
361,235,26010,2,0,P|192:162|190:159,1,175
148,117,26489,5,0,0:0:0:0:
228,40,26648,1,0,0:0:0:0:
303,71,26728,2,0,P|182:311|179:315,1,245
111,285,27366,1,0,0:0:0:0:
114,179,27686,5,0,0:0:0:0:
234,292,27845,1,0,0:0:0:0:
238,182,28005,1,0,0:0:0:0:
