osu file format v14

[General]
AudioFilename: audio.mp3
AudioLeadIn: 0
PreviewTime: -1
Countdown: 1
SampleSet: None
StackLeniency: 0.7
Mode: 0
LetterboxInBreaks: 0
WidescreenStoryboard: 1

[Editor]
DistanceSpacing: 0.9
BeatDivisor: 8
GridSize: 16
TimelineZoom: 2.1

[Metadata]
Title:Everything Black (ft Mike Taylor)
TitleUnicode:Everything Black (ft Mike Taylor)
Artist:Unlike Pluto
ArtistUnicode:Unlike Pluto
Creator:RitnTV
Version:Normal
Source:Unlike Pluto
Tags:Unlike Pluto Everything Black Ritn Ritntv
BeatmapID:1240334
BeatmapSetID:584973

[Difficulty]
HPDrainRate:7
CircleSize:5
OverallDifficulty:9
ApproachRate:9
SliderMultiplier:1.6
SliderTickRate:1

[Events]
//Background and Video events
0,0,"Unlike Pluto1.png",0,0
//Break Periods
//Storyboard Layer 0 (Background)
//Storyboard Layer 1 (Fail)
//Storyboard Layer 2 (Pass)
//Storyboard Layer 3 (Foreground)
//Storyboard Sound Samples

[TimingPoints]
0,612.432377258344,4,1,0,75,1,0

[HitObjects]
205,131,76,6,0,L|316:267,1,160
297,131,1301,2,0,L|198:268,1,160
256,192,2526,1,0,0:0:0:0:
256,192,3138,1,0,0:0:0:0:
256,192,4976,12,0,7502,0:0:0:0:
256,192,7502,12,0,9263,0:0:0:0:
256,192,10334,6,0,P|208:144|160:128,1,120
144,160,11023,2,0,P|112:192|96:224,1,80
128,256,11636,2,0,L|208:272,1,80
144,304,12248,2,0,P|224:304|320:256,1,180
256,192,14162,1,0,0:0:0:0:
64,48,14928,5,0,0:0:0:0:
112,80,15157,2,0,L|160:96,1,40
64,128,15463,2,0,B|96:144|144:128|144:128,1,80
142,128,15923,2,0,P|222:160|270:224,1,160
400,64,17760,5,0,0:0:0:0:
352,32,17913,2,0,L|320:64,1,40
240,64,18219,2,0,B|272:128|352:160|400:128,1,160
336,192,18985,2,0,L|160:160,2,160
368,208,20363,2,0,P|416:224|432:240,1,60
432,256,20822,2,0,P|368:288|352:288,1,80
272,208,21435,1,0,0:0:0:0:
272,208,21741,1,0,0:0:0:0:
336,208,22047,2,0,P|272:144|208:176,1,160
256,192,23884,5,0,0:0:0:0:
64,304,24880,6,0,L|112:240,2,80
128,320,25645,2,0,P|192:272|224:176,1,160
192,176,26411,1,0,0:0:0:0:
404,308,27482,5,0,0:0:0:0:
400,304,27636,1,0,0:0:0:0:
400,301,27789,2,0,B|431:226|412:178|403:139|411:149,1,140
393,48,28707,5,0,0:0:0:0:
363,32,28784,1,0,0:0:0:0:
309,41,29013,2,0,P|278:54|160:48,2,140
336,112,30468,2,0,P|352:144|380:168,1,60
336,112,31157,5,0,0:0:0:0:
368,144,31310,2,0,L|336:176,1,40
368,208,31616,2,0,L|288:256,1,80
128,112,32458,5,0,0:0:0:0:
116,146,32612,1,0,0:0:0:0:
110,181,32765,1,0,0:0:0:0:
116,216,32918,1,0,0:0:0:0:
136,245,33071,1,0,0:0:0:0:
165,265,33224,2,0,P|221:264|270:229,1,100
272,160,33836,2,0,P|192:160|192:80,1,160
256,192,34985,5,0,0:0:0:0:
256,192,35291,2,0,P|301:212|336:240,1,80
258,191,36210,5,0,0:0:0:0:
258,191,36516,2,0,P|228:224|183:249,1,80
162,90,37205,5,0,0:0:0:0:
162,90,37511,2,0,L|184:137,1,40
232,154,37817,1,0,0:0:0:0:
185,198,37970,1,0,0:0:0:0:
185,198,38123,2,0,P|242:212|299:185,1,120
185,198,38736,2,0,P|242:212|328:158,1,160
269,199,39884,5,0,0:0:0:0:
176,272,40037,1,0,0:0:0:0:
240,272,40190,2,0,P|272:304|336:336,1,80
368,288,40956,2,0,P|352:208|251:154,1,200
80,208,42257,1,0,0:0:0:0:
105,232,42410,1,0,0:0:0:0:
136,249,42564,1,0,0:0:0:0:
171,256,42717,1,0,0:0:0:0:
206,253,42870,2,0,L|277:201,2,80
206,253,43635,6,0,L|278:202,1,80
183,102,44248,1,0,0:0:0:0:
359,69,44554,1,0,0:0:0:0:
183,102,45166,1,0,0:0:0:0:
359,69,45473,1,0,0:0:0:0:
183,102,46085,1,0,0:0:0:0:
186,105,46315,1,0,0:0:0:0:
183,102,46621,2,0,L|341:68,1,160
389,212,47540,1,0,0:0:0:0:
224,274,47922,1,0,0:0:0:0:
192,128,48458,6,0,L|336:240,1,160
127,160,49683,5,0,0:0:0:0:
198,223,50066,1,0,0:0:0:0:
203,103,50602,5,0,0:0:0:0:
259,146,50908,2,0,P|297:107|363:92,1,120
127,160,51520,5,0,0:0:0:0:
197,175,51827,2,0,L|164:245,2,60
240,224,52516,1,0,0:0:0:0:
229,259,52745,2,0,B|277:242|303:223|315:169,1,120
298,150,53358,1,0,0:0:0:0:
308,115,53511,1,0,0:0:0:0:
334,91,53664,1,0,0:0:0:0:
367,78,53817,1,0,0:0:0:0:
266,56,54047,5,0,0:0:0:0:
256,191,54659,5,0,0:0:0:0:
316,231,54889,2,0,P|253:259|202:246,1,120
256,191,55501,5,0,0:0:0:0:
320,256,55884,1,0,0:0:0:0:
256,191,56190,1,0,0:0:0:0:
318,264,56496,2,0,L|160:240,1,160
256,192,57415,5,0,0:0:0:0:
256,192,57721,1,0,0:0:0:0:
256,192,58027,1,0,0:0:0:0:
298,150,58334,1,0,0:0:0:0:
308,115,58487,1,0,0:0:0:0:
334,91,58640,1,0,0:0:0:0:
367,78,58793,1,0,0:0:0:0:
256,192,58946,5,0,0:0:0:0:
256,192,59559,1,0,0:0:0:0:
298,150,60171,1,0,0:0:0:0:
308,115,60324,1,0,0:0:0:0:
334,91,60477,1,0,0:0:0:0:
367,78,60630,1,0,0:0:0:0:
192,128,60783,5,0,0:0:0:0:
202,93,60936,1,0,0:0:0:0:
228,69,61089,1,0,0:0:0:0:
261,56,61242,1,0,0:0:0:0:
304,48,61396,2,0,L|384:32,1,80
256,192,62008,5,0,0:0:0:0:
168,240,62621,1,0,0:0:0:0:
140,263,62774,1,0,0:0:0:0:
121,293,62927,1,0,0:0:0:0:
114,328,63080,1,0,0:0:0:0:
291,204,63310,5,0,0:0:0:0:
263,227,63463,1,0,0:0:0:0:
244,257,63616,1,0,0:0:0:0:
210,299,63846,2,0,L|135:334,1,80
256,192,64458,5,0,0:0:0:0:
199,119,65070,1,0,0:0:0:0:
170,97,65224,1,0,0:0:0:0:
134,92,65377,1,0,0:0:0:0:
98,100,65530,1,0,0:0:0:0:
246,167,65683,5,0,0:0:0:0:
273,189,65835,1,0,0:0:0:0:
295,217,65989,1,0,0:0:0:0:
305,251,66142,1,0,0:0:0:0:
279,264,66295,2,0,L|187:241,1,80
256,192,66908,5,0,0:0:0:0:
168,240,67444,1,0,0:0:0:0:
140,263,67597,1,0,0:0:0:0:
121,293,67750,1,0,0:0:0:0:
114,328,67903,1,0,0:0:0:0:
291,204,68133,5,0,0:0:0:0:
263,227,68286,1,0,0:0:0:0:
244,257,68439,1,0,0:0:0:0:
237,292,68592,1,0,0:0:0:0:
282,321,68745,1,0,0:0:0:0:
282,321,69357,2,0,L|355:278,1,80
282,321,69970,2,0,L|355:278,1,80
129,87,70506,5,0,0:0:0:0:
153,113,70659,1,0,0:0:0:0:
176,139,70812,1,0,0:0:0:0:
199,165,70965,1,0,0:0:0:0:
223,191,71118,2,0,L|286:253,1,80
256,192,71731,5,0,0:0:0:0:
256,192,72343,1,0,0:0:0:0:
403,64,72956,1,0,0:0:0:0:
378,90,73109,1,0,0:0:0:0:
353,116,73262,1,0,0:0:0:0:
329,143,73415,1,0,0:0:0:0:
305,170,73568,2,0,L|246:231,1,80
226,254,74027,1,0,0:0:0:0:
168,212,74180,5,0,0:0:0:0:
208,128,74487,1,0,0:0:0:0:
269,197,74793,1,0,0:0:0:0:
208,128,75099,1,0,0:0:0:0:
208,128,75252,1,0,0:0:0:0:
256,192,75405,5,0,0:0:0:0:
304,128,75711,1,0,0:0:0:0:
208,128,76171,1,0,0:0:0:0:
256,64,76477,1,0,0:0:0:0:
304,128,76630,1,0,0:0:0:0:
256,64,76936,1,0,0:0:0:0:
208,128,77243,1,0,0:0:0:0:
304,128,77549,1,0,0:0:0:0:
256,192,77702,1,0,0:0:0:0:
256,192,77855,2,0,L|256:301,2,100
282,321,79080,6,0,L|355:278,1,80
282,321,79693,2,0,L|355:278,1,80
129,87,80305,5,0,0:0:0:0:
153,113,80458,1,0,0:0:0:0:
176,139,80611,1,0,0:0:0:0:
199,165,80764,1,0,0:0:0:0:
223,191,80917,2,0,L|286:253,1,80
256,192,81530,5,0,0:0:0:0:
256,192,82142,1,0,0:0:0:0:
403,64,82755,1,0,0:0:0:0:
378,90,82908,1,0,0:0:0:0:
353,116,83061,1,0,0:0:0:0:
329,143,83214,1,0,0:0:0:0:
305,170,83367,2,0,L|246:231,1,80
196,219,83826,5,0,0:0:0:0:
212,132,84132,1,0,0:0:0:0:
256,192,84439,1,0,0:0:0:0:
208,128,84745,1,0,0:0:0:0:
208,128,85051,1,0,0:0:0:0:
208,128,85204,1,0,0:0:0:0:
304,128,85510,5,0,0:0:0:0:
208,128,85817,1,0,0:0:0:0:
256,64,86123,1,0,0:0:0:0:
304,128,86276,1,0,0:0:0:0:
256,64,86582,1,0,0:0:0:0:
208,128,86889,1,0,0:0:0:0:
304,128,87195,1,0,0:0:0:0:
256,192,87348,1,0,0:0:0:0:
256,192,87501,2,0,L|256:301,2,100
296,332,88879,6,0,B|340:306|369:279|380:241,2,120
245,318,90104,1,0,0:0:0:0:
