osu file format v14

[General]
AudioFilename: audio.mp3
AudioLeadIn: 0
PreviewTime: -1
Countdown: 1
SampleSet: Normal
StackLeniency: 0.7
Mode: 0
LetterboxInBreaks: 0
WidescreenStoryboard: 1

[Editor]
DistanceSpacing: 1.5
BeatDivisor: 4
GridSize: 32
TimelineZoom: 1

[Metadata]
Title:Everything Black (feat. Mike Taylor)
TitleUnicode:Everything Black (feat. Mike Taylor)
Artist:Unlike Pluto
ArtistUnicode:Unlike Pluto
Creator:CoolGuyRift
Version:Easy
Source:
Tags:
BeatmapID:1486195
BeatmapSetID:589603

[Difficulty]
HPDrainRate:4
CircleSize:3
OverallDifficulty:2
ApproachRate:6
SliderMultiplier:1.4
SliderTickRate:2

[Events]
//Background and Video events
0,0,"1000000x1000000-999-1.jpg",0,0
//Break Periods
2,49179,57725
2,88363,96909
2,127546,136092
2,166730,175276
//Storyboard Layer 0 (Background)
//Storyboard Layer 1 (Fail)
//Storyboard Layer 2 (Pass)
//Storyboard Layer 3 (Foreground)
//Storyboard Sound Samples

[TimingPoints]
0,612.244897959184,4,1,0,100,1,0

[Colours]
Combo1 : 192,192,192
Combo2 : 0,0,0
Combo3 : 255,255,255
Combo4 : 128,128,128

[HitObjects]
192,128,9795,5,0,2:0:0:0:
352,224,10408,1,0,2:0:0:0:
192,320,11632,1,0,2:0:0:0:
384,288,12244,1,0,2:0:0:0:
256,256,12871,1,0,2:0:0:0:
160,96,14081,1,0,2:0:0:0:
288,224,14693,5,0,2:0:0:0:
96,96,15306,1,0,2:0:0:0:
416,224,16530,1,0,2:0:0:0:
224,128,17142,1,0,2:0:0:0:
160,256,17755,1,0,2:0:0:0:
384,96,18979,1,0,2:0:0:0:
160,96,19591,5,0,2:0:0:0:
320,288,20204,1,0,2:0:0:0:
128,96,21428,1,0,2:0:0:0:
224,320,22040,1,0,2:0:0:0:
352,96,22653,1,0,2:0:0:0:
160,160,23877,1,0,2:0:0:0:
320,288,24489,5,0,2:0:0:0:
224,96,25102,1,0,2:0:0:0:
384,256,26326,1,0,2:0:0:0:
192,64,26938,1,0,2:0:0:0:
160,288,27551,1,0,2:0:0:0:
160,96,28622,2,0,L|96:96,2,35,0|0|0,2:0|2:0|2:0,2:0:0:0:
384,96,29387,6,0,P|416:160|416:256,1,140,0|0,2:0|2:0,2:0:0:0:
224,256,30612,1,0,2:0:0:0:
96,128,31224,1,0,2:0:0:0:
96,320,31836,6,0,P|192:288|192:256,1,140,0|0,2:0|2:0,2:0:0:0:
384,224,33061,1,0,2:0:0:0:
192,96,33673,1,0,2:0:0:0:
96,288,34285,6,0,P|192:288|224:256,1,140,0|0,2:0|2:0,2:0:0:0:
416,288,35510,1,0,2:0:0:0:
320,128,36122,1,0,2:0:0:0:
96,160,36734,6,0,P|128:96|192:96,1,140,0|0,2:0|2:0,2:0:0:0:
384,224,37959,1,0,2:0:0:0:
160,160,38571,1,0,2:0:0:0:
352,288,39183,6,0,P|384:224|352:160,1,140,0|0,2:0|2:0,2:0:0:0:
160,96,40408,1,0,2:0:0:0:
288,288,41020,1,0,2:0:0:0:
416,160,41632,6,0,P|384:96|320:96,1,140,0|0,2:0|2:0,2:0:0:0:
416,288,42857,1,0,2:0:0:0:
160,224,43469,1,0,2:0:0:0:
160,64,44081,6,0,P|256:64|288:96,1,140,0|0,2:0|2:0,2:0:0:0:
384,256,45306,1,0,2:0:0:0:
160,224,45918,1,0,2:0:0:0:
192,64,46530,6,0,B|256:64|288:96|320:160,1,140,0|0,2:0|2:0,2:0:0:0:
128,256,47755,1,0,2:0:0:0:
320,192,48367,1,0,2:0:0:0:
160,128,48979,1,0,2:0:0:0:
128,96,58775,6,0,P|224:64|256:96,1,140,0|0,2:0|2:0,2:0:0:0:
384,224,60000,1,0,2:0:0:0:
128,256,60612,1,0,2:0:0:0:
128,96,61224,6,0,P|224:64|288:64,1,140,0|0,2:0|2:0,2:0:0:0:
416,224,62448,1,0,2:0:0:0:
128,256,63061,1,0,2:0:0:0:
128,96,63673,6,0,P|224:64|256:96,1,140,0|0,2:0|2:0,2:0:0:0:
384,224,64897,2,0,P|320:256|224:256,1,140,0|0,2:0|2:0,2:0:0:0:
96,192,66122,6,0,P|128:96|160:96,1,140,0|0,2:0|2:0,2:0:0:0:
256,192,67346,12,0,68571,0:0:0:0:
128,96,69183,5,0,0:0:0:0:
256,320,69795,1,0,0:0:0:0:
384,192,70408,1,0,0:0:0:0:
288,96,70714,1,0,0:0:0:0:
192,160,71020,1,0,0:0:0:0:
352,256,71632,5,0,0:0:0:0:
192,96,72244,1,0,0:0:0:0:
96,256,72857,1,0,0:0:0:0:
192,320,73163,1,0,0:0:0:0:
288,256,73469,1,0,0:0:0:0:
416,160,74081,6,0,P|448:128|448:96,1,70
320,64,74693,2,0,P|256:64|224:64,1,70
160,160,75306,1,0,0:0:0:0:
288,288,75918,1,0,0:0:0:0:
448,192,76530,6,0,P|416:160|384:160,1,70
288,160,77142,2,0,P|224:160|192:160,1,70
128,288,77755,1,0,0:0:0:0:
160,64,78367,5,0,0:0:0:0:
192,256,78979,1,0,0:0:0:0:
384,160,79591,1,0,0:0:0:0:
192,64,80204,1,0,0:0:0:0:
96,128,80510,1,0,0:0:0:0:
96,224,80816,5,0,0:0:0:0:
256,320,81428,1,0,0:0:0:0:
384,192,82040,1,0,0:0:0:0:
224,96,82653,1,0,0:0:0:0:
128,160,82959,1,0,0:0:0:0:
224,224,83265,5,0,0:0:0:0:
384,160,83877,2,0,P|352:128|320:128,1,70
192,128,84489,2,0,L|96:128,1,70
64,224,85102,1,0,0:0:0:0:
256,288,85714,5,0,0:0:0:0:
416,224,86326,2,0,P|384:192|352:192,1,70
256,160,86938,2,0,L|160:160,1,70
96,96,87551,1,0,0:0:0:0:
256,192,88163,1,0,0:0:0:0:
128,256,97959,6,0,P|96:224|96:192,2,70,0|0|0,2:0|2:0|2:0,2:0:0:0:
320,288,99183,1,0,2:0:0:0:
384,128,99795,1,0,2:0:0:0:
160,160,100408,6,0,P|192:128|224:128,2,70,0|0|0,2:0|2:0|2:0,2:0:0:0:
256,320,101632,1,0,2:0:0:0:
352,192,102244,1,0,2:0:0:0:
128,192,102857,6,0,P|160:160|192:160,2,70,0|0|0,2:0|2:0|2:0,2:0:0:0:
256,320,104081,1,0,2:0:0:0:
128,192,104693,1,0,2:0:0:0:
352,192,105306,6,0,P|320:160|288:160,2,70,0|0|0,2:0|2:0|2:0,2:0:0:0:
224,320,106530,1,0,2:0:0:0:
320,224,106989,2,0,L|352:192,2,35,0|0|0,2:0|2:0|2:0,2:0:0:0:
160,256,107755,6,0,P|128:192|160:128,1,140,0|8,2:0|2:0,2:0:0:0:
288,96,108979,2,0,P|256:128|256:160,1,70,0|0,2:0|2:0,2:0:0:0:
320,224,109591,2,0,P|352:192|352:160,1,70,8|0,2:0|2:0,2:0:0:0:
288,96,110204,6,0,P|224:64|160:96,1,140,0|8,2:0|2:0,2:0:0:0:
96,192,111428,2,0,P|64:224|64:256,1,70,0|0,2:0|2:0,2:0:0:0:
160,288,112040,2,0,P|192:256|192:224,1,70,8|0,2:0|2:0,2:0:0:0:
224,128,112653,6,0,P|288:96|352:128,1,140,0|8,2:0|2:0,2:0:0:0:
416,224,113877,2,0,P|384:256|352:256,1,70,0|0,2:0|2:0,2:0:0:0:
288,224,114489,2,0,P|320:192|352:192,1,70,8|0,2:0|2:0,2:0:0:0:
448,192,115102,6,0,P|416:128|352:128,1,140,0|8,2:0|2:0,2:0:0:0:
288,192,116326,2,0,P|256:160|256:128,1,70,0|0,2:0|2:0,2:0:0:0:
192,96,116938,2,0,P|160:128|160:160,1,70,8|0,2:0|2:0,2:0:0:0:
192,256,117551,6,0,P|256:224|256:160,1,140,0|8,2:0|2:0,2:0:0:0:
96,96,118775,1,0,2:0:0:0:
96,192,119081,2,0,P|128:224|160:224,1,70,0|8,2:0|2:0,2:0:0:0:
224,160,119693,1,0,2:0:0:0:
320,96,120000,6,0,P|416:96|448:128,1,140,0|8,2:0|2:0,2:0:0:0:
352,192,121224,1,0,2:0:0:0:
256,224,121530,2,0,P|224:192|224:160,1,70,0|8,2:0|2:0,2:0:0:0:
128,160,122142,1,0,2:0:0:0:
192,256,122448,6,0,P|288:256|320:224,1,140,0|8,2:0|2:0,2:0:0:0:
224,128,123673,1,0,2:0:0:0:
160,192,123979,2,0,P|192:224|224:224,1,70,0|8,2:0|2:0,2:0:0:0:
288,192,124591,1,0,2:0:0:0:
352,128,124897,6,0,P|320:64|288:96,1,140,0|8,2:0|2:0,2:0:0:0:
256,192,126122,12,0,127346,2:0:0:0:
192,128,137142,5,0,2:0:0:0:
256,288,137755,1,8,2:0:0:0:
320,160,138367,2,0,P|288:64|256:64,1,140,0|8,2:0|2:0,2:0:0:0:
128,128,139591,5,0,2:0:0:0:
256,288,140204,1,8,2:0:0:0:
352,192,140816,2,0,P|320:128|256:128,1,140,0|8,2:0|2:0,2:0:0:0:
160,256,142040,6,0,P|96:192|96:128,1,140,0|8,2:0|2:0,2:0:0:0:
192,96,143265,2,0,P|256:128|256:192,1,140,0|8,2:0|2:0,2:0:0:0:
160,160,144489,6,0,P|192:128|224:128,1,70,0|0,2:0|2:0,2:0:0:0:
320,128,145102,2,0,P|352:160|352:192,1,70,8|0,2:0|2:0,2:0:0:0:
256,192,145714,12,0,146938,0:0:0:0:
160,128,147551,5,0,0:0:0:0:
256,320,148163,1,0,0:0:0:0:
352,160,148775,2,0,L|320:128,4,35
96,128,150000,5,0,0:0:0:0:
256,288,150612,1,0,0:0:0:0:
384,160,151224,2,0,L|352:128,4,35
320,256,152142,5,0,0:0:0:0:
192,224,152448,1,0,0:0:0:0:
288,96,153061,1,0,0:0:0:0:
352,256,153673,1,0,0:0:0:0:
192,288,154285,2,0,P|128:224|128:160,1,140
288,128,155510,5,0,0:0:0:0:
352,192,155816,1,0,0:0:0:0:
256,224,156122,1,0,0:0:0:0:
128,128,156734,6,0,P|192:64|224:96,1,140
128,128,157959,2,0,P|160:192|224:192,1,140
320,96,159183,6,0,P|256:64|192:96,1,140
192,96,160408,2,0,P|256:160|320:128,1,140
192,64,161632,5,0,0:0:0:0:
128,160,161938,1,0,0:0:0:0:
224,160,162244,1,0,0:0:0:0:
320,288,162857,2,0,P|352:224|320:160,1,140
160,96,164081,5,0,0:0:0:0:
64,160,164387,1,0,0:0:0:0:
160,192,164693,1,0,0:0:0:0:
320,192,165306,2,0,P|288:96|256:96,1,140
192,192,166530,1,0,0:0:0:0:
128,128,176326,6,0,P|224:96|288:96,1,140,0|0,2:0|2:0,2:0:0:0:
384,96,178775,6,0,P|352:192|320:224,1,140,0|0,2:0|2:0,2:0:0:0:
160,288,181224,6,0,P|128:224|160:160,1,140,0|0,2:0|2:0,2:0:0:0:
352,288,183673,6,0,P|384:192|352:160,1,140,0|0,2:0|2:0,2:0:0:0:
192,224,185510,2,0,L|160:192,4,35
352,160,186734,5,8,0:0:0:0:
160,64,187346,1,0,0:0:0:0:
256,224,187959,1,8,0:0:0:0:
96,320,188571,5,0,0:0:0:0:
128,128,189183,1,8,0:0:0:0:
256,192,189795,1,0,0:0:0:0:
384,96,190408,1,8,0:0:0:0:
192,64,191020,5,0,0:0:0:0:
128,224,191632,1,8,0:0:0:0:
256,128,192244,1,0,0:0:0:0:
96,64,192857,1,8,0:0:0:0:
192,224,193469,5,0,0:0:0:0:
384,192,194081,1,8,0:0:0:0:
224,64,194693,1,0,0:0:0:0:
192,256,195306,1,8,0:0:0:0:
352,192,195918,6,0,L|320:160,6,35,0|0|0|0|8|0|0,0:0|0:0|0:0|0:0|0:0|0:0|0:0,0:0:0:0:
288,256,197142,1,0,0:0:0:0:
160,224,197755,1,8,0:0:0:0:
160,96,198367,6,0,L|192:64,6,35,0|0|0|0|8|0|0,0:0|0:0|0:0|0:0|0:0|0:0|0:0,0:0:0:0:
160,192,199591,1,0,0:0:0:0:
288,128,200204,1,8,0:0:0:0:
128,96,200816,6,0,P|96:160|128:224,1,140,0|8,0:0|0:0,0:0:0:0:
320,224,202040,6,0,P|352:160|320:96,1,140,0|8,0:0|0:0,0:0:0:0:
256,192,203265,12,0,205714,0:0:0:0:
128,96,206326,5,0,0:0:0:0:
320,96,206938,5,0,0:0:0:0:
160,224,207551,6,0,L|128:192,4,35
320,128,208775,5,0,0:0:0:0:
96,96,209387,5,0,0:0:0:0:
192,224,210000,6,0,L|224:192,4,35
352,256,211224,6,0,P|384:224|384:192,1,70
352,128,211836,2,0,P|320:96|288:96,1,70
224,192,212448,1,0,0:0:0:0:
224,64,213061,5,0,0:0:0:0:
128,160,213673,2,0,P|160:192|192:192,1,70
256,192,214285,2,0,P|288:160|320:160,1,70
384,224,214897,1,0,0:0:0:0:
192,256,215510,6,0,P|160:224|160:192,1,70
224,128,216122,1,0,0:0:0:0:
352,192,216734,1,0,0:0:0:0:
224,256,217346,2,0,P|192:224|192:192,1,70
224,96,217959,6,0,P|256:128|288:128,1,70
352,192,218571,1,0,0:0:0:0:
224,224,219183,1,0,0:0:0:0:
64,160,219795,2,0,P|96:128|128:128,1,70
224,192,220408,5,0,0:0:0:0:
320,256,220714,1,0,0:0:0:0:
352,160,221020,1,0,0:0:0:0:
192,96,221632,2,0,P|160:128|160:160,1,70
224,224,222244,1,0,0:0:0:0:
352,192,222857,5,0,0:0:0:0:
416,128,223163,1,0,0:0:0:0:
352,64,223469,1,0,0:0:0:0:
224,128,224081,2,0,P|192:160|192:192,1,70
224,256,224693,1,0,0:0:0:0:
256,160,225306,5,0,0:0:0:0:
