osu file format v14

[General]
AudioFilename: audio.mp3
AudioLeadIn: 0
PreviewTime: 100644
Countdown: 0
SampleSet: Soft
StackLeniency: 0.8
Mode: 0
LetterboxInBreaks: 0
WidescreenStoryboard: 1

[Editor]
Bookmarks: 76373,77408,118402,126678,145299,149782,170816
DistanceSpacing: 1.6
BeatDivisor: 4
GridSize: 4
TimelineZoom: 1.6

[Metadata]
Title:Circles
TitleUnicode:Circles
Artist:Unknown Brain & Laura Brehm
ArtistUnicode:Unknown Brain & Laura Brehm
Creator:Peter
Version:Normal
Source:
Tags:Dance & EDM english electronic female vocal
BeatmapID:2004489
BeatmapSetID:945060

[Difficulty]
HPDrainRate:4
CircleSize:3.5
OverallDifficulty:4
ApproachRate:5.5
SliderMultiplier:0.999999999999999
SliderTickRate:1

[Events]
//Background and Video events
0,0,"bg.jpg",0,0
//Break Periods
2,44504,51455
2,77608,78657
//Storyboard Layer 0 (Background)
//Storyboard Layer 1 (Fail)
//Storyboard Layer 2 (Pass)
//Storyboard Layer 3 (Foreground)
//Storyboard Sound Samples

[TimingPoints]
167,344.827586206897,4,2,0,60,1,0
11291,337.078651685393,4,2,0,30,1,0
11291,-111.111111111111,4,2,0,30,0,0
12667,344.827586206897,4,2,0,30,1,0
12667,-111.111111111111,4,2,0,30,0,0
15196,344.827586206897,4,2,0,30,1,0
15196,-111.111111111111,4,2,0,30,0,0
15368,428.571428571429,4,2,0,30,1,0
15368,-95.2380952380952,4,2,0,30,0,0
15942,344.827586206897,4,2,0,30,1,0
15942,-111.111111111111,4,2,0,30,0,0
17945,344.827586206897,4,2,0,30,1,0
17945,-111.111111111111,4,2,0,30,0,0
18659,326.086956521739,4,2,0,30,1,0
18659,-111.111111111111,4,2,0,30,0,0
19364,324.324324324324,4,2,0,30,1,0
19364,-111.111111111111,4,2,0,30,0,0
22300,344.827586206897,4,2,0,30,1,0
22300,-111.111111111111,4,2,0,30,0,0
23624,344.827586206897,4,2,0,30,1,0
23624,-111.111111111111,4,2,0,30,0,0
24171,333.333333333333,4,2,0,30,1,0
24171,-111.111111111111,4,2,0,30,0,0
25540,337.078651685393,4,2,0,30,1,0
25540,-111.111111111111,4,2,0,30,0,0
26239,315.789473684211,4,2,0,30,1,0
26239,-125,4,2,0,30,0,0
26919,352.941176470588,4,2,0,30,1,0
26919,-111.111111111111,4,2,0,30,0,0
27624,480,4,2,0,30,1,0
27624,-90.9090909090908,4,2,0,30,0,0
28978,344.827586206897,4,2,0,30,1,0
28978,-111.111111111111,4,2,0,30,0,0
29617,352.941176470588,4,2,0,30,1,0
29617,-111.111111111111,4,2,0,30,0,0
30511,344.827586206897,4,2,0,30,1,0
32753,-105.263157894737,4,2,0,40,0,0
53959,-100,4,2,0,60,0,0
79782,344.827586206897,4,2,0,40,1,0
79782,-125,4,2,0,40,0,0
100816,-100,4,2,0,60,0,0
101850,-90.9090909090909,4,2,0,60,0,0
123919,-90.9090909090909,4,2,0,30,0,0
126678,-83.3333333333333,4,2,0,80,0,1
145299,-100,4,2,0,30,0,0
145988,-83.3333333333333,4,2,0,80,0,1
147368,-100,4,2,0,80,0,0
149782,-83.3333333333333,4,2,0,80,0,1
151506,-100,4,2,0,80,0,0
152540,-83.3333333333333,4,2,0,80,0,1
154264,-100,4,2,0,80,0,0
155299,-83.3333333333333,4,2,0,80,0,1
159782,-100,4,2,0,80,0,0
160816,-83.3333333333333,4,2,0,80,0,1
162540,-100,4,2,0,80,0,0
163575,-83.3333333333333,4,2,0,80,0,1
165299,-100,4,2,0,80,0,0
166333,-83.3333333333333,4,2,0,80,0,1
170816,-100,4,2,0,60,0,0
174782,-100,4,2,0,60,0,0

[Colours]
Combo1 : 204,188,179
Combo2 : 248,171,114
Combo3 : 185,145,156
Combo4 : 255,64,64
Combo5 : 251,150,49
SliderBorder : 255,255,255
SliderTrackOverride : 0,0,0

[HitObjects]
295,39,11291,6,0,B|413:46|340:99|461:102,1,179.999994506836,2|2,0:0|0:0,0:0:0:0:
286,171,12667,2,0,P|257:269|273:298,2,134.999995880127,2|2|2,0:0|0:0|0:0,0:0:0:0:
315,157,15368,5,2,0:0:0:0:
418,265,15942,2,0,B|366:266|366:266|342:289|342:289|288:290,1,134.999995880127,2|2,0:0|0:0,0:0:0:0:
89,214,18117,5,2,0:0:0:0:
214,320,18659,2,0,P|257:313|308:318,1,89.999997253418,2|2,0:0|0:0,0:0:0:0:
409,362,19364,2,0,L|388:125,1,224.999993133545,2|2,0:0|0:0,0:0:0:0:
460,79,22300,6,0,P|372:47|303:102,1,179.999994506836,2|2,0:0|0:0,0:0:0:0:
167,144,23624,2,0,B|66:150,1,89.999997253418,2|2,0:0|0:0,0:0:0:0:
43,185,24171,2,0,P|30:250|65:316,1,134.999995880127,2|2,0:0|0:0,0:0:0:0:
289,282,25540,2,0,P|317:286|356:283,2,67.4999979400635,2|2|2,0:0|0:0|0:0,0:0:0:0:
243,250,26239,6,0,B|249:156,1,79.9999999999999,2|2,0:0|0:0,0:0:0:0:
207,89,26919,2,0,L|100:87,1,89.999997253418,2|2,0:0|0:0,0:0:0:0:
43,130,27624,2,0,B|58:167|58:167|44:261,1,110.000003356934,2|0,0:0|0:0,0:0:0:0:
308,318,29150,5,2,0:0:0:0:
403,246,29617,2,0,L|396:109,1,134.999995880127,2|2,0:0|0:0,0:0:0:0:
256,192,30511,12,2,31717,0:0:0:0:
150,80,32753,6,0,L|201:83,2,47.4999987316131,2|2|2,0:0|0:0|0:0,0:0:0:0:
106,109,33270,2,0,B|138:150|138:150|125:303,1,189.999994926453,2|2,0:0|0:3,0:0:0:0:
321,363,34649,2,0,P|401:346|417:245,1,189.999994926453,2|2,0:0|0:3,0:0:0:0:
236,149,36029,6,0,B|308:143|308:143|346:118|346:118|431:110,1,189.999994926453,2|2,0:0|0:3,0:0:0:0:
240,43,37408,2,0,P|115:93|109:155,1,189.999994926453,2|2,0:0|0:3,0:0:0:0:
125,176,38270,2,0,L|64:177,2,47.4999987316131,2|2|2,0:0|0:0|0:0,0:0:0:0:
151,215,38787,6,0,P|124:270|214:337,1,189.999994926453,2|2,0:0|0:3,0:0:0:0:
359,221,40167,2,0,P|386:276|296:343,1,189.999994926453,2|2,0:0|0:3,0:0:0:0:
271,155,41546,6,0,L|480:162,1,189.999994926453,2|2,0:0|0:3,0:0:0:0:
299,35,42925,2,0,L|90:42,1,189.999994926453,2|2,0:0|0:3,0:0:0:0:
224,216,44304,1,2,0:0:0:0:
256,192,52580,12,8,53960,0:0:0:0:
44,226,55339,6,0,P|26:147|275:87,1,400,4|8,0:3|0:0,0:0:0:0:
298,105,56890,1,2,0:1:0:0:
298,105,57062,1,2,0:1:0:0:
357,185,57407,2,0,L|413:178,2,50,2|2|2,0:1|0:1|0:1,0:0:0:0:
370,284,58098,6,0,P|294:271|265:282,1,99.9999999999999,4|0,0:3|0:0,0:0:0:0:
262,326,58615,2,0,P|128:300|132:210,1,250,0|8,0:0|0:0,0:0:0:0:
164,173,59648,1,2,0:1:0:0:
164,173,59821,1,2,0:1:0:0:
88,106,60167,2,0,L|20:109,2,50,2|2|2,0:1|0:1|0:1,0:0:0:0:
103,58,60684,1,4,0:3:0:0:
103,58,60856,6,0,B|297:142|294:-22|503:60,1,400,4|8,0:3|0:0,0:0:0:0:
492,104,62407,1,2,0:1:0:0:
492,104,62579,1,2,0:1:0:0:
409,161,62924,2,0,L|350:158,2,50,2|2|2,0:1|0:1|0:1,0:0:0:0:
452,254,63614,2,0,L|517:252,2,50,4|2|2,0:3|0:1|0:1,0:3:0:0:
368,309,64304,1,2,0:1:0:0:
368,309,64476,1,2,0:1:0:0:
280,261,64821,1,2,0:1:0:0:
280,261,64993,1,8,0:0:0:0:
192,310,65338,2,0,L|197:365,2,50,2|2|2,0:1|0:1|0:1,0:0:0:0:
129,232,66028,1,4,0:3:0:0:
50,170,66373,6,0,P|159:38|366:92,1,400,4|8,0:3|0:0,0:0:0:0:
395,122,67924,1,2,0:1:0:0:
395,122,68097,1,2,0:1:0:0:
447,207,68442,2,0,L|518:187,2,50,2|2|2,0:1|0:1|0:1,0:0:0:0:
458,306,69132,5,4,0:3:0:0:
308,295,69649,2,0,B|244:301|244:301|189:280|189:280|97:287,1,200,2|2,0:1|0:1,0:0:0:0:
77,321,70511,2,0,L|84:391,2,50,8|2|2,0:0|0:1|0:1,0:0:0:0:
31,231,71201,2,0,L|26:167,1,50,2|2,0:1|0:1,0:0:0:0:
66,150,71546,2,0,L|64:82,1,50,2|2,0:1|0:1,0:0:0:0:
93,59,71891,5,4,0:3:0:0:
287,106,72580,2,0,P|360:106|406:217,1,200,2|8,0:1|0:0,0:0:0:0:
397,258,73442,1,2,0:1:0:0:
397,258,73614,1,2,0:1:0:0:
303,221,73960,2,0,L|243:226,1,50,2|2,0:1|0:1,0:0:0:0:
228,268,74304,2,0,L|168:263,1,50,2|2,0:1|0:1,0:0:0:0:
94,318,74821,5,2,0:1:0:0:
94,318,74993,1,2,0:1:0:0:
17,253,75338,1,2,0:1:0:0:
17,253,75511,1,2,0:1:0:0:
52,159,75855,1,2,0:1:0:0:
52,159,76028,1,4,0:3:0:0:
152,157,76373,1,2,0:1:0:0:
152,157,76545,1,4,0:3:0:0:
297,294,77063,1,8,0:0:0:0:
370,226,77408,1,4,0:3:0:0:
306,54,79782,6,0,P|253:79|185:58,1,120,2|2,0:0|0:0,0:0:0:0:
80,152,80816,1,2,0:0:0:0:
133,232,81161,2,0,B|109:277|109:277|118:356,2,120,2|2|2,0:0|0:0|0:0,0:0:0:0:
215,280,82540,1,2,0:0:0:0:
336,203,83057,2,0,P|285:178|266:118,1,120,2|2,0:0|0:0,0:0:0:0:
361,112,83919,6,0,B|406:108|406:108|433:123|433:123|484:119,2,120,2|2|2,0:0|0:0|0:0,0:0:0:0:
298,39,85299,1,2,0:0:0:0:
163,89,85816,2,0,L|171:222,1,120,2|2,0:0|0:0,0:0:0:0:
91,263,86678,2,0,P|131:305|205:306,1,120,2|2,0:0|0:0,0:0:0:0:
325,261,87713,1,2,0:0:0:0:
274,179,88057,6,0,L|269:49,2,120,2|2|2,0:0|0:0|0:0,0:0:0:0:
202,243,89437,1,2,0:0:0:0:
322,322,89954,2,0,B|270:329|270:329|252:346|252:346|196:349,1,120,2|2,0:0|0:0,0:0:0:0:
124,303,90816,6,0,P|64:326|37:381,2,120,2|2|2,0:0|0:0|0:0,0:0:0:0:
202,243,92195,2,0,P|262:220|284:162,2,120,2|2|2,0:0|0:0|0:0,0:0:0:0:
113,205,93575,2,0,P|109:140|66:96,2,120,2|2|2,0:0|0:0|0:0,0:0:0:0:
86,297,94954,1,2,0:0:0:0:
223,340,95471,6,0,L|346:332,1,120,2|2,0:0|0:0,0:0:0:0:
409,263,96333,2,0,P|454:193|453:159,2,120,2|2|2,0:0|0:0|0:0,0:0:0:0:
357,181,97713,2,0,P|312:111|316:62,2,120,2|2|2,0:0|0:0|0:0,0:0:0:0:
321,270,99092,1,2,0:0:0:0:
256,192,99264,12,0,100471,0:0:0:0:
67,324,101850,6,0,B|81:284|81:284|60:198,1,110.000003356934,4|10,0:3|0:0,0:0:0:0:
113,131,102540,2,0,L|169:134,1,55.0000016784668,2|4,0:0|0:3,0:0:0:0:
212,134,102885,1,10,0:0:0:0:
294,79,103230,2,0,P|357:65|407:88,1,110.000003356934,4|8,0:3|0:0,0:0:0:0:
372,176,103919,2,0,L|383:248,1,55.0000016784668,2|4,0:0|0:3,0:0:0:0:
415,257,104264,2,0,L|404:329,1,55.0000016784668,10|0,0:0|0:0,0:0:0:0:
399,354,104609,5,4,0:3:0:0:
301,336,104954,2,0,B|201:310|237:353|132:342,1,165.0000050354,10|4,0:0|0:3,0:0:0:0:
94,340,105644,2,0,P|95:298|92:270,1,55.0000016784668,8|0,0:0|0:0,0:0:0:0:
78,244,105988,1,4,0:3:0:0:
11,170,106333,2,0,P|57:141|152:190,1,165.0000050354,10|4,0:0|0:3,0:0:0:0:
179,216,107023,1,10,0:0:0:0:
261,161,107368,6,0,L|393:174,1,110.000003356934,4|10,0:3|0:0,0:0:0:0:
467,152,108057,2,0,P|470:194|460:216,1,55.0000016784668,2|4,0:0|0:3,0:0:0:0:
477,253,108402,1,10,0:0:0:0:
431,340,108747,2,0,L|301:329,1,110.000003356934,4|8,0:3|0:0,0:0:0:0:
231,289,109437,2,0,L|164:306,1,55.0000016784668,2|4,0:0|0:3,0:0:0:0:
167,341,109782,2,0,P|124:349|95:349,1,55.0000016784668,8|0,0:0|0:0,0:0:0:0:
75,331,110126,1,4,0:3:0:0:
91,232,110471,6,0,L|112:69,1,165.0000050354,8|4,0:0|0:3,0:0:0:0:
122,25,111161,2,0,L|176:40,1,55.0000016784668,8|0,0:0|0:0,0:0:0:0:
215,57,111506,1,4,0:3:0:0:
190,152,111850,1,10,0:0:0:0:
253,227,112195,2,0,L|316:216,1,55.0000016784668,2|4,0:0|0:3,0:0:0:0:
350,211,112540,1,10,0:0:0:0:
432,265,112885,6,0,P|448:210|419:149,1,110.000003356934,4|10,0:3|0:0,0:0:0:0:
377,78,113575,2,0,L|312:91,1,55.0000016784668,2|4,0:0|0:3,0:0:0:0:
279,95,113919,1,10,0:0:0:0:
198,37,114264,2,0,L|73:29,1,110.000003356934,4|8,0:3|0:0,0:0:0:0:
27,108,114954,2,0,L|35:172,1,55.0000016784668,2|4,0:0|0:3,0:0:0:0:
39,203,115299,1,8,0:0:0:0:
130,164,115644,5,4,0:3:0:0:
198,235,115988,2,0,L|372:226,1,165.0000050354,8|4,0:0|0:3,0:0:0:0:
397,199,116678,2,0,L|460:208,1,55.0000016784668,8|2,0:0|0:0,0:0:0:0:
492,190,117023,1,4,0:3:0:0:
471,93,117368,2,0,L|295:107,1,165.0000050354,10|4,0:0|0:3,0:0:0:0:
265,90,118057,1,8,0:0:0:0:
186,29,118402,6,0,L|174:147,1,110.000003356934,4|8,0:3|0:0,0:0:0:0:
96,199,119092,2,0,L|107:309,1,110.000003356934,4|8,0:3|0:0,0:0:0:0:
196,264,119782,2,0,L|331:279,1,110.000003356934,4|8,0:3|0:0,0:0:0:0:
379,341,120471,2,0,L|500:330,1,110.000003356934,4|8,0:3|0:0,0:0:0:0:
458,231,121161,6,0,L|514:227,2,55.0000016784668,4|4|4,0:3|0:3|0:3,0:0:0:0:
398,152,121850,2,0,L|342:146,2,55.0000016784668,4|4|4,0:3|0:3|0:3,0:0:0:0:
256,192,122540,12,2,123919,0:0:0:0:
61,41,126678,5,4,0:3:0:0:
146,85,127023,2,0,B|194:88|194:88|247:74|247:74|328:78,1,179.999994506836,10|4,0:0|0:3,0:0:0:0:
371,82,127713,1,10,0:0:0:0:
334,170,128057,1,4,0:3:0:0:
334,170,128230,1,4,0:3:0:0:
334,170,128402,1,10,0:0:0:0:
359,262,128747,2,0,L|288:256,1,59.9999981689453,2|4,0:0|0:3,0:0:0:0:
278,300,129092,2,0,L|156:307,1,119.999996337891,10|4,0:0|0:3,0:0:0:0:
110,311,129609,5,4,0:3:0:0:
110,311,129782,2,0,B|127:266|127:266|107:129,1,179.999994506836,10|4,0:0|0:3,0:0:0:0:
101,87,130471,1,10,0:0:0:0:
180,32,130816,1,4,0:3:0:0:
180,32,130988,1,4,0:3:0:0:
180,32,131161,1,10,0:0:0:0:
259,86,131506,2,0,L|341:75,1,59.9999981689453,2|4,0:0|0:3,0:0:0:0:
364,66,131850,1,10,0:0:0:0:
459,62,132195,5,4,0:3:0:0:
420,150,132540,2,0,B|440:191|440:191|428:329,1,179.999994506836,10|4,0:0|0:3,0:0:0:0:
380,324,133230,1,10,0:0:0:0:
302,266,133575,1,4,0:3:0:0:
302,266,133747,1,4,0:3:0:0:
302,266,133919,1,10,0:0:0:0:
216,310,134264,2,0,L|204:240,1,59.9999981689453,2|4,0:0|0:3,0:0:0:0:
202,202,134609,2,0,P|153:201|96:136,1,119.999996337891,10|4,0:0|0:3,0:0:0:0:
65,124,135126,5,4,0:3:0:0:
65,124,135299,2,0,B|82:189|82:189|59:241|59:241|71:309,1,179.999994506836,10|4,0:0|0:3,0:0:0:0:
75,343,135988,1,10,0:0:0:0:
165,303,136333,1,4,0:3:0:0:
165,303,136506,1,4,0:3:0:0:
165,303,136678,1,10,0:0:0:0:
247,351,137023,2,0,L|324:360,1,59.9999981689453,4|2,0:3|0:0,0:0:0:0:
350,338,137368,2,0,L|343:262,1,59.9999981689453,4|2,0:3|0:0,0:0:0:0:
379,245,137712,5,4,0:3:0:0:
409,153,138058,2,0,B|301:117|351:190|226:166,1,179.999994506836,10|4,0:0|0:3,0:0:0:0:
188,164,138748,1,10,0:0:0:0:
94,186,139092,1,4,0:3:0:0:
94,186,139264,1,4,0:3:0:0:
94,186,139437,1,10,0:0:0:0:
24,119,139782,2,0,L|30:53,1,59.9999981689453,2|4,0:0|0:3,0:0:0:0:
74,41,140127,2,0,L|193:34,1,119.999996337891,10|4,0:0|0:3,0:0:0:0:
241,38,140644,5,0,0:0:0:0:
241,38,140817,2,0,B|202:116|202:116|246:223,1,179.999994506836,10|4,0:0|0:3,0:0:0:0:
262,242,141506,1,10,0:0:0:0:
221,328,141850,1,4,0:3:0:0:
221,328,142023,1,4,0:3:0:0:
221,328,142196,1,10,0:0:0:0:
134,286,142540,2,0,L|74:292,2,59.9999981689453,2|2|10,0:0|0:0|0:0,0:0:0:0:
208,224,143230,6,0,L|195:146,1,59.9999981689453,4|0,0:3|0:0,0:0:0:0:
193,116,143575,2,0,B|254:123|254:123|300:100|300:100|372:104,1,179.999994506836,10|4,0:0|0:3,0:0:0:0:
414,112,144265,1,10,0:0:0:0:
371,198,144609,1,4,0:3:0:0:
371,198,144782,1,4,0:3:0:0:
371,198,144954,1,10,0:0:0:0:
413,266,145299,1,4,0:3:0:0:
220,280,145988,6,0,L|228:206,1,59.9999981689453,4|4,0:3|0:3,0:0:0:0:
184,195,146333,2,0,P|117:202|41:108,1,179.999994506836,10|4,0:0|0:3,0:0:0:0:
26,68,147023,1,10,0:0:0:0:
113,19,147368,1,4,0:3:0:0:
266,147,148057,1,8,0:0:0:0:
461,102,148747,6,0,L|459:225,1,99.9999999999999,4|2,0:3|0:0,0:0:0:0:
461,252,149264,1,0,0:0:0:0:
461,252,149437,1,8,0:0:0:0:
378,203,149782,2,0,P|291:169|277:285,1,239.999992675781,4|4,2:3|0:3,0:0:0:0:
335,358,150816,1,8,0:0:0:0:
239,364,151161,1,4,0:3:0:0:
142,335,151506,6,0,L|31:346,1,99.9999999999999,4|2,0:3|0:0,0:0:0:0:
13,304,152023,1,0,0:0:0:0:
13,304,152195,1,8,0:0:0:0:
57,207,152540,6,0,L|49:124,2,59.9999981689453,4|0|0,0:3|0:0|0:0,0:0:0:0:
144,247,153230,1,4,0:3:0:0:
184,158,153575,2,0,P|208:126|292:125,1,119.999996337891,8|0,0:0|0:0,0:0:0:0:
327,198,154264,6,0,B|406:190|369:245|485:227,1,150,4|2,0:3|0:0,0:0:0:0:
492,196,154954,1,8,0:0:0:0:
443,112,155299,2,0,P|421:65|241:44,1,239.999992675781,4|4,0:3|0:3,0:0:0:0:
304,116,156333,1,8,0:0:0:0:
223,168,156678,1,4,0:3:0:0:
163,92,157023,6,0,L|166:20,2,59.9999981689453,4|0|0,0:3|0:0|0:0,0:0:0:0:
80,141,157713,2,0,L|84:215,1,59.9999981689453,8|0,0:0|0:0,0:0:0:0:
110,240,158057,2,0,L|105:372,2,119.999996337891,0|0|2,0:0|0:0|0:0,0:0:0:0:
200,206,159092,1,2,0:0:0:0:
252,284,159436,1,2,0:0:0:0:
327,233,159782,6,0,P|363:245|438:237,1,99.9999999999999,4|2,0:3|0:0,0:0:0:0:
462,231,160299,1,0,0:0:0:0:
462,231,160472,1,8,0:0:0:0:
425,142,160817,2,0,P|413:65|259:51,1,239.999992675781,4|4,0:3|0:3,0:0:0:0:
179,15,161851,1,8,0:0:0:0:
107,79,162196,1,4,0:3:0:0:
170,156,162541,6,0,L|181:265,1,99.9999999999999,4|2,0:3|0:0,0:0:0:0:
188,299,163057,1,0,0:0:0:0:
188,299,163230,1,8,0:0:0:0:
259,362,163575,2,0,L|335:348,1,59.9999981689453,4|0,0:3|0:0,0:0:0:0:
363,336,163919,5,4,0:3:0:0:
309,256,164264,1,4,0:3:0:0:
388,203,164609,2,0,L|514:217,1,119.999996337891,8|0,0:0|0:0,0:0:0:0:
471,299,165299,6,0,L|478:353,2,50,4|0|0,0:3|0:0|0:0,0:0:0:0:
386,328,165989,1,8,0:0:0:0:
299,286,166334,2,0,B|222:276|222:276|156:303|156:303|60:290,1,239.999992675781,4|4,0:3|0:3,0:0:0:0:
15,208,167368,1,8,0:0:0:0:
93,153,167713,1,4,0:3:0:0:
39,73,168057,6,0,L|50:8,2,59.9999981689453,4|0|2,0:3|0:0|0:0,0:0:0:0:
135,73,168747,2,0,P|173:60|276:80,1,119.999996337891,8|2,0:0|0:0,0:0:0:0:
317,137,169437,6,0,L|452:146,1,119.999996337891,4|2,0:3|0:0,0:0:0:0:
393,231,170127,1,2,0:0:0:0:
447,309,170471,2,0,L|433:379,1,59.9999981689453,2|2,0:0|0:0,0:0:0:0:
256,192,172195,12,2,173575,0:0:0:0:
136,359,174782,5,2,0:0:0:0:
136,359,174954,2,0,L|119:244,1,99.9999999999999,2|2,0:0|0:0,0:0:0:0:
71,262,175471,2,0,L|52:96,1,150,2|2,0:0|0:0,0:0:0:0:
43,13,176333,1,2,0:0:0:0:
319,117,177540,5,2,0:0:0:0:
319,117,177712,2,0,P|364:111|426:140,1,99.9999999999999,2|0,0:0|0:0,0:0:0:0:
448,166,178230,2,0,B|424:207|424:207|430:315,1,150,2|2,0:0|0:0,0:0:0:0:
359,379,179092,1,2,0:0:0:0:
49,342,180471,6,0,L|62:183,1,150,2|2,0:0|0:0,0:0:0:0:
81,43,181506,1,2,0:0:0:0:
150,114,181850,1,2,0:0:0:0:
325,18,182540,1,2,0:0:0:0:
450,173,183230,6,0,L|443:334,1,150,2|2,0:0|0:0,0:0:0:0:
443,372,183919,1,2,0:0:0:0:
443,372,184092,1,2,0:0:0:0:
319,287,184609,2,0,P|218:271|136:329,1,200,2|8,0:0|0:0,0:0:0:0:
58,380,185644,1,0,0:0:0:0:
16,289,185988,2,0,L|5:125,2,150,2|2|2,0:0|0:0|0:0,0:0:0:0:
104,240,187368,6,0,B|243:234|160:275|303:255,1,200,2|8,0:0|0:0,0:0:0:0:
394,221,188402,1,0,0:0:0:0:
320,153,188747,2,0,P|312:86|372:20,2,150,2|2|0,0:0|0:0|0:0,0:0:0:0:
409,109,190126,1,6,0:0:0:0:
256,192,190299,12,2,195600,0:0:0:0:
