osu file format v14

[General]
AudioFilename: audio.mp3
AudioLeadIn: 0
PreviewTime: 100644
Countdown: 0
SampleSet: Soft
StackLeniency: 0.2
Mode: 0
LetterboxInBreaks: 0
WidescreenStoryboard: 0

[Editor]
Bookmarks: 118402,126678,145299,149782,170816
DistanceSpacing: 0.8
BeatDivisor: 4
GridSize: 4
TimelineZoom: 1.6

[Metadata]
Title:Circles
TitleUnicode:Circles
Artist:Unknown Brain & Laura Brehm
ArtistUnicode:Unknown Brain & Laura Brehm
Creator:Peter
Version:Lost
Source:
Tags:Dance & EDM english electronic female vocal
BeatmapID:1973577
BeatmapSetID:945060

[Difficulty]
HPDrainRate:6
CircleSize:4.2
OverallDifficulty:8
ApproachRate:9.2
SliderMultiplier:1.8
SliderTickRate:1

[Events]
//Background and Video events
0,0,"bg.jpg",0,0
//Break Periods
2,44504,52182
//Storyboard Layer 0 (Background)
//Storyboard Layer 1 (Fail)
//Storyboard Layer 2 (Pass)
//Storyboard Layer 3 (Foreground)
//Storyboard Sound Samples

[TimingPoints]
167,344.827586206897,4,2,0,60,1,0
11291,337.078651685393,4,2,0,30,1,0
11291,-250,4,2,0,30,0,0
12667,344.827586206897,4,2,0,30,1,0
12667,-250,4,2,0,30,0,0
15196,344.827586206897,4,2,0,30,1,0
15196,-250,4,2,0,30,0,0
15368,428.571428571429,4,2,0,30,1,0
15368,-166.666666666667,4,2,0,30,0,0
15942,344.827586206897,4,2,0,30,1,0
15942,-250,4,2,0,30,0,0
17945,344.827586206897,4,2,0,30,1,0
17945,-250,4,2,0,30,0,0
18659,326.086956521739,4,2,0,30,1,0
18659,-250,4,2,0,30,0,0
19364,324.324324324324,4,2,0,30,1,0
19364,-250,4,2,0,30,0,0
22300,344.827586206897,4,2,0,30,1,0
22300,-250,4,2,0,30,0,0
23624,344.827586206897,4,2,0,30,1,0
23624,-250,4,2,0,30,0,0
24171,333.333333333333,4,2,0,30,1,0
24171,-250,4,2,0,30,0,0
25540,337.078651685393,4,2,0,30,1,0
25540,-250,4,2,0,30,0,0
26239,315.789473684211,4,2,0,30,1,0
26239,-250,4,2,0,30,0,0
26919,352.941176470588,4,2,0,30,1,0
26919,-250,4,2,0,30,0,0
27624,480,4,2,0,30,1,0
27624,-166.666666666667,4,2,0,30,0,0
28978,344.827586206897,4,2,0,30,1,0
28978,-250,4,2,0,30,0,0
29617,352.941176470588,4,2,0,30,1,0
29617,-250,4,2,0,30,0,0
30511,344.827586206897,4,2,0,30,1,0
32752,-200,4,2,0,40,0,0
53959,-200,4,2,0,60,0,0
55338,-1000,4,2,0,70,0,0
56890,-100,4,2,0,70,0,0
58614,-1000,4,2,0,70,0,0
59648,-100,4,2,0,70,0,0
60855,-1000,4,2,0,70,0,0
62407,-100,4,2,0,70,0,0
66373,-1000,4,2,0,70,0,0
67924,-100,4,2,0,70,0,0
75338,-111.111111111111,4,2,0,70,0,0
75855,-125,4,2,0,70,0,0
76373,-142.857142857143,4,2,0,60,0,0
76890,-200,4,2,0,50,0,0
79782,344.827586206897,4,2,0,40,1,0
79782,-142.857142857143,4,2,0,40,0,0
100816,-333.333333333334,4,2,0,60,0,0
101850,-100,4,2,0,60,0,0
123919,-250,4,2,0,30,0,0
126678,-90.9090909090909,4,2,0,80,0,1
135988,-76.9230769230769,4,2,0,80,0,1
137023,-90.9090909090909,4,2,0,80,0,1
138747,-66.6666666666667,4,2,0,80,0,1
139782,-90.9090909090909,4,2,0,80,0,1
141506,-58.8235294117647,4,2,0,80,0,1
142540,-90.9090909090909,4,2,0,80,0,1
144264,-52.6315789473684,4,2,0,80,0,1
145299,-100,4,2,0,30,0,0
145988,-90.9090909090909,4,2,0,80,0,1
147368,-100,4,2,0,80,0,0
149782,-90.9090909090909,4,2,0,80,0,1
151506,-100,4,2,0,80,0,0
152540,-90.9090909090909,4,2,0,80,0,1
154264,-100,4,2,0,80,0,0
155299,-90.9090909090909,4,2,0,80,0,1
159782,-100,4,2,0,80,0,0
160816,-90.9090909090909,4,2,0,80,0,1
162540,-83.3333333333333,4,2,0,80,0,0
163575,-90.9090909090909,4,2,0,80,0,1
165299,-133.333333333333,4,2,0,80,0,0
166333,-90.9090909090909,4,2,0,80,0,1
170816,-83.3333333333333,4,2,0,60,0,0
174782,-166.666666666667,4,2,0,60,0,0

[Colours]
Combo1 : 204,188,179
Combo2 : 248,171,114
Combo3 : 185,145,156
Combo4 : 255,64,64
Combo5 : 251,150,49
SliderBorder : 255,255,255
SliderTrackOverride : 0,0,0

[HitObjects]
215,229,11291,6,0,P|281:199|249:161,1,144,2|2,0:0|0:0,0:0:0:0:
251,162,12667,6,0,L|270:83,1,72,2|2,0:0|0:0,0:0:0:0:
176,114,13184,2,0,L|116:124,2,54,2|2|2,0:0|0:0|0:0,0:0:0:0:
176,114,15196,5,2,0:0:0:0:
176,114,15368,2,0,L|169:49,1,53.9999983520508,2|2,0:0|0:0,0:0:0:0:
353,19,15942,6,0,L|336:102,1,72,2|2,0:0|0:0,0:0:0:0:
429,19,16459,2,0,L|406:134,1,108,2|0,0:0|0:0,0:0:0:0:
407,142,17945,6,0,L|448:136,2,36,2|2|2,0:0|0:0|0:0,0:0:0:0:
464,156,18659,6,0,L|389:166,1,72,2|2,0:0|0:0,0:0:0:0:
512,208,19364,2,0,L|322:188,1,180,2|2,0:0|0:0,0:0:0:0:
60,105,22300,6,0,B|152:99|111:140|201:126,1,144,2|2,0:0|0:0,0:0:0:0:
200,127,23624,6,0,P|198:82|219:48,1,72,2|2,0:0|0:0,0:0:0:0:
338,101,24171,2,0,B|314:109|314:109|279:106,2,54,2|2|2,0:0|0:0|0:0,0:0:0:0:
338,101,25540,6,0,L|325:44,2,54,2|2|2,0:0|0:0|0:0,0:0:0:0:
273,181,26239,2,0,B|310:178|308:196|359:189,1,72,2|2,0:0|0:0,0:0:0:0:
176,105,26919,6,0,L|191:27,1,72,2|2,0:0|0:0,0:0:0:0:
38,91,27624,2,0,B|58:217,1,107.999996704102,2|0,0:0|0:0,0:0:0:0:
54,197,28978,6,0,L|18:191,2,36,2|2|2,0:0|0:0|0:0,0:0:0:0:
98,373,29617,2,0,L|113:301,1,72,2|2,0:0|0:0,0:0:0:0:
128,223,30146,1,2,0:0:0:0:
256,192,30511,12,2,32235,0:0:0:0:
192,211,32752,5,2,0:0:0:0:
179,172,32925,5,2,0:0:0:0:
207,106,33097,5,2,0:0:0:0:
323,114,33270,6,0,B|361:110|361:110|383:119|383:119|423:113,1,90,2|0,0:0|0:0,0:0:0:0:
307,252,33787,5,2,0:3:0:0:
302,241,33873,1,2,0:3:0:0:
298,230,33959,2,0,L|404:216,1,90,2|0,0:3|0:0,0:0:0:0:
394,372,34476,5,2,0:0:0:0:
392,357,34563,1,2,0:0:0:0:
390,344,34649,2,0,L|280:360,1,90,2|0,0:0|0:0,0:0:0:0:
155,265,35166,5,2,0:3:0:0:
158,277,35252,1,2,0:3:0:0:
161,288,35338,2,0,L|147:179,1,90,2|0,0:3|0:0,0:0:0:0:
248,75,35856,5,2,0:0:0:0:
255,85,35942,1,2,0:0:0:0:
264,95,36028,2,0,B|270:66|270:66|269:39|269:39|281:0,1,90,2|0,0:0|0:0,0:0:0:0:
498,141,36545,5,2,0:3:0:0:
495,155,36632,1,2,0:3:0:0:
493,168,36718,2,0,P|432:157|396:152,1,90,2|0,0:3|0:0,0:0:0:0:
242,323,37235,5,2,0:0:0:0:
248,336,37322,1,2,0:0:0:0:
257,348,37407,2,0,P|318:337|354:332,1,90,2|0,0:0|0:0,0:0:0:0:
100,174,37924,5,2,0:3:0:0:
102,186,38010,1,2,0:3:0:0:
106,198,38097,2,0,B|151:190|151:190|211:207,1,90,2|2,0:3|0:0,0:0:0:0:
323,70,38613,5,2,0:0:0:0:
321,84,38700,1,2,0:0:0:0:
319,96,38787,2,0,B|274:88|274:88|214:105,1,90,2|0,0:0|0:0,0:0:0:0:
381,182,39304,5,2,0:3:0:0:
394,185,39391,1,2,0:3:0:0:
409,189,39476,2,0,P|397:234|393:296,1,90,2|0,0:3|0:0,0:0:0:0:
147,263,39993,5,2,0:0:0:0:
145,247,40079,1,2,0:0:0:0:
143,233,40166,2,0,L|51:248,1,90,2|0,0:0|0:0,0:0:0:0:
233,106,40683,5,2,0:3:0:0:
243,117,40769,1,2,0:3:0:0:
252,126,40856,2,0,B|284:130|284:130|306:127|306:127|354:138,1,90,2|0,0:3|0:0,0:0:0:0:
120,53,41373,5,2,0:0:0:0:
135,56,41459,1,2,0:0:0:0:
149,60,41545,2,0,L|135:158,1,90,2|0,0:0|0:0,0:0:0:0:
261,304,42063,5,2,0:3:0:0:
258,291,42148,1,2,0:3:0:0:
255,276,42235,2,0,B|301:270|299:293|355:280,1,90,2|0,0:3|0:0,0:0:0:0:
347,126,42752,5,2,0:0:0:0:
346,138,42839,1,2,0:0:0:0:
346,150,42925,2,0,L|436:144,1,90,2|0,0:0|0:0,0:0:0:0:
230,201,43441,5,2,0:3:0:0:
239,195,43528,1,2,0:3:0:0:
250,189,43614,2,0,B|255:159|255:159|251:139|251:139|263:95,1,90,2|0,0:3|0:0,0:0:0:0:
443,309,44132,5,2,0:0:0:0:
430,303,44217,1,2,0:0:0:0:
419,297,44304,1,2,0:0:0:0:
256,192,52752,12,0,53873,0:0:0:0:
256,192,53959,5,8,0:0:0:0:
66,46,55339,6,0,L|77:114,1,67.5,4|0,0:3|0:0,0:0:0:0:
81,126,56718,5,8,0:0:0:0:
117,297,56890,1,2,0:1:0:0:
15,216,57063,2,0,B|57:208|57:208|72:215|72:215|121:206,1,90,2|0,0:1|0:0,0:0:0:0:
212,161,57407,6,0,L|141:142,1,45,2|0,0:1|0:0,0:0:0:0:
237,139,57580,2,0,L|166:120,1,45,2|0,0:1|0:0,0:0:0:0:
321,215,57752,2,0,L|278:227,1,45,2|0,0:1|0:0,0:0:0:0:
346,239,57925,2,0,L|303:251,1,45,2|0,0:1|0:0,0:0:0:0:
144,339,58097,5,4,0:3:0:0:
144,339,58614,6,0,L|103:333,1,40.5
73,328,59476,5,8,0:0:0:0:
175,173,59649,1,2,0:1:0:0:
171,188,59735,1,2,0:1:0:0:
163,208,59821,2,0,P|177:232|190:288,1,45,2|0,0:1|0:0,0:0:0:0:
75,202,59994,2,0,P|89:177|102:121,1,45,2|0,0:1|0:0,0:0:0:0:
81,58,60166,1,2,0:1:0:0:
85,70,60252,1,2,0:1:0:0:
91,81,60339,2,0,L|8:72,1,45,2|0,0:1|0:0,0:0:0:0:
164,109,60511,2,0,L|209:102,1,45,2|0,0:1|0:0,0:0:0:0:
294,84,60683,1,4,0:3:0:0:
265,229,60856,6,0,B|256:196|256:196|270:164,1,67.5,4|0,0:3|0:0,0:0:0:0:
282,141,62235,5,8,0:0:0:0:
48,149,62407,2,0,L|91:158,1,45,2|0,0:1|0:0,0:0:0:0:
174,245,62580,2,0,L|154:199,1,45,2|0,0:1|0:0,0:0:0:0:
188,89,62752,2,0,L|163:127,1,45,2|0,0:1|0:0,0:0:0:0:
56,276,62925,6,0,L|102:209,1,45,2|0,0:1|0:0,0:0:0:0:
67,314,63097,2,0,L|92:276,1,45,2|0,0:1|0:0,0:0:0:0:
193,355,63270,2,0,L|167:317,1,45,2|0,0:1|0:0,0:0:0:0:
184,384,63442,2,0,L|158:346,1,45,2|0,0:1|0:0,0:0:0:0:
71,219,63614,1,4,0:3:0:0:
292,194,63787,6,0,L|219:182,1,45,2|0,0:1|0:0,0:0:0:0:
314,226,63959,2,0,L|241:214,1,45,2|0,0:1|0:0,0:0:0:0:
156,203,64132,1,2,0:1:0:0:
237,63,64304,6,0,L|240:139,1,45,2|0,0:1|0:0,0:0:0:0:
264,29,64476,2,0,L|267:105,1,45,2|0,0:1|0:0,0:0:0:0:
269,218,64649,1,4,0:3:0:0:
97,82,64821,6,0,L|169:78,1,45,2|0,0:1|0:0,0:0:0:0:
72,109,64994,2,0,L|144:105,1,45,8|0,0:0|0:0,0:0:0:0:
238,107,65166,1,2,0:1:0:0:
246,261,65339,6,0,L|236:193,1,45,2|0,0:1|0:0,0:0:0:0:
228,294,65511,2,0,L|218:226,1,45,2|0,0:1|0:0,0:0:0:0:
353,232,65683,6,0,L|365:280,1,45,2|0,0:1|0:0,0:0:0:0:
351,358,65855,2,0,L|338:304,1,45,2|0,0:1|0:0,0:0:0:0:
427,217,66028,2,0,L|442:266,1,45,4|0,0:3|0:0,0:0:0:0:
434,338,66200,2,0,L|420:296,1,45,2|0,0:1|0:0,0:0:0:0:
512,236,66373,6,0,B|501:204|501:204|511:172,1,67.5,4|0,0:3|0:0,0:0:0:0:
506,133,67752,5,8,0:0:0:0:
265,117,67925,2,0,L|331:113,1,45,2|0,0:1|0:0,0:0:0:0:
235,143,68097,2,0,L|301:139,1,45,2|0,0:1|0:0,0:0:0:0:
392,136,68270,1,2,0:1:0:0:
329,272,68442,6,0,L|333:206,1,45,2|0,0:1|0:0,0:0:0:0:
303,302,68614,2,0,L|307:236,1,45,2|0,0:1|0:0,0:0:0:0:
309,114,68787,1,2,0:1:0:0:
309,114,69132,5,4,0:3:0:0:
309,114,69649,6,2,B|188:114|256:179|118:170,1,180,2|0,0:1|0:0,0:1:0:0:
303,208,70166,1,4,0:3:0:0:
164,30,70338,6,0,L|155:96,1,45,2|0,0:1|0:0,0:0:0:0:
144,170,70510,1,8,0:0:0:0:
349,132,70683,6,0,P|300:112|268:114,1,45,2|0,0:1|0:0,0:0:0:0:
404,135,70855,2,0,P|361:102|330:96,1,45,2|0,0:1|0:0,0:0:0:0:
269,48,71028,1,2,0:1:0:0:
303,208,71200,6,0,L|315:269,1,45,2|0,0:1|0:0,0:0:0:0:
275,188,71372,2,0,L|287:249,1,45,2|0,0:1|0:0,0:0:0:0:
177,326,71545,2,0,L|189:265,1,45,2|0,0:1|0:0,0:0:0:0:
149,346,71717,2,0,L|161:285,1,45,4|0,0:3|0:0,0:0:0:0:
181,173,71890,5,4,0:3:0:0:
181,173,72579,6,0,P|267:110|253:163,1,270,2|0,0:1|0:0,0:0:0:0:
261,151,73269,5,8,0:0:0:0:
443,68,73441,2,0,L|365:59,1,45,2|0,0:1|0:0,0:0:0:0:
464,108,73614,2,0,L|350:93,1,90,2|0,0:1|0:0,0:0:0:0:
416,233,73959,6,0,L|403:167,1,45,2|0,0:1|0:0,0:0:0:0:
390,260,74131,2,0,L|377:194,1,45,2|0,0:1|0:0,0:0:0:0:
512,317,74303,2,0,L|499:383,1,45,2|0,0:1|0:0,0:0:0:0:
486,290,74475,2,0,L|473:356,1,45,2|0,0:1|0:0,0:0:0:0:
361,369,74648,1,4,0:3:0:0:
117,271,74821,6,0,L|188:263,1,45,2|0,0:1|0:0,0:0:0:0:
274,253,74993,1,2,0:1:0:0:
274,253,75338,6,0,L|268:213,1,40.4999987640381,2|0,0:1|0:0,0:0:0:0:
254,132,75510,1,2,0:1:0:0:
288,344,75683,5,8,0:0:0:0:
371,244,75855,2,0,L|360:186,1,36,2|0,0:1|0:0,0:0:0:0:
348,119,76028,1,4,0:3:0:0:
348,119,76373,5,2,0:1:0:0:
344,101,76545,1,4,0:3:0:0:
87,215,76890,6,0,L|124:208,2,22.5,2|0|8,0:1|0:0|0:0,0:0:0:0:
399,360,77407,1,4,0:3:0:0:
256,192,77493,12,2,79131,0:0:0:0:
76,128,79782,6,0,L|223:113,1,125.999996154785,2|0,0:0|0:0,0:0:0:0:
149,208,80299,1,2,0:0:0:0:
149,208,80644,5,2,0:0:0:0:
88,273,80816,2,0,P|90:287|97:335,1,62.9999980773926,2|0,0:0|0:0,0:0:0:0:
297,290,81161,6,0,B|253:285|253:285|222:297|222:297|172:291,1,125.999996154785,2|0,0:0|0:0,0:0:0:0:
25,211,81678,2,0,B|68:205|68:205|102:215|102:215|151:207,1,125.999996154785,2|0,0:0|0:0,0:0:0:0:
0,126,82195,1,2,0:0:0:0:
110,63,82368,6,0,P|91:94|88:130,1,62.9999980773926,2|0,0:0|0:0,0:0:0:0:
252,202,82713,2,0,P|220:127|156:114,1,125.999996154785,2|0,0:0|0:0,0:0:0:0:
79,297,83230,2,0,P|132:266|148:207,1,125.999996154785,2|2,0:0|0:0,0:0:0:0:
237,316,83919,6,0,B|324:307|284:349|380:327,1,125.999996154785,2|0,0:0|0:0,0:0:0:0:
317,127,84437,2,0,P|304:185|349:242,1,125.999996154785,2|0,0:0|0:0,0:0:0:0:
463,170,84954,2,0,P|432:161|401:165,1,62.9999980773926,2|0,0:0|0:0,0:0:0:0:
458,373,85299,2,0,P|470:314|426:258,1,125.999996154785,2|0,0:0|0:0,0:0:0:0:
434,262,85988,5,2,0:0:0:0:
366,329,86161,1,2,0:0:0:0:
322,176,86333,2,0,L|341:241,1,62.9999980773926,2|0,0:0|0:0,0:0:0:0:
174,215,86678,6,0,L|236:225,1,62.9999980773926,2|0,0:0|0:0,0:0:0:0:
70,333,87023,2,0,L|132:322,1,62.9999980773926,2|0,0:0|0:0,0:0:0:0:
75,172,87368,1,2,0:0:0:0:
75,172,87713,6,0,B|66:200|66:200|72:233,1,62.9999980773926,2|0,0:0|0:0,0:0:0:0:
159,54,88057,2,0,B|168:82|168:82|162:115,1,62.9999980773926,2|0,0:0|0:0,0:0:0:0:
9,63,88402,6,0,L|71:77,1,62.9999980773926,2|0,0:0|0:0,0:0:0:0:
223,100,88747,2,0,L|162:114,1,62.9999980773926,2|0,0:0|0:0,0:0:0:0:
365,60,89092,1,2,0:0:0:0:
365,60,89437,6,0,B|389:115|389:115|364:185,1,125.999996154785,2|0,0:0|0:0,0:0:0:0:
461,177,89954,1,2,0:0:0:0:
275,173,90126,2,0,B|252:110|252:110|276:55,1,125.999996154785,2|0,0:0|0:0,0:0:0:0:
277,56,90816,6,0,B|195:39|240:87|140:67,1,125.999996154785,2|0,0:0|0:0,0:0:0:0:
64,216,91333,2,0,P|45:143|96:90,1,125.999996154785,2|0,0:0|0:0,0:0:0:0:
152,173,91850,1,2,0:0:0:0:
152,173,92195,6,0,B|199:172|199:172|227:188|227:188|296:186,1,125.999996154785,2|0,0:0|0:0,0:0:0:0:
153,297,92713,2,0,B|199:298|199:298|227:282|227:282|274:283,1,125.999996154785,2|0,0:0|0:0,0:0:0:0:
360,231,93230,1,2,0:0:0:0:
360,231,93575,6,0,P|314:161|335:111,1,125.999996154785,2|0,0:0|0:0,0:0:0:0:
449,51,94092,2,0,P|454:111|412:156,1,125.999996154785,2|0,0:0|0:0,0:0:0:0:
352,29,94609,1,2,0:0:0:0:
352,29,94954,6,0,P|282:21|211:11,1,125.999996154785,2|0,0:0|0:0,0:0:0:0:
184,205,95471,1,2,0:0:0:0:
101,118,95644,2,0,P|171:110|242:100,1,125.999996154785,2|0,0:0|0:0,0:0:0:0:
226,102,96333,6,0,P|222:156|278:208,1,125.999996154785,2|0,0:0|0:0,0:0:0:0:
446,114,96850,2,0,P|448:169|397:217,1,125.999996154785,2|0,0:0|0:0,0:0:0:0:
343,68,97368,1,2,0:0:0:0:
343,68,97713,6,0,B|291:38|291:38|206:76,1,125.999996154785,2|0,0:0|0:0,0:0:0:0:
40,129,98230,2,0,B|100:156|100:156|152:126,1,125.999996154785,2|0,0:0|0:0,0:0:0:0:
92,49,98747,1,2,0:0:0:0:
92,49,99092,1,2,0:0:0:0:
256,192,99178,12,0,100471,0:0:0:0:
338,13,100816,6,0,L|397:26,2,53.9999983520508,2|2|2,0:0|0:0|0:0,0:0:0:0:
316,42,101850,6,0,L|424:66,1,90,4|0,0:3|0:0,0:0:0:0:
217,188,102195,2,0,L|304:168,1,90,10|0,0:0|0:0,0:0:0:0:
399,148,102540,5,2,0:0:0:0:
193,196,102713,1,4,0:3:0:0:
293,262,102885,2,0,B|309:304|309:304|292:345,1,90,10|0,0:0|0:0,0:0:0:0:
44,263,103230,6,0,B|155:253|108:320|232:300,1,180,4|8,0:3|0:0,0:0:0:0:
293,262,103747,1,0,0:0:0:0:
461,366,103919,1,2,0:0:0:0:
368,367,104092,1,4,0:3:0:0:
410,203,104264,2,0,B|429:245|429:245|413:286,1,90,10|0,0:0|0:0,0:0:0:0:
341,113,104609,6,0,P|387:106|453:94,1,90,4|0,0:3|0:0,0:0:0:0:
272,182,104954,2,0,B|207:170|207:170|170:143|170:143|89:127,1,180,10|0,0:0|0:0,0:0:0:0:
167,263,105471,1,4,0:3:0:0:
39,318,105644,5,8,0:0:0:0:
64,230,105816,1,0,0:0:0:0:
204,360,105988,6,0,B|240:359|240:359|260:369|260:369|305:369,1,90,4|0,0:3|0:0,0:0:0:0:
272,182,106333,2,0,B|289:225|289:225|264:281,1,90,10|0,0:0|0:0,0:0:0:0:
366,297,106678,1,2,0:0:0:0:
204,360,106850,1,4,0:3:0:0:
391,384,107023,2,0,L|482:377,1,90,10|0,0:0|0:0,0:0:0:0:
414,206,107368,6,0,P|461:263|464:317,1,90,4|0,0:3|0:0,0:0:0:0:
460,36,107713,2,0,P|426:65|409:107,1,90,10|0,0:0|0:0,0:0:0:0:
239,152,108057,5,2,0:0:0:0:
333,154,108230,1,4,0:3:0:0:
294,333,108402,2,0,B|295:300|295:300|288:280|288:280|288:244,1,90,10|0,0:0|0:0,0:0:0:0:
20,282,108747,6,0,L|109:295,1,90,4|0,0:3|0:0,0:0:0:0:
239,152,109092,2,0,L|149:165,1,90,8|0,0:0|0:0,0:0:0:0:
288,244,109437,1,2,0:0:0:0:
267,66,109609,1,4,0:3:0:0:
410,123,109782,5,8,0:0:0:0:
326,138,109954,1,0,0:0:0:0:
386,290,110126,6,0,B|402:251|402:251|373:174,1,90,4|0,0:3|0:0,0:0:0:0:
240,349,110471,2,0,B|304:350|304:350|350:374|350:374|442:373,1,180,8|0,0:0|0:0,0:0:0:0:
288,244,110988,5,4,0:3:0:0:
471,278,111161,1,8,0:0:0:0:
385,206,111333,1,0,0:0:0:0:
321,43,111506,6,0,P|308:114|305:162,1,90,4|0,0:3|0:0,0:0:0:0:
179,306,111850,2,0,P|173:261|164:217,1,90,10|0,0:0|0:0,0:0:0:0:
117,368,112195,1,2,0:0:0:0:
267,259,112368,1,4,0:3:0:0:
92,162,112540,2,0,P|98:117|107:73,1,90,10|0,0:0|0:0,0:0:0:0:
306,131,112885,6,0,B|261:117|261:117|187:146,1,90,4|0,0:3|0:0,0:0:0:0:
406,218,113230,2,0,B|451:232|451:232|525:204,1,90,10|0,0:0|0:0,0:0:0:0:
444,124,113575,5,2,0:0:0:0:
267,224,113747,1,4,0:3:0:0:
340,295,113919,2,0,P|343:329|342:394,1,90,10|0,0:0|0:0,0:0:0:0:
66,313,114264,6,0,B|134:309|134:309|175:331|175:331|256:325,1,180,4|8,0:3|0:0,0:0:0:0:
156,223,114782,1,0,0:0:0:0:
288,120,114954,1,2,0:0:0:0:
230,53,115126,1,4,0:3:0:0:
105,145,115299,2,0,B|214:135,1,90,8|0,0:0|0:0,0:0:0:0:
351,207,115644,6,0,L|261:215,1,90,4|0,0:3|0:0,0:0:0:0:
499,340,115988,2,0,L|311:314,1,180,8|0,0:0|0:0,0:0:0:0:
483,196,116506,1,4,0:3:0:0:
302,126,116678,1,8,0:0:0:0:
398,101,116850,1,2,0:0:0:0:
262,215,117023,6,0,P|217:210|172:206,1,90,4|0,0:3|0:0,0:0:0:0:
62,321,117368,2,0,B|76:251|76:251|74:214|74:214|91:120,1,180,10|0,0:0|0:0,0:0:0:0:
172,294,117885,1,4,0:3:0:0:
347,255,118057,1,8,0:0:0:0:
262,215,118230,1,2,0:0:0:0:
349,354,118402,6,0,P|383:348|481:334,1,90,4|0,0:3|0:0,0:0:0:0:
172,294,118747,2,0,P|216:301|261:309,1,90,8|0,0:0|0:0,0:0:0:0:
436,242,119092,2,0,P|391:248|347:256,1,90,4|0,0:3|0:0,0:0:0:0:
172,201,119437,2,0,P|217:207|261:214,1,90,8|0,0:0|0:0,0:0:0:0:
306,53,119782,6,0,L|312:142,1,90,4|0,0:3|0:0,0:0:0:0:
180,291,120126,2,0,L|172:185,1,90,8|0,0:0|0:0,0:0:0:0:
216,37,120471,2,0,L|222:126,1,90,4|0,0:3|0:0,0:0:0:0:
265,307,120816,2,0,L|258:217,1,90,8|0,0:0|0:0,0:0:0:0:
39,78,121161,5,4,0:3:0:0:
54,94,121333,1,4,0:3:0:0:
88,228,121506,1,4,0:3:0:0:
77,204,121678,1,4,0:3:0:0:
185,116,121850,1,4,0:3:0:0:
159,131,122023,1,4,0:3:0:0:
206,264,122195,1,4,0:3:0:0:
197,242,122368,1,4,0:3:0:0:
357,210,122540,5,4,0:3:0:0:
393,204,122626,1,4,0:3:0:0:
424,213,122713,1,4,0:3:0:0:
455,229,122799,1,4,0:3:0:0:
480,208,122885,5,4,0:3:0:0:
486,183,122971,1,4,0:3:0:0:
480,157,123057,1,4,0:3:0:0:
465,135,123144,1,4,0:3:0:0:
452,114,123230,6,4,L|391:124,3,45,4|4|4|4,0:3|0:3|0:3|0:3,0:3:0:0:
339,73,123575,2,4,L|294:65,3,45,4|4|4|4,0:3|0:3|0:3|0:3,0:3:0:0:
223,153,123919,6,0,L|200:10,2,144,2|2|2,0:0|0:0|0:0,0:0:0:0:
268,171,126678,6,0,B|288:127|288:127|261:56,1,99.0000030212403,4|0,0:3|0:0,0:0:0:0:
76,189,127023,1,10,0:0:0:0:
151,226,127195,1,0,0:0:0:0:
152,236,127282,1,0,0:0:0:0:
154,246,127368,1,0,0:0:0:0:
144,144,127540,1,4,0:3:0:0:
292,319,127713,5,10,0:0:0:0:
473,214,127885,2,0,B|435:213|435:213|412:223|412:223|365:220,1,99.0000030212403,2|4,0:0|0:3,0:0:0:0:
290,342,128230,5,4,0:3:0:0:
474,192,128402,2,0,B|436:191|436:191|413:201|413:201|366:198,1,99.0000030212403,10|0,0:0|0:0,0:0:0:0:
272,113,128747,5,2,0:0:0:0:
169,234,128919,1,4,0:3:0:0:
292,91,129092,5,10,0:0:0:0:
151,254,129264,1,2,0:0:0:0:
90,66,129437,5,4,0:3:0:0:
160,119,129609,1,4,0:3:0:0:
53,248,129782,1,10,0:0:0:0:
77,157,129954,1,0,0:0:0:0:
86,166,130040,1,0,0:0:0:0:
95,173,130126,1,0,0:0:0:0:
8,105,130299,1,4,0:3:0:0:
151,254,130471,5,10,0:0:0:0:
224,79,130644,2,0,L|240:177,1,99.0000030212403,2|4,0:0|0:3,0:0:0:0:
151,277,130988,5,4,0:3:0:0:
246,55,131161,2,0,L|261:152,1,99.0000030212403,10|0,0:0|0:0,0:0:0:0:
407,277,131506,5,2,0:0:0:0:
465,165,131678,1,4,0:3:0:0:
396,296,131850,5,10,0:0:0:0:
476,143,132023,1,2,0:0:0:0:
252,227,132195,6,0,B|319:230|285:202|353:209,1,99.0000030212403,4|0,0:3|0:0,0:0:0:0:
180,72,132540,1,10,0:0:0:0:
151,152,132713,1,0,0:0:0:0:
159,160,132799,1,0,0:0:0:0:
167,167,132885,1,0,0:0:0:0:
94,89,133057,1,4,0:3:0:0:
51,336,133230,5,10,0:0:0:0:
244,263,133402,2,0,B|210:263|210:263|186:273|186:273|140:272,1,99.0000030212403,2|4,0:0|0:3,0:0:0:0:
53,356,133747,5,4,0:3:0:0:
264,284,133919,2,0,B|230:284|230:284|206:294|206:294|160:293,1,99.0000030212403,10|0,0:0|0:0,0:0:0:0:
370,189,134264,5,2,0:0:0:0:
201,192,134436,1,4,0:3:0:0:
349,81,134609,5,10,0:0:0:0:
345,267,134781,1,2,0:0:0:0:
276,128,134954,6,0,B|256:84|256:84|274:36,1,99.0000030212403,4|4,0:3|0:3,0:0:0:0:
115,144,135299,1,10,0:0:0:0:
155,49,135471,1,0,0:0:0:0:
169,49,135557,1,0,0:0:0:0:
184,48,135644,1,0,0:0:0:0:
66,49,135816,1,4,0:3:0:0:
22,200,135989,5,10,0:0:0:0:
217,280,136161,2,0,B|138:265|181:304|93:287,1,116.999994644165,2|4,0:0|0:3,0:0:0:0:
23,180,136506,5,4,0:3:0:0:
232,308,136678,2,0,B|154:293|197:332|109:315,1,116.999994644165,10|0,0:0|0:0,0:0:0:0:
344,216,137023,5,4,0:3:0:0:
272,165,137195,1,2,0:0:0:0:
323,308,137368,5,4,0:3:0:0:
272,135,137540,1,2,0:0:0:0:
405,44,137713,6,0,L|289:39,1,99.0000030212403,4|0,0:3|0:0,0:0:0:0:
444,161,138058,1,10,0:0:0:0:
368,226,138230,1,0,0:0:0:0:
377,235,138316,1,0,0:0:0:0:
386,242,138402,1,0,0:0:0:0:
499,335,138575,1,4,0:3:0:0:
318,380,138747,5,10,0:0:0:0:
259,202,138920,2,0,P|247:310|247:351,1,135.000005149842,2|4,0:0|0:3,0:0:0:0:
345,379,139264,5,4,0:3:0:0:
242,179,139437,2,0,P|230:287|230:328,1,135.000005149842,10|0,0:0|0:0,0:0:0:0:
391,71,139782,5,2,0:0:0:0:
364,225,139954,1,4,0:3:0:0:
502,87,140126,5,10,0:0:0:0:
483,243,140299,1,2,0:0:0:0:
312,101,140471,6,0,B|271:102|271:102|255:118|255:118|211:119,1,99.0000030212403,4|0,0:3|0:0,0:0:0:0:
107,311,140816,1,10,0:0:0:0:
136,231,140989,1,0,0:0:0:0:
128,223,141075,1,0,0:0:0:0:
120,216,141161,1,0,0:0:0:0:
193,294,141333,1,4,0:3:0:0:
312,101,141506,5,10,0:0:0:0:
507,209,141678,2,0,B|423:188|423:188|333:212,1,153.000002918243,2|4,0:0|0:3,0:0:0:0:
312,80,142023,5,4,0:3:0:0:
509,186,142195,2,0,B|421:164|421:164|333:187,1,153.000002918243,10|0,0:0|0:0,0:0:0:0:
154,109,142540,5,2,0:0:0:0:
252,161,142713,1,2,0:0:0:0:
158,93,142885,5,10,0:0:0:0:
258,144,143057,1,2,0:0:0:0:
66,55,143230,6,0,B|48:103|48:103|68:147,1,99.0000030212403,4|0,0:3|0:0,0:0:0:0:
23,299,143575,1,10,0:0:0:0:
98,336,143747,1,0,0:0:0:0:
99,346,143834,1,0,0:0:0:0:
101,356,143920,1,0,0:0:0:0:
91,254,144092,1,4,0:3:0:0:
283,332,144265,5,10,0:0:0:0:
445,227,144437,2,0,B|217:206,1,170.999995433807,2|4,0:0|0:3,0:0:0:0:
270,349,144782,5,4,0:3:0:0:
471,204,144954,2,0,B|243:183,1,170.999995433807,10|0,0:0|0:0,0:0:0:0:
130,163,145299,5,4,0:3:0:0:
130,163,145989,5,4,0:3:0:0:
210,200,146161,1,4,0:3:0:0:
100,303,146334,1,10,0:0:0:0:
192,354,146506,1,0,0:0:0:0:
179,357,146592,1,0,0:0:0:0:
169,361,146678,1,0,0:0:0:0:
256,279,146851,1,4,0:3:0:0:
453,359,147023,5,10,0:0:0:0:
416,150,147195,1,2,0:0:0:0:
365,222,147368,1,4,0:3:0:0:
365,222,148057,5,8,0:0:0:0:
320,107,148747,5,4,0:3:0:0:
320,116,149092,5,2,0:0:0:0:
251,219,149265,1,0,0:0:0:0:
251,202,149351,1,0,0:0:0:0:
251,185,149437,1,8,0:0:0:0:
251,185,149782,6,0,B|202:200|202:200|147:192,1,99.0000030212403,4|0,0:3|0:0,0:0:0:0:
52,337,150126,2,0,B|49:286|49:286|77:227,1,99.0000030212403
27,74,150471,1,4,0:3:0:0:
71,147,150644,1,0,0:0:0:0:
171,305,150816,2,0,L|271:297,1,99.0000030212403,8|0,0:0|0:0,0:0:0:0:
208,98,151161,1,4,0:3:0:0:
216,185,151333,1,0,0:0:0:0:
103,41,151506,5,4,0:3:0:0:
103,57,151850,5,2,0:0:0:0:
109,255,152023,1,2,0:3:0:0:
109,241,152109,1,2,0:3:0:0:
109,227,152195,1,8,0:0:0:0:
109,227,152540,6,0,L|224:253,1,99.0000030212403,4|0,0:3|0:0,0:0:0:0:
353,104,152885,2,0,L|296:118,1,49.5000015106202
356,121,153057,2,0,L|299:135,1,49.5000015106202
338,300,153230,1,4,0:3:0:0:
282,222,153402,1,0,0:0:0:0:
130,149,153575,6,0,B|177:136|177:136|225:149,1,99.0000030212403,8|0,0:0|0:0,0:0:0:0:
65,285,153919,1,0,0:0:0:0:
157,252,154092,1,0,0:0:0:0:
32,183,154264,1,4,0:3:0:0:
32,183,154782,5,2,0:0:0:0:
73,104,154954,2,0,B|87:71|87:71|79:-7,1,90,8|0,0:0|0:0,0:0:0:0:
262,156,155299,2,0,L|161:148,1,99.0000030212403,4|0,0:3|0:0,0:0:0:0:
207,242,155644,6,0,L|223:339,1,99.0000030212403
406,282,155988,2,0,P|357:281|320:249,1,99.0000030212403,4|0,0:3|0:0,0:0:0:0:
386,89,156333,2,0,B|363:134|363:134|382:178,1,99.0000030212403,8|0,0:0|0:0,0:0:0:0:
303,383,156678,5,4,0:3:0:0:
263,188,156850,1,0,0:0:0:0:
94,262,157023,2,0,L|102:311,1,49.5000015106202,4|0,0:3|0:0,0:0:0:0:
111,259,157195,2,0,L|119:308,1,49.5000015106202
28,164,157368,2,0,L|16:241,1,49.5000015106202
11,161,157540,2,0,L|-1:238,1,49.5000015106202
102,120,157713,2,0,L|110:169,1,49.5000015106202,8|0,0:0|0:0,0:0:0:0:
119,117,157885,2,0,L|127:166,1,49.5000015106202
223,40,158057,2,0,L|211:117,1,49.5000015106202
206,37,158229,2,0,L|194:114,1,49.5000015106202
327,160,158402,6,0,L|315:83,1,49.5000015106202
310,163,158574,2,0,L|298:86,1,49.5000015106202,2|0,0:0|0:0,0:0:0:0:
401,90,158747,2,0,L|409:42,1,49.5000015106202,2|0,0:0|0:0,0:0:0:0:
418,93,158919,2,0,L|426:45,1,49.5000015106202
512,180,159092,2,0,L|500:103,1,49.5000015106202,2|0,0:0|0:0,0:0:0:0:
495,183,159264,2,0,L|483:106,1,49.5000015106202
386,244,159437,2,0,L|393:195,1,49.5000015106202,2|0,0:0|0:0,0:0:0:0:
403,247,159609,2,0,L|410:198,1,49.5000015106202
479,317,159782,1,4,0:3:0:0:
479,332,160126,5,2,0:0:0:0:
326,333,160299,1,0,0:0:0:0:
342,332,160385,1,0,0:0:0:0:
357,332,160471,1,8,0:0:0:0:
357,332,160816,6,0,L|244:333,1,99.0000030212403,4|0,0:3|0:0,0:0:0:0:
144,237,161160,2,0,L|242:237,1,99.0000030212403
320,85,161505,1,4,0:3:0:0:
255,144,161678,1,0,0:0:0:0:
391,241,161850,2,0,L|502:242,1,99.0000030212403,8|0,0:0|0:0,0:0:0:0:
441,67,162195,2,0,B|420:113|420:113|441:163,1,99.0000030212403,4|0,0:3|0:0,0:0:0:0:
445,335,162540,5,4,0:3:0:0:
431,335,162885,5,2,0:0:0:0:
216,333,163057,1,0,0:0:0:0:
216,314,163144,1,0,0:0:0:0:
215,293,163230,1,8,0:0:0:0:
216,271,163575,6,0,B|169:285|169:285|112:264,1,99.0000030212403,4|0,0:3|0:0,0:0:0:0:
49,229,163833,1,4,0:3:0:0:
49,229,163919,1,4,0:3:0:0:
185,107,164092,5,0,0:0:0:0:
266,167,164264,1,4,0:3:0:0:
494,218,164437,5,0,0:0:0:0:
413,260,164609,2,0,B|401:212|401:212|425:155,1,99.0000030212403,8|0,0:0|0:0,0:0:0:0:
330,288,164954,1,0,0:0:0:0:
403,357,165126,1,0,0:0:0:0:
234,333,165299,5,4,0:3:0:0:
179,133,165471,2,0,L|177:170,2,33.7500012874604
168,251,165816,1,0,0:0:0:0:
185,46,165988,1,8,0:0:0:0:
270,95,166161,2,0,L|326:95,1,33.7500012874604
384,164,166333,2,0,B|349:163|349:163|326:172|326:172|283:171,1,99.0000030212403,4|0,0:3|0:0,0:0:0:0:
371,252,166678,6,0,L|363:362,1,99.0000030212403
172,289,167023,2,0,B|220:275|220:275|307:306,1,99.0000030212403,4|0,0:3|0:0,0:0:0:0:
73,350,167368,2,0,L|62:241,1,99.0000030212403,8|0,0:0|0:0,0:0:0:0:
147,131,167713,1,4,0:3:0:0:
148,145,168057,6,0,L|148:194,1,49.5000015106202,4|0,0:3|0:0,0:0:0:0:
165,144,168229,2,0,L|165:193,1,49.5000015106202
263,112,168402,2,0,L|263:189,1,49.5000015106202,2|0,0:0|0:0,0:0:0:0:
245,111,168574,2,0,L|245:188,1,49.5000015106202
348,54,168747,2,0,L|348:103,1,49.5000015106202,8|0,0:0|0:0,0:0:0:0:
365,53,168919,2,0,L|365:102,1,49.5000015106202
466,15,169091,2,0,L|466:92,1,49.5000015106202,2|0,0:0|0:0,0:0:0:0:
448,14,169263,2,0,L|448:91,1,49.5000015106202,2|4,0:0|0:3,0:0:0:0:
458,202,169436,6,0,L|458:124,1,49.5000015106202,4|0,0:3|0:0,0:0:0:0:
440,202,169609,2,0,L|440:124,1,49.5000015106202,2|0,0:0|0:0,0:0:0:0:
343,258,169781,2,0,L|343:209,1,49.5000015106202,2|0,0:0|0:0,0:0:0:0:
360,258,169953,2,0,L|360:209,1,49.5000015106202
254,307,170126,2,0,L|254:229,1,49.5000015106202,2|0,0:0|0:0,0:0:0:0:
236,307,170299,2,0,L|236:229,1,49.5000015106202,2|0,0:0|0:0,0:0:0:0:
137,358,170471,2,0,L|136:308,1,49.5000015106202,2|0,0:0|0:0,0:0:0:0:
154,358,170643,2,0,L|153:308,1,49.5000015106202,2|0,0:0|0:0,0:0:0:0:
256,192,172195,12,0,173402,0:0:0:0:
141,163,173575,5,2,0:0:0:0:
141,163,174782,5,2,0:0:0:0:
62,119,174954,2,0,L|81:48,1,53.9999983520508,2|0,0:0|0:0,0:0:0:0:
68,216,175299,5,2,0:0:0:0:
165,268,175471,2,0,L|139:157,1,107.999996704102,2|0,0:0|0:0,0:0:0:0:
306,203,175988,2,0,L|244:205,1,53.9999983520508,2|0,0:0|0:0,0:0:0:0:
68,216,176333,1,2,0:0:0:0:
68,216,177540,5,2,0:0:0:0:
153,352,177713,2,0,B|135:302|135:302|152:250,1,107.999996704102,2|0,0:0|0:0,0:0:0:0:
335,297,178230,2,0,B|297:295|297:295|274:305|274:305|223:302,1,107.999996704102,2|0,0:0|0:0,0:0:0:0:
400,370,178747,2,0,L|470:375,1,53.9999983520508,2|0,0:0|0:0,0:0:0:0:
391,225,179092,1,2,0:0:0:0:
403,119,180471,6,0,B|397:164|397:164|400:180|400:180|391:230,1,107.999996704102,2|0,0:0|0:0,0:0:0:0:
192,191,180988,2,0,B|246:178|246:210|315:193,1,107.999996704102,2|0,0:0|0:0,0:0:0:0:
276,57,181506,2,0,P|283:83|287:109,1,53.9999983520508,2|0,0:0|0:0,0:0:0:0:
216,272,181850,1,2,0:0:0:0:
216,272,182540,5,2,0:0:0:0:
216,272,183230,6,0,L|339:288,1,107.999996704102,2|0,0:0|0:0,0:0:0:0:
370,75,183747,1,2,0:0:0:0:
361,150,183919,1,2,0:0:0:0:
283,180,184092,1,2,0:0:0:0:
283,180,184609,6,0,P|351:185|443:313,1,215.999993408203,2|8,0:0|0:0,0:0:0:0:
426,119,185644,1,0,0:0:0:0:
180,224,185988,2,0,P|172:178|199:105,1,107.999996704102,2|4,0:0|0:3,0:0:0:0:
8,211,186506,1,2,0:0:0:0:
128,342,186678,2,0,B|167:337|167:337|192:350|192:350|255:340,1,107.999996704102,8|2,0:0|0:0,0:0:0:0:
396,112,187368,6,0,P|400:157|414:243,1,107.999996704102,2|0,0:0|0:0,0:0:0:0:
453,30,188057,1,8,0:0:0:0:
256,138,188402,1,0,0:0:0:0:
375,356,188747,6,0,L|480:334,1,107.999996704102,2|4,0:0|0:3,0:0:0:0:
396,265,189264,1,2,0:0:0:0:
201,266,189437,2,0,L|306:287,1,107.999996704102,8|0,0:0|0:0,0:0:0:0:
87,65,190126,5,6,0:0:0:0:
256,192,190213,12,2,195600,0:0:0:0:
