osu file format v14

[General]
AudioFilename: audio.mp3
AudioLeadIn: 0
PreviewTime: 100644
Countdown: 0
SampleSet: Soft
StackLeniency: 0.7
Mode: 0
LetterboxInBreaks: 0
WidescreenStoryboard: 1

[Editor]
Bookmarks: 76373,77408,118402,126678,145299,149782,170816
DistanceSpacing: 1.6
BeatDivisor: 4
GridSize: 4
TimelineZoom: 1.6

[Metadata]
Title:Circles
TitleUnicode:Circles
Artist:Unknown Brain & Laura Brehm
ArtistUnicode:Unknown Brain & Laura Brehm
Creator:Peter
Version:Hard
Source:
Tags:Dance & EDM english electronic female vocal
BeatmapID:2004488
BeatmapSetID:945060

[Difficulty]
HPDrainRate:5
CircleSize:4
OverallDifficulty:6.5
ApproachRate:7.5
SliderMultiplier:1.4
SliderTickRate:1

[Events]
//Background and Video events
0,0,"bg.jpg",0,0
//Break Periods
2,44504,51852
//Storyboard Layer 0 (Background)
//Storyboard Layer 1 (Fail)
//Storyboard Layer 2 (Pass)
//Storyboard Layer 3 (Foreground)
//Storyboard Sound Samples

[TimingPoints]
167,344.827586206897,4,2,0,60,1,0
11291,337.078651685393,4,2,0,30,1,0
11291,-142.857142857143,4,2,0,30,0,0
12667,344.827586206897,4,2,0,30,1,0
12667,-142.857142857143,4,2,0,30,0,0
15196,344.827586206897,4,2,0,30,1,0
15196,-142.857142857143,4,2,0,30,0,0
15368,428.571428571429,4,2,0,30,1,0
15368,-125,4,2,0,30,0,0
15942,344.827586206897,4,2,0,30,1,0
15942,-142.857142857143,4,2,0,30,0,0
17945,344.827586206897,4,2,0,30,1,0
17945,-142.857142857143,4,2,0,30,0,0
18659,326.086956521739,4,2,0,30,1,0
18659,-142.857142857143,4,2,0,30,0,0
19364,324.324324324324,4,2,0,30,1,0
19364,-142.857142857143,4,2,0,30,0,0
22300,344.827586206897,4,2,0,30,1,0
22300,-142.857142857143,4,2,0,30,0,0
23624,344.827586206897,4,2,0,30,1,0
23624,-142.857142857143,4,2,0,30,0,0
24171,333.333333333333,4,2,0,30,1,0
24171,-142.857142857143,4,2,0,30,0,0
25540,337.078651685393,4,2,0,30,1,0
25540,-142.857142857143,4,2,0,30,0,0
26239,315.789473684211,4,2,0,30,1,0
26239,-142.857142857143,4,2,0,30,0,0
26919,352.941176470588,4,2,0,30,1,0
26919,-142.857142857143,4,2,0,30,0,0
27624,480,4,2,0,30,1,0
27624,-111.111111111111,4,2,0,30,0,0
28978,344.827586206897,4,2,0,30,1,0
28978,-142.857142857143,4,2,0,30,0,0
29617,352.941176470588,4,2,0,30,1,0
29617,-142.857142857143,4,2,0,30,0,0
30511,344.827586206897,4,2,0,30,1,0
32752,-142.857142857143,4,2,0,40,0,0
53959,-200,4,2,0,60,0,0
56717,-100,4,2,0,60,0,0
58614,-200,4,2,0,60,0,0
59476,-100,4,2,0,60,0,0
60855,-200,4,2,0,60,0,0
62235,-100,4,2,0,60,0,0
66373,-200,4,2,0,60,0,0
67752,-100,4,2,0,60,0,0
79782,344.827586206897,4,2,0,40,1,0
79782,-125,4,2,0,40,0,0
100816,-100,4,2,0,60,0,0
101850,-100,4,2,0,60,0,0
123919,-142.857142857143,4,2,0,30,0,0
126678,-90.9090909090909,4,2,0,80,0,1
145299,-100,4,2,0,30,0,0
145988,-90.9090909090909,4,2,0,80,0,1
147368,-100,4,2,0,80,0,0
149782,-90.9090909090909,4,2,0,80,0,1
151506,-100,4,2,0,80,0,0
152540,-90.9090909090909,4,2,0,80,0,1
154264,-100,4,2,0,80,0,0
155299,-90.9090909090909,4,2,0,80,0,1
159782,-100,4,2,0,80,0,0
160816,-90.9090909090909,4,2,0,80,0,1
162540,-100,4,2,0,80,0,0
163575,-90.9090909090909,4,2,0,80,0,1
165299,-100,4,2,0,80,0,0
166333,-90.9090909090909,4,2,0,80,0,1
170816,-100,4,2,0,60,0,0
174782,-100,4,2,0,60,0,0

[Colours]
Combo1 : 204,188,179
Combo2 : 248,171,114
Combo3 : 185,145,156
Combo4 : 255,64,64
Combo5 : 251,150,49
SliderBorder : 255,255,255
SliderTrackOverride : 0,0,0

[HitObjects]
44,105,11291,6,0,B|102:116|133:102|133:102|162:116|162:116|206:92|253:117,1,195.999994018555,2|2,0:0|0:0,0:0:0:0:
233,109,12667,6,0,L|229:217,1,97.9999970092774,2|2,0:0|0:0,0:0:0:0:
169,251,13184,2,0,L|82:236,2,73.4999977569581,2|2|2,0:0|0:0|0:0,0:0:0:0:
219,245,15368,6,0,L|295:241,1,56,2|2,0:0|0:0,0:0:0:0:
448,226,15942,2,0,B|430:171|430:171|446:123,1,97.9999970092774,2|0,0:0|0:0,0:0:0:0:
494,73,16459,2,0,P|430:46|368:103,1,146.999995513916,2|0,0:0|0:0,0:0:0:0:
372,88,17945,6,0,L|305:77,2,48.9999985046387,2|2|2,0:0|0:0|0:0,0:0:0:0:
230,193,18659,2,0,B|179:181|179:181|127:196,1,97.9999970092774,2|2,0:0|0:0,0:0:0:0:
77,341,19364,2,0,L|324:314,1,244.999992523194,2|2,0:0|0:0,0:0:0:0:
375,46,22300,6,0,B|371:263,1,195.999994018555,2|2,0:0|0:0,0:0:0:0:
96,130,23624,6,0,L|204:118,1,97.9999970092774,2|2,0:0|0:0,0:0:0:0:
233,182,24171,2,0,B|219:268,2,73.4999977569581,2|2|2,0:0|0:0|0:0,0:0:0:0:
233,182,25540,6,0,L|159:202,2,73.4999977569581,2|2|2,0:0|0:0|0:0,0:0:0:0:
298,221,26239,2,0,B|367:216|330:244|413:231,1,97.9999970092774,2|2,0:0|0:0,0:0:0:0:
496,119,26919,6,0,L|383:103,1,97.9999970092774,2|2,0:0|0:0,0:0:0:0:
278,23,27624,2,0,L|135:44,1,125.999996154785,2|0,0:0|0:0,0:0:0:0:
83,248,28978,6,0,L|29:240,2,48.9999985046387,2|2|2,0:0|0:0|0:0,0:0:0:0:
188,346,29617,2,0,L|293:331,1,97.9999970092774,2|2,0:0|0:0,0:0:0:0:
399,310,30146,1,2,0:0:0:0:
256,192,30511,12,2,32235,0:0:0:0:
132,43,32752,6,0,L|71:51,2,48.9999985046387,2|2|2,0:0|0:0|0:0,0:0:0:0:
180,99,33269,2,0,B|171:206,1,97.9999970092774,2|0,0:0|0:0,0:0:0:0:
108,331,33959,2,0,P|159:348|209:343,1,97.9999970092774,2|0,0:3|0:0,0:0:0:0:
347,308,34648,2,0,P|385:305|446:319,1,97.9999970092774,2|0,0:0|0:0,0:0:0:0:
442,167,35338,2,0,P|411:175|328:164,1,97.9999970092774,2|0,0:3|0:0,0:0:0:0:
232,73,36028,6,0,B|120:85,1,97.9999970092774,2|0,0:0|0:0,0:0:0:0:
33,193,36717,2,0,P|77:199|137:211,1,97.9999970092774,2|0,0:3|0:0,0:0:0:0:
222,330,37407,2,0,P|285:319|321:314,1,97.9999970092774,2|0,0:0|0:0,0:0:0:0:
462,368,38097,1,2,0:3:0:0:
435,299,38269,2,0,L|376:282,2,48.9999985046387,2|2|2,0:0|0:0|0:0,0:0:0:0:
483,242,38786,2,0,B|497:196|497:196|472:135,1,97.9999970092774,2|0,0:0|0:0,0:0:0:0:
358,62,39476,2,0,B|344:108|344:108|368:166,1,97.9999970092774,2|0,0:3|0:0,0:0:0:0:
262,263,40166,6,0,L|158:252,1,97.9999970092774,2|0,0:0|0:0,0:0:0:0:
64,139,40855,2,0,B|166:151,1,97.9999970092774,2|0,0:3|0:0,0:0:0:0:
285,68,41545,2,0,L|176:55,1,97.9999970092774,2|0,0:0|0:0,0:0:0:0:
64,139,42235,2,0,P|89:195|74:249,1,97.9999970092774,2|0,0:3|0:0,0:0:0:0:
184,339,42924,6,0,L|283:335,1,97.9999970092774,2|0,0:0|0:0,0:0:0:0:
381,213,43614,2,0,L|279:205,1,97.9999970092774,2|0,0:3|0:0,0:0:0:0:
199,73,44304,5,2,0:0:0:0:
256,192,52752,12,8,53959,0:0:0:0:
65,44,55338,6,0,B|215:17|146:98|313:63,1,245,4|0,0:3|0:0,0:0:0:0:
385,41,56717,5,8,0:0:0:0:
461,136,56890,1,2,0:1:0:0:
384,162,57062,2,0,B|395:260,1,70,2|0,0:1|0:0,0:0:0:0:
312,332,57407,1,2,0:1:0:0:
312,332,57579,1,2,0:1:0:0:
243,282,57752,1,2,0:1:0:0:
243,282,57924,1,2,0:1:0:0:
173,332,58097,1,4,0:3:0:0:
50,200,58614,6,0,L|64:52,1,140
138,20,59476,5,8,0:0:0:0:
236,96,59648,2,0,L|230:148,2,35,2|2|2,0:1|0:1|0:1,0:0:0:0:
300,39,59993,1,2,0:1:0:0:
355,102,60166,2,0,L|349:165,2,35,2|2|2,0:1|0:1|0:1,0:0:0:0:
429,63,60511,1,2,0:1:0:0:
429,63,60683,1,4,0:3:0:0:
452,176,60855,6,0,P|509:237|428:361,1,245,4|0,0:3|0:0,0:0:0:0:
371,315,62235,5,8,0:0:0:0:
265,370,62407,2,0,L|170:374,1,70,2|2,0:1|0:1,0:0:0:0:
110,378,62752,1,2,0:1:0:0:
132,297,62924,2,0,L|123:194,1,70,2|2,0:1|0:1,0:0:0:0:
61,167,63269,2,0,L|70:66,1,70,2|2,0:1|0:1,0:0:0:0:
75,13,63614,5,4,0:3:0:0:
177,76,63786,2,0,P|215:78|271:69,1,70,2|2,0:1|0:1,0:0:0:0:
337,60,64131,1,2,0:1:0:0:
457,106,64304,2,0,B|469:73|469:73|451:16,2,70,2|2|4,0:1|0:1|0:3,0:0:0:0:
402,169,64821,1,2,0:1:0:0:
401,259,64993,6,0,L|311:254,1,70,8|2,0:0|0:1,0:0:0:0:
263,306,65338,2,0,L|170:301,1,70,2|2,0:1|0:1,0:0:0:0:
79,294,65683,1,2,0:1:0:0:
79,294,65855,1,2,0:1:0:0:
127,223,66028,1,4,0:3:0:0:
127,223,66200,1,2,0:1:0:0:
37,159,66373,6,0,P|46:95|204:76,1,245,4|0,0:3|0:0,0:0:0:0:
262,18,67752,5,8,0:0:0:0:
274,142,67924,2,0,L|180:147,2,70,2|2|2,0:1|0:1|0:1,0:0:0:0:
289,262,68442,1,2,0:1:0:0:
289,262,68614,1,2,0:1:0:0:
247,335,68786,2,0,L|150:334,1,70,2|0,0:1|0:0,0:0:0:0:
70,329,69131,5,4,0:3:0:0:
32,128,69648,6,2,B|88:127|88:127|109:112|109:112|191:112,1,140,2|0,0:1|0:0,0:0:0:0:
251,116,70166,1,4,0:3:0:0:
207,229,70338,6,0,L|216:326,1,70,2|8,0:1|0:0,0:0:0:0:
292,334,70683,1,2,0:1:0:0:
333,261,70855,2,0,L|411:266,1,70,2|2,0:1|0:1,0:0:0:0:
465,173,71200,1,2,0:1:0:0:
465,173,71373,1,2,0:1:0:0:
395,114,71545,1,2,0:1:0:0:
395,114,71717,1,4,0:3:0:0:
322,157,71890,5,4,0:3:0:0:
18,261,72579,6,0,P|104:198|96:77,1,210,2|0,0:1|0:0,0:0:0:0:
79,20,73269,5,8,0:0:0:0:
196,56,73442,1,2,0:1:0:0:
280,48,73614,2,0,L|375:42,1,70,2|0,0:1|0:0,0:0:0:0:
464,40,73959,1,2,0:1:0:0:
464,40,74131,1,2,0:1:0:0:
434,118,74304,1,2,0:1:0:0:
434,118,74476,1,2,0:1:0:0:
495,174,74648,1,4,0:3:0:0:
450,247,74821,6,0,L|460:300,2,35,2|0|2,0:1|0:0|0:1,0:0:0:0:
282,237,75338,2,0,L|284:187,2,35,2|0|2,0:1|0:0|0:1,0:0:0:0:
243,311,75683,1,8,0:0:0:0:
167,275,75855,1,2,0:1:0:0:
167,275,76028,1,4,0:3:0:0:
128,140,76373,1,2,0:1:0:0:
128,140,76545,1,4,0:3:0:0:
331,86,77062,5,8,0:0:0:0:
279,216,77407,1,4,0:3:0:0:
256,192,77493,12,2,79131,0:0:0:0:
74,126,79782,6,0,L|211:114,1,112,2|0,0:0|0:0,0:0:0:0:
274,105,80299,1,2,0:0:0:0:
229,257,80644,2,0,L|153:248,2,56,2|2|0,0:0|0:0|0:0,0:0:0:0:
287,325,81161,6,0,P|345:310|399:343,1,112,2|0,0:0|0:0,0:0:0:0:
442,259,81678,2,0,P|411:207|429:142,1,112,2|0,0:0|0:0,0:0:0:0:
265,64,82368,6,0,B|194:82|221:53|145:63,2,112,2|2|0,0:0|0:0|0:0,0:0:0:0:
317,137,83230,2,0,B|319:182|319:182|310:204|310:204|313:265,1,112,2|2,0:0|0:0,0:0:0:0:
171,358,83919,6,0,B|43:349,1,112,2|0,0:0|0:0,0:0:0:0:
87,264,84437,2,0,P|51:213|76:151,1,112,2|0,0:0|0:0,0:0:0:0:
111,93,84954,1,2,0:0:0:0:
244,212,85299,1,2,0:0:0:0:
486,29,85988,5,2,0:0:0:0:
423,93,86161,1,2,0:0:0:0:
465,171,86333,2,0,L|458:237,1,56,2|0,0:0|0:0,0:0:0:0:
394,330,86678,6,0,B|329:316|356:359|264:333,1,112,2|2,0:0|0:0,0:0:0:0:
209,174,87368,1,2,0:0:0:0:
41,238,87713,2,0,B|20:181|20:181|46:124,1,112,2|2,0:0|0:0,0:0:0:0:
188,31,88402,2,0,L|320:45,1,112,2|2,0:0|0:0,0:0:0:0:
451,137,89092,1,2,0:0:0:0:
410,311,89437,6,0,B|280:294,1,112,2|0,0:0|0:0,0:0:0:0:
209,286,89954,1,2,0:0:0:0:
256,210,90126,2,0,L|269:76,1,112,2|0,0:0|0:0,0:0:0:0:
137,223,90816,6,0,B|64:213|99:263|11:236,1,112,2|0,0:0|0:0,0:0:0:0:
44,152,91333,2,0,P|30:85|71:58,1,112,2|0,0:0|0:0,0:0:0:0:
144,36,91850,1,2,0:0:0:0:
308,106,92195,6,0,B|357:104|357:104|382:119|382:119|441:114,1,112,2|0,0:0|0:0,0:0:0:0:
477,182,92713,2,0,P|448:222|475:291,1,112,2|0,0:0|0:0,0:0:0:0:
424,361,93230,1,2,0:0:0:0:
255,300,93575,6,0,L|120:309,1,112,2|0,0:0|0:0,0:0:0:0:
131,219,94092,2,0,L|266:209,1,112,2|0,0:0|0:0,0:0:0:0:
326,244,94609,1,2,0:0:0:0:
418,90,94954,6,0,L|290:74,1,112,2|0,0:0|0:0,0:0:0:0:
222,44,95471,1,2,0:0:0:0:
180,123,95644,2,0,L|50:140,1,112,2|0,0:0|0:0,0:0:0:0:
91,315,96333,6,0,P|155:312|201:350,1,112,2|0,0:0|0:0,0:0:0:0:
275,372,96850,2,0,P|344:373|394:346,1,112,2|0,0:0|0:0,0:0:0:0:
442,287,97368,1,2,0:0:0:0:
488,113,97713,6,0,B|354:122,1,112,2|0,0:0|0:0,0:0:0:0:
305,176,98230,2,0,B|172:166,1,112,2|0,0:0|0:0,0:0:0:0:
104,156,98747,1,2,0:0:0:0:
141,331,99092,1,2,0:0:0:0:
256,192,99178,12,0,100471,0:0:0:0:
412,158,100816,6,0,L|413:309,2,140,2|2|2,0:0|0:0|0:0,0:0:0:0:
249,208,101850,6,0,L|159:199,1,70,4|0,0:3|0:0,0:0:0:0:
112,148,102195,2,0,L|22:157,1,70,10|0,0:0|0:0,0:0:0:0:
1,230,102540,1,2,0:0:0:0:
48,299,102713,1,4,0:3:0:0:
126,270,102885,2,0,B|139:306|139:306|120:352,1,70,10|0,0:0|0:0,0:0:0:0:
242,368,103230,6,0,B|322:393|300:324|407:365,1,140,4|8,0:3|0:0,0:0:0:0:
440,300,103747,1,0,0:0:0:0:
382,239,103919,2,0,B|372:202|372:202|398:145,1,70,2|4,0:0|0:3,0:0:0:0:
413,93,104264,2,0,B|423:58|423:58|397:3,1,70,10|0,0:0|0:0,0:0:0:0:
300,61,104609,6,0,P|254:54|202:49,1,70,4|0,0:3|0:0,0:0:0:0:
148,33,104954,1,10,0:0:0:0:
131,258,105471,1,4,0:3:0:0:
168,333,105644,1,8,0:0:0:0:
247,305,105816,1,0,0:0:0:0:
316,351,105988,6,0,B|410:344,1,70,4|0,0:3|0:0,0:0:0:0:
454,257,106333,2,0,B|443:219|443:219|464:174,1,70,10|0,0:0|0:0,0:0:0:0:
496,117,106678,1,2,0:0:0:0:
433,61,106850,1,4,0:3:0:0:
354,90,107023,2,0,L|271:86,1,70,10|0,0:0|0:0,0:0:0:0:
199,81,107368,5,4,0:3:0:0:
310,196,107713,2,0,L|316:286,1,70,10|0,0:0|0:0,0:0:0:0:
255,327,108057,1,2,0:0:0:0:
191,272,108230,1,4,0:3:0:0:
113,306,108402,2,0,B|30:297,1,70,10|0,0:0|0:0,0:0:0:0:
46,183,108747,6,0,L|32:42,1,140,4|8,0:3|0:0,0:0:0:0:
170,139,109437,2,0,L|257:128,1,70,2|4,0:0|0:3,0:0:0:0:
303,75,109782,1,8,0:0:0:0:
383,99,109954,1,0,0:0:0:0:
352,209,110126,6,0,B|357:293,1,70,4|0,0:3|0:0,0:0:0:0:
282,319,110471,2,0,B|182:304|252:360|115:339,1,140,8|0,0:0|0:0,0:0:0:0:
69,314,110988,1,4,0:3:0:0:
107,210,111161,2,0,L|97:109,1,70,8|0,0:0|0:0,0:0:0:0:
87,53,111506,5,4,0:3:0:0:
239,104,111850,2,0,L|322:95,1,70,10|0,0:0|0:0,0:0:0:0:
366,33,112195,1,2,0:0:0:0:
434,82,112368,1,4,0:3:0:0:
399,158,112540,2,0,L|395:237,1,70,10|0,0:0|0:0,0:0:0:0:
429,342,112885,6,0,B|397:351|397:351|338:336,1,70,4|0,0:3|0:0,0:0:0:0:
286,303,113230,2,0,B|254:294|254:294|195:309,1,70,10|0,0:0|0:0,0:0:0:0:
136,320,113575,1,2,0:0:0:0:
75,262,113747,1,4,0:3:0:0:
98,181,113919,2,0,P|98:136|100:107,1,70,10|0,0:0|0:0,0:0:0:0:
154,8,114264,6,0,B|200:36|200:36|229:32|229:32|318:23,1,140,4|8,0:3|0:0,0:0:0:0:
268,109,114782,1,0,0:0:0:0:
251,191,114954,2,0,L|168:206,1,70,2|4,0:0|0:3,0:0:0:0:
200,285,115299,1,8,0:0:0:0:
361,239,115644,6,0,L|335:147,1,70,4|0,0:3|0:0,0:0:0:0:
415,132,115988,2,0,P|336:120|310:52,1,140,8|0,0:0|0:0,0:0:0:0:
394,47,116506,1,4,0:3:0:0:
474,68,116678,2,0,P|499:117|503:160,1,70,8|2,0:0|0:0,0:0:0:0:
491,240,117023,6,0,P|446:235|412:231,1,70,4|0,0:3|0:0,0:0:0:0:
382,306,117368,2,0,B|217:288,1,140,10|0,0:0|0:0,0:0:0:0:
159,277,117885,1,4,0:3:0:0:
211,211,118057,1,8,0:0:0:0:
70,110,118402,6,0,L|68:21,1,70,4|0,0:3|0:0,0:0:0:0:
152,39,118747,2,0,L|153:108,1,70,8|0,0:0|0:0,0:0:0:0:
230,75,119092,2,0,P|258:81|304:84,1,70,4|0,0:3|0:0,0:0:0:0:
364,139,119437,2,0,P|390:133|436:130,1,70,8|0,0:0|0:0,0:0:0:0:
412,213,119782,6,0,L|421:283,1,70,4|0,0:3|0:0,0:0:0:0:
355,334,120126,2,0,L|265:312,1,70,8|0,0:0|0:0,0:0:0:0:
222,261,120471,2,0,L|136:278,1,70,4|0,0:3|0:0,0:0:0:0:
69,276,120816,2,0,L|62:202,1,70,8|0,0:0|0:0,0:0:0:0:
93,125,121161,5,4,0:3:0:0:
93,125,121333,1,4,0:3:0:0:
142,56,121506,2,0,P|115:45|43:43,2,70,4|4|4,0:3|0:3|0:3,0:0:0:0:
189,125,122023,1,4,0:3:0:0:
256,72,122195,1,4,0:3:0:0:
256,72,122368,1,4,0:3:0:0:
323,126,122540,6,0,L|372:121,3,35,4|4|4|4,0:3|0:3|0:3|0:3,0:0:0:0:
384,155,122885,2,0,L|433:160,3,35,4|4|4|4,0:3|0:3|0:3|0:3,0:0:0:0:
445,193,123230,6,4,L|437:236,3,35,4|4|4|4,0:3|0:3|0:3|0:3,0:0:0:0:
415,263,123575,2,4,L|428:323,3,35,4|4|4|4,0:3|0:3|0:3|0:3,0:0:0:0:
402,330,123919,6,0,B|321:335|321:335|291:315|291:315|193:319,2,195.999994018555,2|2|2,0:0|0:0|0:0,0:0:0:0:
59,293,126678,6,0,P|62:260|53:199,1,77.0000023498536,4|0,0:3|0:0,0:0:0:0:
32,135,127023,1,10,0:0:0:0:
86,70,127195,1,0,0:0:0:0:
86,70,127282,1,0,0:0:0:0:
86,70,127368,2,0,L|178:80,1,77.0000023498536,0|4,0:0|0:3,0:0:0:0:
241,164,127713,1,10,0:0:0:0:
283,92,127885,6,0,B|277:2,1,77.0000023498536,2|4,0:0|0:3,0:0:0:0:
397,12,128230,1,4,0:3:0:0:
408,103,128402,2,0,B|516:95,1,77.0000023498536,10|0,0:0|0:0,0:0:0:0:
430,214,128747,1,2,0:0:0:0:
430,214,128919,1,4,0:3:0:0:
493,269,129092,2,0,B|502:308|502:308|480:367,1,77.0000023498536,10|2,0:0|0:0,0:0:0:0:
373,295,129437,5,4,0:3:0:0:
310,362,129609,1,4,0:3:0:0:
237,304,129782,2,0,L|242:215,1,77.0000023498536,10|0,0:0|0:0,0:0:0:0:
250,185,130040,1,0,0:0:0:0:
250,185,130126,1,0,0:0:0:0:
311,115,130299,1,4,0:3:0:0:
218,46,130471,1,10,0:0:0:0:
156,109,130644,6,0,L|54:99,1,77.0000023498536,2|4,0:0|0:3,0:0:0:0:
0,191,130988,1,4,0:3:0:0:
76,227,131161,2,0,L|88:315,1,77.0000023498536,10|0,0:0|0:0,0:0:0:0:
152,365,131506,1,2,0:0:0:0:
152,365,131678,1,4,0:3:0:0:
231,320,131850,2,0,P|288:321|328:328,1,77.0000023498536,10|2,0:0|0:0,0:0:0:0:
416,263,132195,6,0,B|428:157,1,77.0000023498536,4|0,0:3|0:0,0:0:0:0:
386,102,132540,1,10,0:0:0:0:
298,133,132713,1,0,0:0:0:0:
298,133,132799,1,0,0:0:0:0:
298,133,132885,2,0,L|201:120,1,77.0000023498536,0|4,0:0|0:3,0:0:0:0:
128,47,133230,5,10,0:0:0:0:
108,127,133402,2,0,P|115:165|119:229,1,77.0000023498536,2|4,0:0|0:3,0:0:0:0:
47,294,133747,1,4,0:3:0:0:
129,319,133919,2,0,B|157:318|157:318|173:326|173:326|235:324,1,77.0000023498536,10|0,0:0|0:0,0:0:0:0:
307,273,134264,1,2,0:0:0:0:
307,273,134437,1,4,0:3:0:0:
355,344,134609,2,0,L|450:333,1,77.0000023498536,10|2,0:0|0:0,0:0:0:0:
506,247,134954,5,4,0:3:0:0:
436,187,135126,1,4,0:3:0:0:
498,109,135299,2,0,P|448:92|396:94,1,77.0000023498536,10|0,0:0|0:0,0:0:0:0:
378,100,135557,1,0,0:0:0:0:
378,100,135644,1,0,0:0:0:0:
313,33,135816,1,4,0:3:0:0:
233,105,135988,1,10,0:0:0:0:
144,81,136161,6,0,B|124:-18,1,77.0000023498536,2|4,0:0|0:3,0:0:0:0:
23,69,136506,1,4,0:3:0:0:
38,157,136678,2,0,B|51:239,1,77.0000023498536,10|0,0:0|0:0,0:0:0:0:
165,190,137023,2,0,B|197:190|197:190|214:195|214:195|264:196,1,77.0000023498536,4|2,0:3|0:0,0:0:0:0:
323,138,137368,2,0,L|422:148,1,77.0000023498536,4|2,0:3|0:0,0:0:0:0:
430,262,137713,6,0,B|418:297|418:297|434:358,1,77.0000023498536,4|0,0:3|0:0,0:0:0:0:
344,380,138057,1,10,0:0:0:0:
250,346,138230,1,0,0:0:0:0:
250,346,138316,1,0,0:0:0:0:
250,346,138402,2,0,L|169:356,1,77.0000023498536,0|4,0:0|0:3,0:0:0:0:
37,358,138747,1,10,0:0:0:0:
94,292,138919,6,0,P|95:242|102:191,1,77.0000023498536,2|4,0:0|0:3,0:0:0:0:
123,95,139264,1,4,0:3:0:0:
37,130,139437,2,0,P|36:91|41:53,1,77.0000023498536,10|0,0:0|0:0,0:0:0:0:
121,6,139782,1,2,0:0:0:0:
121,6,139954,1,4,0:3:0:0:
197,57,140126,2,0,L|294:46,1,77.0000023498536,10|2,0:0|0:0,0:0:0:0:
381,128,140471,5,4,0:3:0:0:
327,203,140644,1,0,0:0:0:0:
375,281,140816,2,0,L|277:294,1,77.0000023498536,10|0,0:0|0:0,0:0:0:0:
254,305,141075,1,0,0:0:0:0:
254,305,141161,1,0,0:0:0:0:
184,365,141333,1,4,0:3:0:0:
91,288,141506,1,10,0:0:0:0:
148,225,141678,6,0,B|137:188|137:188|162:127,1,77.0000023498536,2|4,0:0|0:3,0:0:0:0:
123,40,142023,1,4,0:3:0:0:
210,48,142195,2,0,B|312:54,1,77.0000023498536,10|0,0:0|0:0,0:0:0:0:
371,91,142540,1,2,0:0:0:0:
371,91,142713,1,2,0:0:0:0:
295,144,142885,2,0,L|305:239,1,77.0000023498536,10|2,0:0|0:0,0:0:0:0:
242,326,143230,5,4,0:3:0:0:
165,274,143402,1,0,0:0:0:0:
80,311,143575,2,0,L|69:216,1,77.0000023498536,10|0,0:0|0:0,0:0:0:0:
69,188,143833,1,0,0:0:0:0:
69,188,143919,1,0,0:0:0:0:
19,109,144092,1,4,0:3:0:0:
109,34,144264,1,10,0:0:0:0:
170,89,144437,6,0,B|249:84,1,77.0000023498536,2|4,0:0|0:3,0:0:0:0:
367,77,144782,1,4,0:3:0:0:
358,171,144954,2,0,B|350:257,1,77.0000023498536,10|0,0:0|0:0,0:0:0:0:
337,351,145299,1,4,0:3:0:0:
22,293,145988,5,4,0:3:0:0:
90,237,146161,1,4,0:3:0:0:
39,169,146333,2,0,L|49:88,1,77.0000023498536,10|0,0:0|0:0,0:0:0:0:
62,52,146592,1,0,0:0:0:0:
62,52,146678,1,0,0:0:0:0:
128,104,146850,1,4,0:3:0:0:
224,36,147023,2,0,L|313:42,1,77.0000023498536,10|2,0:0|0:0,0:0:0:0:
403,54,147368,5,4,0:3:0:0:
102,250,148057,1,8,0:0:0:0:
395,344,148747,5,4,0:3:0:0:
468,208,149092,1,2,0:0:0:0:
422,145,149264,1,0,0:0:0:0:
422,145,149350,1,0,0:0:0:0:
422,145,149437,1,8,0:0:0:0:
271,67,149782,2,0,L|169:80,1,77.0000023498536,4|0,0:3|0:0,0:0:0:0:
125,125,150126,6,0,B|140:157|140:157|127:226,1,77.0000023498536,0|0,0:0|0:0,0:0:0:0:
116,309,150471,1,4,0:3:0:0:
197,269,150644,1,0,0:0:0:0:
273,313,150816,2,0,L|373:305,1,77.0000023498536,8|0,0:0|0:0,0:0:0:0:
399,231,151161,2,0,L|499:239,1,77.0000023498536,4|0,0:3|0:0,0:0:0:0:
486,122,151506,5,4,0:3:0:0:
342,24,151850,1,2,0:0:0:0:
303,97,152023,1,2,0:3:0:0:
303,97,152109,1,2,0:3:0:0:
303,97,152195,1,8,0:0:0:0:
74,34,152540,1,4,0:3:0:0:
120,104,152713,1,0,0:0:0:0:
58,162,152885,6,0,L|57:271,1,77.0000023498536,0|0,0:0|0:0,0:0:0:0:
55,351,153230,1,4,0:3:0:0:
126,304,153402,1,0,0:0:0:0:
203,333,153575,2,0,P|241:326|290:327,1,77.0000023498536,8|0,0:0|0:0,0:0:0:0:
320,252,153919,2,0,P|294:173|297:159,1,77.0000023498536,0|0,0:0|0:0,0:0:0:0:
350,87,154264,5,4,0:3:0:0:
59,35,154954,1,8,0:0:0:0:
157,172,155299,2,0,L|167:261,1,77.0000023498536,4|0,0:3|0:0,0:0:0:0:
86,278,155644,6,0,L|94:367,1,77.0000023498536
211,380,155988,2,0,P|271:369|311:371,1,77.0000023498536,4|0,0:3|0:0,0:0:0:0:
351,313,156333,2,0,P|409:324|449:322,1,77.0000023498536,8|0,0:0|0:0,0:0:0:0:
504,239,156678,1,4,0:3:0:0:
439,187,156850,1,0,0:0:0:0:
460,104,157023,6,0,L|362:114,3,77.0000023498536,4|0|0|0,0:3|0:0|0:0|0:0,0:0:0:0:
308,152,157713,2,0,L|211:141,3,77.0000023498536,8|0|0|0,0:0|0:0|0:0|0:0,0:0:0:0:
152,114,158402,6,0,L|165:212,3,77.0000023498536,0|2|2|0,0:0|0:0|0:0|0:0,0:0:0:0:
210,260,159092,2,0,L|197:356,3,77.0000023498536,2|0|2|0,0:0|0:0|0:0|0:0,0:0:0:0:
285,379,159782,5,4,0:3:0:0:
399,276,160126,1,2,0:0:0:0:
471,332,160299,1,0,0:0:0:0:
471,332,160385,1,0,0:0:0:0:
471,332,160471,1,8,0:0:0:0:
418,170,160816,6,0,L|316:183,1,77.0000023498536,4|0,0:3|0:0,0:0:0:0:
311,101,161161,2,0,L|207:88,1,77.0000023498536,0|0,0:0|0:0,0:0:0:0:
123,78,161506,1,4,0:3:0:0:
62,137,161678,1,0,0:0:0:0:
107,207,161850,2,0,L|97:300,1,77.0000023498536,8|0,0:0|0:0,0:0:0:0:
183,293,162195,2,0,L|192:211,1,77.0000023498536,4|0,0:3|0:0,0:0:0:0:
305,225,162540,5,4,0:3:0:0:
425,320,162885,1,2,0:0:0:0:
479,265,163057,1,0,0:0:0:0:
479,265,163144,1,0,0:0:0:0:
479,265,163230,1,8,0:0:0:0:
398,117,163575,2,0,L|318:116,1,77.0000023498536,4|0,0:3|0:0,0:0:0:0:
314,148,163833,1,4,0:3:0:0:
314,148,163919,6,0,L|210:148,1,77.0000023498536,4|0,0:3|0:0,0:0:0:0:
177,87,164264,1,4,0:3:0:0:
105,132,164437,1,0,0:0:0:0:
123,214,164609,2,0,L|211:215,1,77.0000023498536,8|0,0:0|0:0,0:0:0:0:
251,281,164954,2,0,L|344:281,1,77.0000023498536
452,283,165299,5,4,0:3:0:0:
276,29,165988,1,8,0:0:0:0:
120,96,166333,2,0,L|126:185,1,77.0000023498536,4|0,0:3|0:0,0:0:0:0:
54,224,166678,6,0,L|48:300,1,77.0000023498536,0|0,0:0|0:0,0:0:0:0:
138,372,167023,2,0,B|180:359|180:359|239:378,1,77.0000023498536,4|0,0:3|0:0,0:0:0:0:
258,298,167368,2,0,B|245:256|245:256|264:195,1,77.0000023498536,8|0,0:0|0:0,0:0:0:0:
288,121,167713,1,4,0:3:0:0:
359,174,167885,1,0,0:0:0:0:
432,117,168057,6,0,P|446:151|448:198,3,77.0000023498536,4|0|2|0,0:3|0:0|0:0|0:0,0:0:0:0:
407,272,168747,2,0,P|393:306|391:351,3,77.0000023498536,8|0|2|2,0:0|0:0|0:0|0:0,0:0:0:0:
360,352,169350,1,4,0:3:0:0:
332,358,169437,6,0,L|220:351,3,77.0000023498536,4|2|2|0,0:3|0:0|0:0|0:0,0:0:0:0:
185,289,170126,2,0,L|92:287,3,77.0000023498536,2|2|2|2,0:0|0:0|0:0|0:0,0:0:0:0:
256,192,172195,12,2,173575,0:0:0:0:
139,161,174782,5,2,0:0:0:0:
83,225,174954,2,0,L|104:312,1,70,2|0,0:0|0:0,0:0:0:0:
167,342,175299,1,2,0:0:0:0:
241,303,175471,2,0,L|406:323,1,140,2|0,0:0|0:0,0:0:0:0:
465,331,175988,1,2,0:0:0:0:
423,166,176333,1,2,0:0:0:0:
36,208,177540,5,2,0:0:0:0:
89,272,177713,2,0,P|117:222|84:134,1,140,2|0,0:0|0:0,0:0:0:0:
152,82,178230,2,0,B|308:92,1,140,2|0,0:0|0:0,0:0:0:0:
377,98,178747,1,2,0:0:0:0:
273,232,179092,1,2,0:0:0:0:
466,357,180471,6,0,B|477:316|477:316|450:204,1,140,2|0,0:0|0:0,0:0:0:0:
491,143,180988,2,0,P|417:129|373:187,1,140,2|0,0:0|0:0,0:0:0:0:
373,258,181506,1,2,0:0:0:0:
272,122,181850,5,2,0:0:0:0:
27,356,182540,1,2,0:0:0:0:
356,279,183230,6,0,L|498:304,1,140,2|0,0:0|0:0,0:0:0:0:
506,219,183747,1,2,0:0:0:0:
479,137,183919,1,2,0:0:0:0:
395,146,184092,1,2,0:0:0:0:
171,26,184609,6,0,P|103:31|94:215,1,280,2|8,0:0|0:0,0:0:0:0:
12,360,185644,1,0,0:0:0:0:
170,304,185988,2,0,L|316:312,1,140,2|4,0:0|0:3,0:0:0:0:
382,265,186506,1,2,0:0:0:0:
319,208,186678,2,0,P|297:135|331:71,1,140,8|2,0:0|0:0,0:0:0:0:
160,28,187368,6,0,L|-3:52,1,140,2|0,0:0|0:0,0:0:0:0:
39,217,188057,1,8,0:0:0:0:
202,177,188402,1,0,0:0:0:0:
291,322,188747,6,0,L|435:303,1,140,2|4,0:0|0:3,0:0:0:0:
426,219,189264,1,2,0:0:0:0:
342,226,189437,2,0,L|356:78,1,140,8|0,0:0|0:0,0:0:0:0:
194,139,190126,5,6,0:0:0:0:
256,192,190213,12,2,195600,0:0:0:0:
