osu file format v14

[General]
AudioFilename: audio.mp3
AudioLeadIn: 0
PreviewTime: 1365
Countdown: 0
SampleSet: Normal
StackLeniency: 0.7
Mode: 1
LetterboxInBreaks: 0
WidescreenStoryboard: 1

[Editor]
Bookmarks: 15811,30356,44901,46720,55811,84901,99447
DistanceSpacing: 0.1
BeatDivisor: 12
GridSize: 32
TimelineZoom: 2.6

[Metadata]
Title:d_intro
TitleUnicode:d_intro
Artist:Unknown Artist
ArtistUnicode:Unknown Artist
Creator:Grimbow
Version:Ultra-Violence
Source:
Tags:DOOM video game shareware joel Michael W. Byrnes retro rip and tear electronic instrumental the mystery midi 8bit alien star
BeatmapID:2575707
BeatmapSetID:1140469

[Difficulty]
HPDrainRate:5.5
CircleSize:5
OverallDifficulty:5.5
ApproachRate:5
SliderMultiplier:1.4
SliderTickRate:1

[Events]
//Background and Video events
0,0,"doomwp.jpg",0,80
//Break Periods
//Storyboard Layer 0 (Background)
//Storyboard Layer 1 (Fail)
//Storyboard Layer 2 (Pass)
//Storyboard Layer 3 (Foreground)
//Storyboard Layer 4 (Overlay)
//Storyboard Sound Samples

[TimingPoints]
1366,227.272727272727,4,1,0,75,1,0

[HitObjects]
256,192,1365,5,0,0:0:0:0:
256,192,1593,1,8,0:0:0:0:
256,192,1706,1,8,0:0:0:0:
256,192,1820,1,0,0:0:0:0:
256,192,2047,1,8,0:0:0:0:
256,192,2275,1,8,0:0:0:0:
256,192,2502,1,8,0:0:0:0:
256,192,2615,1,0,0:0:0:0:
256,192,2843,1,0,0:0:0:0:
256,192,2956,1,8,0:0:0:0:
256,192,3184,1,0,0:0:0:0:
256,192,3411,1,8,0:0:0:0:
256,192,3525,1,8,0:0:0:0:
256,192,3638,1,0,0:0:0:0:
256,192,3752,1,0,0:0:0:0:
256,192,3865,1,8,0:0:0:0:
256,192,4093,1,8,0:0:0:0:
256,192,4320,1,8,0:0:0:0:
256,192,4434,1,0,0:0:0:0:
256,192,4547,1,0,0:0:0:0:
256,192,4775,1,8,0:0:0:0:
256,192,5002,1,0,0:0:0:0:
256,192,5229,1,8,0:0:0:0:
256,192,5343,1,0,0:0:0:0:
256,192,5456,1,8,0:0:0:0:
256,192,5684,1,8,0:0:0:0:
256,192,5797,1,0,0:0:0:0:
256,192,5911,1,0,0:0:0:0:
256,192,6138,1,8,0:0:0:0:
256,192,6252,1,8,0:0:0:0:
256,192,6365,1,0,0:0:0:0:
256,192,6479,1,0,0:0:0:0:
256,192,6593,1,8,0:0:0:0:
256,192,6820,1,0,0:0:0:0:
256,192,7047,1,8,0:0:0:0:
256,192,7161,1,0,0:0:0:0:
256,192,7275,1,0,0:0:0:0:
256,192,7502,1,8,0:0:0:0:
256,192,7729,1,0,0:0:0:0:
256,192,7843,1,0,0:0:0:0:
256,192,7956,1,8,0:0:0:0:
256,192,8184,1,0,0:0:0:0:
256,192,8297,1,0,0:0:0:0:
256,192,8411,1,8,0:0:0:0:
256,192,8638,1,12,0:0:0:0:
256,192,8865,1,8,0:0:0:0:
256,192,8979,1,0,0:0:0:0:
256,192,9206,1,0,0:0:0:0:
256,192,9320,1,8,0:0:0:0:
256,192,9547,1,8,0:0:0:0:
256,192,9775,1,8,0:0:0:0:
256,192,9888,1,0,0:0:0:0:
256,192,10002,1,0,0:0:0:0:
256,192,10229,1,8,0:0:0:0:
256,192,10456,1,0,0:0:0:0:
256,192,10684,1,8,0:0:0:0:
256,192,10797,1,0,0:0:0:0:
256,192,10911,1,0,0:0:0:0:
256,192,11025,1,0,0:0:0:0:
256,192,11138,1,8,0:0:0:0:
256,192,11365,1,8,0:0:0:0:
256,192,11593,1,8,0:0:0:0:
256,192,11706,1,0,0:0:0:0:
256,192,11934,1,0,0:0:0:0:
256,192,12047,1,8,0:0:0:0:
256,192,12275,1,0,0:0:0:0:
256,192,12502,1,8,0:0:0:0:
256,192,12615,1,8,0:0:0:0:
256,192,12729,1,8,0:0:0:0:
256,192,12956,1,0,0:0:0:0:
256,192,13070,1,0,0:0:0:0:
256,192,13184,1,0,0:0:0:0:
256,192,13411,1,8,0:0:0:0:
256,192,13525,1,0,0:0:0:0:
256,192,13638,1,8,0:0:0:0:
256,192,13752,1,8,0:0:0:0:
256,192,13865,1,0,0:0:0:0:
256,192,14093,1,0,0:0:0:0:
256,192,14320,1,8,0:0:0:0:
256,192,14434,1,0,0:0:0:0:
256,192,14547,1,0,0:0:0:0:
256,192,14775,1,8,0:0:0:0:
256,192,15002,1,0,0:0:0:0:
256,192,15115,1,8,0:0:0:0:
256,192,15229,1,8,0:0:0:0:
256,192,15456,1,0,0:0:0:0:
256,192,15570,1,0,0:0:0:0:
256,192,15684,1,8,0:0:0:0:
256,192,15911,1,12,0:0:0:0:
256,192,16138,1,0,0:0:0:0:
256,192,16365,1,8,0:0:0:0:
256,192,16706,1,0,0:0:0:0:
256,192,16820,1,0,0:0:0:0:
256,192,17047,1,0,0:0:0:0:
256,192,17275,1,8,0:0:0:0:
256,192,17729,1,0,0:0:0:0:
256,192,17956,1,0,0:0:0:0:
256,192,18184,1,8,0:0:0:0:
256,192,18297,1,0,0:0:0:0:
256,192,18525,1,0,0:0:0:0:
256,192,18638,1,0,0:0:0:0:
256,192,18865,1,0,0:0:0:0:
256,192,19093,1,8,0:0:0:0:
256,192,19320,1,8,0:0:0:0:
256,192,19547,1,0,0:0:0:0:
256,192,19661,1,0,0:0:0:0:
256,192,19775,1,8,0:0:0:0:
256,192,19888,1,8,0:0:0:0:
256,192,20002,1,0,0:0:0:0:
256,192,20115,1,8,0:0:0:0:
256,192,20229,1,8,0:0:0:0:
256,192,20343,1,8,0:0:0:0:
256,192,20456,1,0,0:0:0:0:
256,192,20570,1,8,0:0:0:0:
256,192,20684,1,0,0:0:0:0:
256,192,20797,1,0,0:0:0:0:
256,192,20911,1,8,0:0:0:0:
256,192,21025,1,0,0:0:0:0:
256,192,21138,1,0,0:0:0:0:
256,192,21365,1,8,0:0:0:0:
256,192,21479,1,0,0:0:0:0:
256,192,21593,1,0,0:0:0:0:
256,192,21706,1,12,0:0:0:0:
256,192,22047,1,8,0:0:0:0:
256,192,22161,1,0,0:0:0:0:
256,192,22275,1,0,0:0:0:0:
256,192,22388,1,0,0:0:0:0:
256,192,22502,1,12,0:0:0:0:
256,192,22729,1,0,0:0:0:0:
256,192,22843,1,0,0:0:0:0:
256,192,22956,1,12,0:0:0:0:
256,192,23184,1,8,0:0:0:0:
256,192,23411,1,0,0:0:0:0:
256,192,23638,1,8,0:0:0:0:
256,192,23752,1,0,0:0:0:0:
256,192,24093,1,0,0:0:0:0:
256,192,24320,1,0,0:0:0:0:
256,192,24547,1,8,0:0:0:0:
256,192,24888,1,0,0:0:0:0:
256,192,25002,1,0,0:0:0:0:
256,192,25229,1,0,0:0:0:0:
256,192,25456,1,8,0:0:0:0:
256,192,25911,1,0,0:0:0:0:
256,192,26138,1,0,0:0:0:0:
256,192,26365,1,8,0:0:0:0:
256,192,26593,1,8,0:0:0:0:
256,192,26820,1,0,0:0:0:0:
256,192,26934,1,8,0:0:0:0:
256,192,27047,1,8,0:0:0:0:
256,192,27161,1,8,0:0:0:0:
256,192,27275,1,0,0:0:0:0:
256,192,27388,1,0,0:0:0:0:
256,192,27502,1,8,0:0:0:0:
256,192,27615,1,8,0:0:0:0:
256,192,27729,1,0,0:0:0:0:
256,192,27843,1,8,0:0:0:0:
256,192,27956,1,0,0:0:0:0:
256,192,28070,1,0,0:0:0:0:
256,192,28184,1,8,0:0:0:0:
256,192,28297,1,8,0:0:0:0:
256,192,28411,1,0,0:0:0:0:
256,192,28638,1,8,0:0:0:0:
256,192,28752,1,0,0:0:0:0:
256,192,28865,1,0,0:0:0:0:
256,192,28979,1,8,0:0:0:0:
256,192,29206,1,0,0:0:0:0:
256,192,29320,1,8,0:0:0:0:
256,192,29434,1,8,0:0:0:0:
256,192,29547,1,8,0:0:0:0:
256,192,29661,1,0,0:0:0:0:
256,192,30002,1,8,0:0:0:0:
256,192,30115,1,8,0:0:0:0:
256,192,30229,1,8,0:0:0:0:
256,192,30343,1,8,0:0:0:0:
256,192,30456,1,4,0:0:0:0:
256,192,30684,1,8,0:0:0:0:
256,192,30797,1,8,0:0:0:0:
256,192,30911,1,0,0:0:0:0:
256,192,31138,1,0,0:0:0:0:
256,192,31365,1,8,0:0:0:0:
256,192,31593,1,8,0:0:0:0:
256,192,31706,1,0,0:0:0:0:
256,192,31934,1,0,0:0:0:0:
256,192,32047,1,8,0:0:0:0:
256,192,32275,1,0,0:0:0:0:
256,192,32502,1,8,0:0:0:0:
256,192,32615,1,8,0:0:0:0:
256,192,32729,1,0,0:0:0:0:
256,192,32843,1,0,0:0:0:0:
256,192,32956,1,8,0:0:0:0:
256,192,33184,1,8,0:0:0:0:
256,192,33411,1,8,0:0:0:0:
256,192,33525,1,0,0:0:0:0:
256,192,33638,1,0,0:0:0:0:
256,192,33865,1,8,0:0:0:0:
256,192,34093,1,0,0:0:0:0:
256,192,34206,1,0,0:0:0:0:
256,192,34320,1,8,0:0:0:0:
256,192,34434,1,0,0:0:0:0:
256,192,34547,1,8,0:0:0:0:
256,192,34775,1,8,0:0:0:0:
256,192,34888,1,0,0:0:0:0:
256,192,35002,1,0,0:0:0:0:
256,192,35229,1,8,0:0:0:0:
256,192,35456,1,0,0:0:0:0:
256,192,35570,1,0,0:0:0:0:
256,192,35684,1,8,0:0:0:0:
256,192,35911,1,0,0:0:0:0:
256,192,36138,1,8,0:0:0:0:
256,192,36252,1,0,0:0:0:0:
256,192,36365,1,0,0:0:0:0:
256,192,36479,1,0,0:0:0:0:
256,192,36593,1,8,0:0:0:0:
256,192,36820,1,0,0:0:0:0:
256,192,36934,1,0,0:0:0:0:
256,192,37047,1,8,0:0:0:0:
256,192,37275,1,0,0:0:0:0:
256,192,37388,1,0,0:0:0:0:
256,192,37502,1,8,0:0:0:0:
256,192,37729,1,12,0:0:0:0:
256,192,37956,1,8,0:0:0:0:
256,192,38070,1,0,0:0:0:0:
256,192,38297,1,0,0:0:0:0:
256,192,38411,1,8,0:0:0:0:
256,192,38638,1,8,0:0:0:0:
256,192,38865,1,8,0:0:0:0:
256,192,38979,1,0,0:0:0:0:
256,192,39093,1,0,0:0:0:0:
256,192,39206,1,0,0:0:0:0:
256,192,39320,1,8,0:0:0:0:
256,192,39547,1,0,0:0:0:0:
256,192,39775,1,8,0:0:0:0:
256,192,39888,1,0,0:0:0:0:
256,192,40115,1,0,0:0:0:0:
256,192,40229,1,8,0:0:0:0:
256,192,40456,1,8,0:0:0:0:
256,192,40684,1,8,0:0:0:0:
256,192,40797,1,0,0:0:0:0:
256,192,40911,1,8,0:0:0:0:
256,192,41025,1,0,0:0:0:0:
256,192,41138,1,8,0:0:0:0:
256,192,41365,1,0,0:0:0:0:
256,192,41593,1,8,0:0:0:0:
256,192,41706,1,8,0:0:0:0:
256,192,41820,1,8,0:0:0:0:
256,192,42047,1,0,0:0:0:0:
256,192,42161,1,0,0:0:0:0:
256,192,42275,1,0,0:0:0:0:
256,192,42502,1,8,0:0:0:0:
256,192,42615,1,0,0:0:0:0:
256,192,42729,1,8,0:0:0:0:
256,192,42843,1,8,0:0:0:0:
256,192,42956,1,0,0:0:0:0:
256,192,43184,1,0,0:0:0:0:
256,192,43411,1,8,0:0:0:0:
256,192,43525,1,0,0:0:0:0:
256,192,43638,1,0,0:0:0:0:
256,192,43752,1,0,0:0:0:0:
256,192,43865,1,8,0:0:0:0:
256,192,44093,1,0,0:0:0:0:
256,192,44206,1,0,0:0:0:0:
256,192,44320,1,8,0:0:0:0:
256,192,44547,1,0,0:0:0:0:
256,192,44661,1,0,0:0:0:0:
256,192,44775,1,8,0:0:0:0:
256,192,45002,1,8,0:0:0:0:
256,192,45115,1,0,0:0:0:0:
256,192,45229,1,0,0:0:0:0:
256,192,45343,1,0,0:0:0:0:
256,192,45456,1,12,0:0:0:0:
256,192,45684,1,0,0:0:0:0:
256,192,45797,1,0,0:0:0:0:
256,192,45911,1,0,0:0:0:0:
256,192,46025,1,0,0:0:0:0:
256,192,46138,1,12,0:0:0:0:
256,192,46365,1,0,0:0:0:0:
256,192,46479,1,0,0:0:0:0:
256,192,46593,1,12,0:0:0:0:
256,192,46820,1,4,0:0:0:0:
256,192,47047,1,8,0:0:0:0:
256,192,47161,1,0,0:0:0:0:
256,192,47388,1,0,0:0:0:0:
256,192,47502,1,8,0:0:0:0:
256,192,47729,1,0,0:0:0:0:
256,192,47956,1,8,0:0:0:0:
256,192,48070,1,0,0:0:0:0:
256,192,48184,1,0,0:0:0:0:
256,192,48297,1,0,0:0:0:0:
256,192,48411,1,8,0:0:0:0:
256,192,48638,1,0,0:0:0:0:
256,192,48865,1,8,0:0:0:0:
256,192,48979,1,0,0:0:0:0:
256,192,49206,1,0,0:0:0:0:
256,192,49320,1,8,0:0:0:0:
256,192,49547,1,0,0:0:0:0:
256,192,49661,1,0,0:0:0:0:
256,192,49775,1,8,0:0:0:0:
256,192,49888,1,8,0:0:0:0:
256,192,50002,1,0,0:0:0:0:
256,192,50229,1,8,0:0:0:0:
256,192,50456,1,0,0:0:0:0:
256,192,50684,1,8,0:0:0:0:
256,192,50797,1,0,0:0:0:0:
256,192,51025,1,0,0:0:0:0:
256,192,51138,1,8,0:0:0:0:
256,192,51365,1,0,0:0:0:0:
256,192,51593,1,8,0:0:0:0:
256,192,51706,1,0,0:0:0:0:
256,192,51820,1,0,0:0:0:0:
256,192,51934,1,0,0:0:0:0:
256,192,52047,1,8,0:0:0:0:
256,192,52275,1,0,0:0:0:0:
256,192,52502,1,8,0:0:0:0:
256,192,52615,1,0,0:0:0:0:
256,192,52843,1,0,0:0:0:0:
256,192,52956,1,8,0:0:0:0:
256,192,53184,1,0,0:0:0:0:
256,192,53411,1,8,0:0:0:0:
256,192,53525,1,8,0:0:0:0:
256,192,53638,1,0,0:0:0:0:
256,192,53752,1,0,0:0:0:0:
256,192,53865,1,8,0:0:0:0:
256,192,54093,1,4,0:0:0:0:
256,192,54547,1,12,0:0:0:0:
256,192,55002,1,4,0:0:0:0:
256,192,55456,1,12,0:0:0:0:
256,192,55911,1,8,0:0:0:0:
256,192,56025,1,0,0:0:0:0:
256,192,56138,1,0,0:0:0:0:
256,192,56252,1,8,0:0:0:0:
256,192,56365,1,8,0:0:0:0:
256,192,56479,1,0,0:0:0:0:
256,192,56593,1,0,0:0:0:0:
256,192,56706,1,8,0:0:0:0:
256,192,56820,1,8,0:0:0:0:
256,192,56934,1,0,0:0:0:0:
256,192,57047,1,0,0:0:0:0:
256,192,57161,1,8,0:0:0:0:
256,192,57275,1,8,0:0:0:0:
256,192,57388,1,0,0:0:0:0:
256,192,57502,1,0,0:0:0:0:
256,192,57615,1,0,0:0:0:0:
256,192,57729,1,8,0:0:0:0:
256,192,57843,1,8,0:0:0:0:
256,192,57956,1,0,0:0:0:0:
256,192,58070,1,8,0:0:0:0:
256,192,58184,1,8,0:0:0:0:
256,192,58297,1,8,0:0:0:0:
256,192,58411,1,0,0:0:0:0:
256,192,58525,1,8,0:0:0:0:
256,192,58638,1,8,0:0:0:0:
256,192,58752,1,8,0:0:0:0:
256,192,58865,1,0,0:0:0:0:
256,192,58979,1,8,0:0:0:0:
256,192,59093,1,8,0:0:0:0:
256,192,59206,1,8,0:0:0:0:
256,192,59320,1,0,0:0:0:0:
256,192,59434,1,8,0:0:0:0:
256,192,59547,1,0,0:0:0:0:
256,192,59775,1,8,0:0:0:0:
256,192,59888,1,0,0:0:0:0:
256,192,60002,1,0,0:0:0:0:
256,192,60115,1,0,0:0:0:0:
256,192,60229,1,8,0:0:0:0:
256,192,60343,1,0,0:0:0:0:
256,192,60456,1,0,0:0:0:0:
256,192,60570,1,0,0:0:0:0:
256,192,60684,1,8,0:0:0:0:
256,192,60797,1,0,0:0:0:0:
256,192,60911,1,0,0:0:0:0:
256,192,61025,1,0,0:0:0:0:
256,192,61138,1,8,0:0:0:0:
256,192,61252,1,0,0:0:0:0:
256,192,61365,1,8,0:0:0:0:
256,192,61479,1,8,0:0:0:0:
256,192,61593,1,0,0:0:0:0:
256,192,61706,1,8,0:0:0:0:
256,192,61820,1,8,0:0:0:0:
256,192,61934,1,0,0:0:0:0:
256,192,62047,1,0,0:0:0:0:
256,192,62161,1,0,0:0:0:0:
256,192,62275,1,8,0:0:0:0:
256,192,62388,1,0,0:0:0:0:
256,192,62502,1,0,0:0:0:0:
256,192,62615,1,8,0:0:0:0:
256,192,62729,1,8,0:0:0:0:
256,192,62843,1,0,0:0:0:0:
256,192,62956,1,0,0:0:0:0:
256,192,63070,1,0,0:0:0:0:
256,192,63184,1,12,0:0:0:0:
256,192,63411,1,8,0:0:0:0:
256,192,63525,1,0,0:0:0:0:
256,192,63638,1,0,0:0:0:0:
256,192,63752,1,0,0:0:0:0:
256,192,63865,1,8,0:0:0:0:
256,192,63979,1,8,0:0:0:0:
256,192,64093,1,0,0:0:0:0:
256,192,64206,1,0,0:0:0:0:
256,192,64320,1,8,0:0:0:0:
256,192,64434,1,0,0:0:0:0:
256,192,64547,1,0,0:0:0:0:
256,192,64661,1,0,0:0:0:0:
256,192,64775,1,8,0:0:0:0:
256,192,64888,1,0,0:0:0:0:
256,192,65002,1,0,0:0:0:0:
256,192,65115,1,0,0:0:0:0:
256,192,65229,1,8,0:0:0:0:
256,192,65343,1,8,0:0:0:0:
256,192,65456,1,8,0:0:0:0:
256,192,65570,1,0,0:0:0:0:
256,192,65684,1,8,0:0:0:0:
256,192,65797,1,0,0:0:0:0:
256,192,65911,1,8,0:0:0:0:
256,192,66025,1,8,0:0:0:0:
256,192,66138,1,0,0:0:0:0:
256,192,66252,1,8,0:0:0:0:
256,192,66365,1,8,0:0:0:0:
256,192,66820,1,8,0:0:0:0:
256,192,66934,1,0,0:0:0:0:
256,192,67047,1,0,0:0:0:0:
256,192,67161,1,8,0:0:0:0:
256,192,67275,1,8,0:0:0:0:
256,192,67388,1,0,0:0:0:0:
256,192,67502,1,8,0:0:0:0:
256,192,67615,1,8,0:0:0:0:
256,192,67729,1,0,0:0:0:0:
256,192,67843,1,8,0:0:0:0:
256,192,67956,1,0,0:0:0:0:
256,192,68070,1,0,0:0:0:0:
256,192,68184,1,8,0:0:0:0:
256,192,68297,1,0,0:0:0:0:
256,192,68411,1,0,0:0:0:0:
256,192,68525,1,8,0:0:0:0:
256,192,68638,1,0,0:0:0:0:
256,192,68752,1,0,0:0:0:0:
256,192,68865,1,8,0:0:0:0:
256,192,68979,1,8,0:0:0:0:
256,192,69093,1,8,0:0:0:0:
256,192,69206,1,8,0:0:0:0:
256,192,69320,1,0,0:0:0:0:
256,192,69434,1,0,0:0:0:0:
256,192,69547,1,8,0:0:0:0:
256,192,69661,1,0,0:0:0:0:
256,192,69775,1,0,0:0:0:0:
256,192,69888,1,0,0:0:0:0:
256,192,70002,1,0,0:0:0:0:
256,192,70456,1,12,0:0:0:0:
256,192,70911,1,8,0:0:0:0:
256,192,71025,1,0,0:0:0:0:
256,192,71138,1,0,0:0:0:0:
256,192,71252,1,0,0:0:0:0:
256,192,71365,1,8,0:0:0:0:
256,192,71820,1,8,0:0:0:0:
256,192,71934,1,8,0:0:0:0:
256,192,72047,1,0,0:0:0:0:
256,192,72161,1,0,0:0:0:0:
256,192,72275,1,8,0:0:0:0:
256,192,72729,1,8,0:0:0:0:
256,192,72843,1,8,0:0:0:0:
256,192,72956,1,8,0:0:0:0:
256,192,73070,1,8,0:0:0:0:
256,192,73184,1,0,0:0:0:0:
256,192,73297,1,0,0:0:0:0:
256,192,73411,1,0,0:0:0:0:
256,192,73525,1,0,0:0:0:0:
256,192,73638,1,0,0:0:0:0:
256,192,73865,1,12,0:0:0:0:
256,192,74093,1,0,0:0:0:0:
256,192,74206,1,0,0:0:0:0:
256,192,74320,1,8,0:0:0:0:
256,192,74434,1,0,0:0:0:0:
256,192,74547,1,8,0:0:0:0:
256,192,74661,1,8,0:0:0:0:
256,192,74775,1,0,0:0:0:0:
256,192,74888,1,0,0:0:0:0:
256,192,75002,1,8,0:0:0:0:
256,192,75115,1,0,0:0:0:0:
256,192,75229,1,8,0:0:0:0:
256,192,75343,1,8,0:0:0:0:
256,192,75456,1,0,0:0:0:0:
256,192,75570,1,8,0:0:0:0:
256,192,75684,1,0,0:0:0:0:
256,192,75797,1,0,0:0:0:0:
256,192,75911,1,8,0:0:0:0:
256,192,76025,1,0,0:0:0:0:
256,192,76138,1,8,0:0:0:0:
256,192,76252,1,8,0:0:0:0:
256,192,76365,1,0,0:0:0:0:
256,192,76479,1,0,0:0:0:0:
256,192,76593,1,8,0:0:0:0:
256,192,76706,1,0,0:0:0:0:
256,192,76820,1,8,0:0:0:0:
256,192,76934,1,8,0:0:0:0:
256,192,77047,1,0,0:0:0:0:
256,192,77161,1,0,0:0:0:0:
256,192,77275,1,0,0:0:0:0:
256,192,77388,1,0,0:0:0:0:
256,192,77502,1,8,0:0:0:0:
256,192,77615,1,0,0:0:0:0:
256,192,77729,1,12,0:0:0:0:
256,192,77956,1,8,0:0:0:0:
256,192,78184,1,0,0:0:0:0:
256,192,78297,1,0,0:0:0:0:
256,192,78411,1,8,0:0:0:0:
256,192,78525,1,8,0:0:0:0:
256,192,78638,1,0,0:0:0:0:
256,192,78865,1,8,0:0:0:0:
256,192,79093,1,0,0:0:0:0:
256,192,79320,1,12,0:0:0:0:
256,192,79547,1,0,0:0:0:0:
256,192,79661,1,8,0:0:0:0:
256,192,79775,1,8,0:0:0:0:
256,192,79888,1,8,0:0:0:0:
256,192,80002,1,0,0:0:0:0:
256,192,80115,1,0,0:0:0:0:
256,192,80229,1,8,0:0:0:0:
256,192,80343,1,8,0:0:0:0:
256,192,80456,1,0,0:0:0:0:
256,192,80570,1,8,0:0:0:0:
256,192,80684,1,8,0:0:0:0:
256,192,80797,1,0,0:0:0:0:
256,192,80911,1,8,0:0:0:0:
256,192,81365,1,8,0:0:0:0:
256,192,81479,1,8,0:0:0:0:
256,192,81593,1,0,0:0:0:0:
256,192,81706,1,0,0:0:0:0:
256,192,81820,1,8,0:0:0:0:
256,192,81934,1,0,0:0:0:0:
256,192,82047,1,8,0:0:0:0:
256,192,82161,1,8,0:0:0:0:
256,192,82275,1,0,0:0:0:0:
256,192,82388,1,0,0:0:0:0:
256,192,82502,1,8,0:0:0:0:
256,192,82615,1,0,0:0:0:0:
256,192,82729,1,0,0:0:0:0:
256,192,82843,1,0,0:0:0:0:
256,192,82956,1,8,0:0:0:0:
256,192,83070,1,0,0:0:0:0:
256,192,83184,1,0,0:0:0:0:
256,192,83297,1,0,0:0:0:0:
256,192,83411,1,8,0:0:0:0:
256,192,83525,1,0,0:0:0:0:
256,192,83638,1,8,0:0:0:0:
256,192,83752,1,8,0:0:0:0:
256,192,83865,1,8,0:0:0:0:
256,192,83979,1,8,0:0:0:0:
256,192,84093,1,0,0:0:0:0:
256,192,84206,1,8,0:0:0:0:
256,192,84320,1,0,0:0:0:0:
256,192,84434,1,0,0:0:0:0:
256,192,84547,1,12,0:0:0:0:
256,192,85002,1,12,0:0:0:0:
256,192,85229,1,0,0:0:0:0:
256,192,85456,1,8,0:0:0:0:
256,192,85797,1,0,0:0:0:0:
256,192,85911,1,0,0:0:0:0:
256,192,86138,1,0,0:0:0:0:
256,192,86365,1,8,0:0:0:0:
256,192,86820,1,0,0:0:0:0:
256,192,87047,1,0,0:0:0:0:
256,192,87275,1,8,0:0:0:0:
256,192,87388,1,0,0:0:0:0:
256,192,87615,1,0,0:0:0:0:
256,192,87729,1,0,0:0:0:0:
256,192,87956,1,0,0:0:0:0:
256,192,88184,1,8,0:0:0:0:
256,192,88411,1,8,0:0:0:0:
256,192,88638,1,0,0:0:0:0:
256,192,88752,1,0,0:0:0:0:
256,192,88865,1,8,0:0:0:0:
256,192,88979,1,8,0:0:0:0:
256,192,89093,1,0,0:0:0:0:
256,192,89206,1,8,0:0:0:0:
256,192,89320,1,8,0:0:0:0:
256,192,89434,1,8,0:0:0:0:
256,192,89547,1,0,0:0:0:0:
256,192,89661,1,8,0:0:0:0:
256,192,89775,1,0,0:0:0:0:
256,192,89888,1,0,0:0:0:0:
256,192,90002,1,8,0:0:0:0:
256,192,90115,1,0,0:0:0:0:
256,192,90229,1,0,0:0:0:0:
256,192,90456,1,8,0:0:0:0:
256,192,90570,1,0,0:0:0:0:
256,192,90684,1,0,0:0:0:0:
256,192,90797,1,12,0:0:0:0:
256,192,91138,1,8,0:0:0:0:
256,192,91252,1,0,0:0:0:0:
256,192,91365,1,0,0:0:0:0:
256,192,91479,1,0,0:0:0:0:
256,192,91593,1,12,0:0:0:0:
256,192,91820,1,0,0:0:0:0:
256,192,91934,1,0,0:0:0:0:
256,192,92047,1,12,0:0:0:0:
256,192,92275,1,8,0:0:0:0:
256,192,92502,1,0,0:0:0:0:
256,192,92729,1,8,0:0:0:0:
256,192,92843,1,0,0:0:0:0:
256,192,93184,1,0,0:0:0:0:
256,192,93411,1,0,0:0:0:0:
256,192,93638,1,8,0:0:0:0:
256,192,93752,1,0,0:0:0:0:
256,192,93979,1,0,0:0:0:0:
256,192,94093,1,0,0:0:0:0:
256,192,94320,1,0,0:0:0:0:
256,192,94547,1,8,0:0:0:0:
256,192,94888,1,0,0:0:0:0:
256,192,95002,1,0,0:0:0:0:
256,192,95229,1,0,0:0:0:0:
256,192,95456,1,8,0:0:0:0:
256,192,95684,1,8,0:0:0:0:
256,192,95911,1,0,0:0:0:0:
256,192,96025,1,8,0:0:0:0:
256,192,96138,1,8,0:0:0:0:
256,192,96252,1,8,0:0:0:0:
256,192,96365,1,0,0:0:0:0:
256,192,96479,1,0,0:0:0:0:
256,192,96593,1,8,0:0:0:0:
256,192,96706,1,8,0:0:0:0:
256,192,96820,1,0,0:0:0:0:
256,192,96934,1,8,0:0:0:0:
256,192,97047,1,0,0:0:0:0:
256,192,97161,1,0,0:0:0:0:
256,192,97275,1,8,0:0:0:0:
256,192,97388,1,8,0:0:0:0:
256,192,97502,1,0,0:0:0:0:
256,192,97729,1,8,0:0:0:0:
256,192,97843,1,0,0:0:0:0:
256,192,97956,1,0,0:0:0:0:
256,192,98070,1,8,0:0:0:0:
256,192,98297,1,0,0:0:0:0:
256,192,98411,1,8,0:0:0:0:
256,192,98525,1,8,0:0:0:0:
256,192,98638,1,8,0:0:0:0:
256,192,98752,1,0,0:0:0:0:
256,192,99093,1,8,0:0:0:0:
256,192,99206,1,8,0:0:0:0:
256,192,99320,1,8,0:0:0:0:
256,192,99434,1,8,0:0:0:0:
256,192,99547,1,4,0:0:0:0:
