osu file format v14

[General]
AudioFilename: audio.mp3
AudioLeadIn: 0
PreviewTime: 1365
Countdown: 0
SampleSet: Normal
StackLeniency: 0.7
Mode: 1
LetterboxInBreaks: 0
WidescreenStoryboard: 0

[Editor]
Bookmarks: 15811,30356,55811,84901,99447
DistanceSpacing: 0.1
BeatDivisor: 6
GridSize: 32
TimelineZoom: 3.799999

[Metadata]
Title:d_intro
TitleUnicode:d_intro
Artist:Unknown Artist
ArtistUnicode:Unknown Artist
Creator:Grimbow
Version:Ultra-Nightmare!
Source:
Tags:DOOM video game shareware joel Michael W. Byrnes retro rip and tear electronic instrumental the mystery midi 8bit alien star
BeatmapID:2555649
BeatmapSetID:1140469

[Difficulty]
HPDrainRate:6.6
CircleSize:5
OverallDifficulty:6.6
ApproachRate:5
SliderMultiplier:1.4
SliderTickRate:1

[Events]
//Background and Video events
0,0,"doomwp.jpg",0,80
//Break Periods
//Storyboard Layer 0 (Background)
//Storyboard Layer 1 (Fail)
//Storyboard Layer 2 (Pass)
//Storyboard Layer 3 (Foreground)
//Storyboard Layer 4 (Overlay)
//Storyboard Sound Samples

[TimingPoints]
1366,227.272727272727,4,1,0,75,1,0
63184,-95.2380952380952,4,1,0,75,0,0
85001,-100,4,1,0,75,0,0

[HitObjects]
256,192,1365,5,8,0:0:0:0:
256,192,1479,1,0,0:0:0:0:
256,192,1593,1,0,0:0:0:0:
256,192,1706,1,0,0:0:0:0:
256,192,1820,1,0,0:0:0:0:
256,192,1934,1,0,0:0:0:0:
256,192,2047,1,8,0:0:0:0:
256,192,2161,1,8,0:0:0:0:
256,192,2275,1,8,0:0:0:0:
256,192,2388,1,0,0:0:0:0:
256,192,2502,1,0,0:0:0:0:
256,192,2615,1,0,0:0:0:0:
256,192,2729,1,0,0:0:0:0:
256,192,2843,1,0,0:0:0:0:
256,192,2956,1,8,0:0:0:0:
256,192,3070,1,0,0:0:0:0:
256,192,3184,1,8,0:0:0:0:
256,192,3297,1,0,0:0:0:0:
256,192,3411,1,0,0:0:0:0:
256,192,3525,1,0,0:0:0:0:
256,192,3638,1,0,0:0:0:0:
256,192,3752,1,0,0:0:0:0:
256,192,3865,1,8,0:0:0:0:
256,192,3979,1,8,0:0:0:0:
256,192,4093,1,8,0:0:0:0:
256,192,4206,1,0,0:0:0:0:
256,192,4320,1,0,0:0:0:0:
256,192,4434,1,0,0:0:0:0:
256,192,4547,1,0,0:0:0:0:
256,192,4661,1,8,0:0:0:0:
256,192,4775,1,8,0:0:0:0:
256,192,4888,1,0,0:0:0:0:
256,192,5002,1,8,0:0:0:0:
256,192,5115,1,0,0:0:0:0:
256,192,5229,1,8,0:0:0:0:
256,192,5343,1,8,0:0:0:0:
256,192,5456,1,8,0:0:0:0:
256,192,5570,1,0,0:0:0:0:
256,192,5684,1,0,0:0:0:0:
256,192,5797,1,8,0:0:0:0:
256,192,5911,1,8,0:0:0:0:
256,192,6025,1,8,0:0:0:0:
256,192,6138,1,0,0:0:0:0:
256,192,6252,1,8,0:0:0:0:
256,192,6365,1,8,0:0:0:0:
256,192,6479,1,0,0:0:0:0:
256,192,6593,1,0,0:0:0:0:
256,192,6706,1,0,0:0:0:0:
256,192,6820,1,8,0:0:0:0:
256,192,6934,1,0,0:0:0:0:
256,192,7047,1,8,0:0:0:0:
256,192,7161,1,8,0:0:0:0:
256,192,7275,1,0,0:0:0:0:
256,192,7388,1,8,0:0:0:0:
256,192,7502,1,8,0:0:0:0:
256,192,7615,1,0,0:0:0:0:
256,192,7729,1,8,0:0:0:0:
256,192,7843,1,8,0:0:0:0:
256,192,7956,1,8,0:0:0:0:
256,192,8070,1,0,0:0:0:0:
256,192,8184,1,8,0:0:0:0:
256,192,8297,1,8,0:0:0:0:
256,192,8411,1,8,0:0:0:0:
256,192,8525,1,0,0:0:0:0:
256,192,8638,1,12,0:0:0:0:
256,192,8752,1,0,0:0:0:0:
256,192,8865,1,0,0:0:0:0:
256,192,8979,1,0,0:0:0:0:
256,192,9093,1,0,0:0:0:0:
256,192,9206,1,0,0:0:0:0:
256,192,9320,1,8,0:0:0:0:
256,192,9434,1,8,0:0:0:0:
256,192,9547,1,8,0:0:0:0:
256,192,9661,1,0,0:0:0:0:
256,192,9775,1,0,0:0:0:0:
256,192,9888,1,0,0:0:0:0:
256,192,10002,1,0,0:0:0:0:
256,192,10115,1,0,0:0:0:0:
256,192,10229,1,8,0:0:0:0:
256,192,10343,1,0,0:0:0:0:
256,192,10456,1,8,0:0:0:0:
256,192,10570,1,0,0:0:0:0:
256,192,10684,1,0,0:0:0:0:
256,192,10797,1,0,0:0:0:0:
256,192,10911,1,0,0:0:0:0:
256,192,11025,1,0,0:0:0:0:
256,192,11138,1,8,0:0:0:0:
256,192,11252,1,8,0:0:0:0:
256,192,11365,1,8,0:0:0:0:
256,192,11479,1,0,0:0:0:0:
256,192,11593,1,0,0:0:0:0:
256,192,11706,1,0,0:0:0:0:
256,192,11820,1,0,0:0:0:0:
256,192,11934,1,8,0:0:0:0:
256,192,12047,1,8,0:0:0:0:
256,192,12161,1,0,0:0:0:0:
256,192,12275,1,8,0:0:0:0:
256,192,12388,1,0,0:0:0:0:
256,192,12502,1,8,0:0:0:0:
256,192,12615,1,8,0:0:0:0:
256,192,12729,1,8,0:0:0:0:
256,192,12843,1,0,0:0:0:0:
256,192,12956,1,8,0:0:0:0:
256,192,13070,1,0,0:0:0:0:
256,192,13184,1,8,0:0:0:0:
256,192,13297,1,0,0:0:0:0:
256,192,13411,1,0,0:0:0:0:
256,192,13525,1,8,0:0:0:0:
256,192,13638,1,8,0:0:0:0:
256,192,13752,1,8,0:0:0:0:
256,192,13865,1,0,0:0:0:0:
256,192,13979,1,0,0:0:0:0:
256,192,14093,1,8,0:0:0:0:
256,192,14206,1,0,0:0:0:0:
256,192,14320,1,8,0:0:0:0:
256,192,14434,1,8,0:0:0:0:
256,192,14547,1,0,0:0:0:0:
256,192,14661,1,8,0:0:0:0:
256,192,14775,1,8,0:0:0:0:
256,192,14888,1,0,0:0:0:0:
256,192,15002,1,8,0:0:0:0:
256,192,15115,1,8,0:0:0:0:
256,192,15229,1,8,0:0:0:0:
256,192,15343,1,0,0:0:0:0:
256,192,15456,1,8,0:0:0:0:
256,192,15570,1,0,0:0:0:0:
256,192,15684,1,8,0:0:0:0:
256,192,15797,1,8,0:0:0:0:
256,192,15911,1,4,0:0:0:0:
256,192,16138,1,0,0:0:0:0:
256,192,16365,1,8,0:0:0:0:
256,192,16479,1,0,0:0:0:0:
256,192,16706,1,0,0:0:0:0:
256,192,16820,1,8,0:0:0:0:
256,192,16934,1,0,0:0:0:0:
256,192,17047,1,8,0:0:0:0:
256,192,17161,1,0,0:0:0:0:
256,192,17275,1,8,0:0:0:0:
256,192,17388,1,8,0:0:0:0:
256,192,17502,1,0,0:0:0:0:
256,192,17615,1,0,0:0:0:0:
256,192,17729,1,8,0:0:0:0:
256,192,17956,1,0,0:0:0:0:
256,192,18184,1,8,0:0:0:0:
256,192,18297,1,0,0:0:0:0:
256,192,18411,1,0,0:0:0:0:
256,192,18525,1,0,0:0:0:0:
256,192,18638,1,8,0:0:0:0:
256,192,18752,1,8,0:0:0:0:
256,192,18865,1,0,0:0:0:0:
256,192,18979,1,0,0:0:0:0:
256,192,19093,1,8,0:0:0:0:
256,192,19320,1,8,0:0:0:0:
256,192,19547,1,0,0:0:0:0:
256,192,19623,1,0,0:0:0:0:
256,192,19699,1,0,0:0:0:0:
256,192,19775,1,8,0:0:0:0:
256,192,19850,1,8,0:0:0:0:
256,192,19926,1,8,0:0:0:0:
256,192,20002,1,0,0:0:0:0:
256,192,20078,1,8,0:0:0:0:
256,192,20153,1,8,0:0:0:0:
256,192,20229,1,8,0:0:0:0:
256,192,20305,1,0,0:0:0:0:
256,192,20381,1,0,0:0:0:0:
256,192,20456,1,8,0:0:0:0:
256,192,20532,1,0,0:0:0:0:
256,192,20608,1,0,0:0:0:0:
256,192,20684,1,8,0:0:0:0:
256,192,20759,1,8,0:0:0:0:
256,192,20835,1,0,0:0:0:0:
256,192,20911,1,8,0:0:0:0:
256,192,20987,1,0,0:0:0:0:
256,192,21062,1,0,0:0:0:0:
256,192,21138,1,0,0:0:0:0:
256,192,21214,1,0,0:0:0:0:
256,192,21290,1,0,0:0:0:0:
256,192,21365,1,8,0:0:0:0:
256,192,21479,1,0,0:0:0:0:
256,192,21593,1,0,0:0:0:0:
256,192,21706,1,12,0:0:0:0:
256,192,21820,1,0,0:0:0:0:
256,192,21934,1,0,0:0:0:0:
256,192,22047,1,8,0:0:0:0:
256,192,22161,1,0,0:0:0:0:
256,192,22275,1,0,0:0:0:0:
256,192,22388,1,0,0:0:0:0:
256,192,22502,1,12,0:0:0:0:
256,192,22615,1,0,0:0:0:0:
256,192,22729,1,0,0:0:0:0:
256,192,22843,1,0,0:0:0:0:
256,192,22956,1,12,0:0:0:0:
256,192,23184,1,8,0:0:0:0:
256,192,23297,1,0,0:0:0:0:
256,192,23411,1,0,0:0:0:0:
256,192,23525,1,0,0:0:0:0:
256,192,23638,1,0,0:0:0:0:
256,192,23752,1,0,0:0:0:0:
256,192,23865,1,8,0:0:0:0:
256,192,23979,1,8,0:0:0:0:
256,192,24093,1,8,0:0:0:0:
256,192,24206,1,0,0:0:0:0:
256,192,24320,1,8,0:0:0:0:
256,192,24434,1,0,0:0:0:0:
256,192,24547,1,8,0:0:0:0:
256,192,24661,1,8,0:0:0:0:
256,192,24775,1,0,0:0:0:0:
256,192,24888,1,0,0:0:0:0:
256,192,25002,1,8,0:0:0:0:
256,192,25115,1,8,0:0:0:0:
256,192,25229,1,0,0:0:0:0:
256,192,25343,1,0,0:0:0:0:
256,192,25456,1,8,0:0:0:0:
256,192,25570,1,0,0:0:0:0:
256,192,25684,1,8,0:0:0:0:
256,192,25797,1,8,0:0:0:0:
256,192,25911,1,0,0:0:0:0:
256,192,26025,1,0,0:0:0:0:
256,192,26138,1,0,0:0:0:0:
256,192,26252,1,0,0:0:0:0:
256,192,26365,1,8,0:0:0:0:
256,192,26479,1,0,0:0:0:0:
256,192,26593,1,8,0:0:0:0:
256,192,26706,1,8,0:0:0:0:
256,192,26820,1,0,0:0:0:0:
256,192,26896,1,8,0:0:0:0:
256,192,26972,1,8,0:0:0:0:
256,192,27047,1,8,0:0:0:0:
256,192,27123,1,8,0:0:0:0:
256,192,27199,1,8,0:0:0:0:
256,192,27275,1,0,0:0:0:0:
256,192,27350,1,8,0:0:0:0:
256,192,27426,1,8,0:0:0:0:
256,192,27502,1,8,0:0:0:0:
256,192,27578,1,8,0:0:0:0:
256,192,27653,1,8,0:0:0:0:
256,192,27729,1,0,0:0:0:0:
256,192,27805,1,8,0:0:0:0:
256,192,27881,1,0,0:0:0:0:
256,192,27956,1,0,0:0:0:0:
256,192,28032,1,8,0:0:0:0:
256,192,28108,1,8,0:0:0:0:
256,192,28184,1,8,0:0:0:0:
256,192,28259,1,0,0:0:0:0:
256,192,28335,1,0,0:0:0:0:
256,192,28411,1,0,0:0:0:0:
256,192,28487,1,0,0:0:0:0:
256,192,28562,1,0,0:0:0:0:
256,192,28638,1,8,0:0:0:0:
256,192,28752,1,8,0:0:0:0:
256,192,28865,1,0,0:0:0:0:
256,192,28979,1,8,0:0:0:0:
256,192,29093,1,0,0:0:0:0:
256,192,29206,1,0,0:0:0:0:
256,192,29320,1,8,0:0:0:0:
256,192,29434,1,8,0:0:0:0:
256,192,29547,1,0,0:0:0:0:
256,192,29661,1,8,0:0:0:0:
256,192,29775,1,0,0:0:0:0:
256,192,29888,1,0,0:0:0:0:
256,192,30002,1,8,0:0:0:0:
256,192,30115,1,8,0:0:0:0:
256,192,30229,1,8,0:0:0:0:
256,192,30343,1,8,0:0:0:0:
256,192,30456,1,4,0:0:0:0:
256,192,30570,1,8,0:0:0:0:
256,192,30684,1,0,0:0:0:0:
256,192,30797,1,0,0:0:0:0:
256,192,30911,1,8,0:0:0:0:
256,192,31025,1,0,0:0:0:0:
256,192,31138,1,8,0:0:0:0:
256,192,31252,1,8,0:0:0:0:
256,192,31365,1,8,0:0:0:0:
256,192,31479,1,0,0:0:0:0:
256,192,31593,1,8,0:0:0:0:
256,192,31706,1,8,0:0:0:0:
256,192,31820,1,0,0:0:0:0:
256,192,31934,1,8,0:0:0:0:
256,192,32047,1,8,0:0:0:0:
256,192,32161,1,0,0:0:0:0:
256,192,32275,1,8,0:0:0:0:
256,192,32388,1,0,0:0:0:0:
256,192,32502,1,8,0:0:0:0:
256,192,32615,1,8,0:0:0:0:
256,192,32729,1,0,0:0:0:0:
256,192,32843,1,8,0:0:0:0:
256,192,32956,1,0,0:0:0:0:
256,192,33070,1,0,0:0:0:0:
256,192,33184,1,8,0:0:0:0:
256,192,33297,1,0,0:0:0:0:
256,192,33411,1,8,0:0:0:0:
256,192,33525,1,8,0:0:0:0:
256,192,33638,1,0,0:0:0:0:
256,192,33752,1,8,0:0:0:0:
256,192,33865,1,8,0:0:0:0:
256,192,33979,1,0,0:0:0:0:
256,192,34093,1,8,0:0:0:0:
256,192,34206,1,0,0:0:0:0:
256,192,34320,1,8,0:0:0:0:
256,192,34434,1,8,0:0:0:0:
256,192,34547,1,8,0:0:0:0:
256,192,34661,1,0,0:0:0:0:
256,192,34775,1,8,0:0:0:0:
256,192,34888,1,8,0:0:0:0:
256,192,35002,1,8,0:0:0:0:
256,192,35115,1,0,0:0:0:0:
256,192,35229,1,8,0:0:0:0:
256,192,35343,1,8,0:0:0:0:
256,192,35456,1,0,0:0:0:0:
256,192,35570,1,0,0:0:0:0:
256,192,35684,1,8,0:0:0:0:
256,192,35797,1,0,0:0:0:0:
256,192,35911,1,8,0:0:0:0:
256,192,36025,1,8,0:0:0:0:
256,192,36138,1,8,0:0:0:0:
256,192,36252,1,0,0:0:0:0:
256,192,36365,1,8,0:0:0:0:
256,192,36479,1,8,0:0:0:0:
256,192,36593,1,8,0:0:0:0:
256,192,36706,1,0,0:0:0:0:
256,192,36820,1,8,0:0:0:0:
256,192,36934,1,8,0:0:0:0:
256,192,37047,1,0,0:0:0:0:
256,192,37161,1,8,0:0:0:0:
256,192,37275,1,8,0:0:0:0:
256,192,37388,1,8,0:0:0:0:
256,192,37502,1,0,0:0:0:0:
256,192,37615,1,0,0:0:0:0:
256,192,37729,1,12,0:0:0:0:
256,192,37843,1,0,0:0:0:0:
256,192,37956,1,8,0:0:0:0:
256,192,38070,1,8,0:0:0:0:
256,192,38184,1,0,0:0:0:0:
256,192,38297,1,8,0:0:0:0:
256,192,38411,1,8,0:0:0:0:
256,192,38525,1,0,0:0:0:0:
256,192,38638,1,8,0:0:0:0:
256,192,38752,1,0,0:0:0:0:
256,192,38865,1,8,0:0:0:0:
256,192,38979,1,8,0:0:0:0:
256,192,39093,1,0,0:0:0:0:
256,192,39206,1,0,0:0:0:0:
256,192,39320,1,8,0:0:0:0:
256,192,39434,1,0,0:0:0:0:
256,192,39547,1,8,0:0:0:0:
256,192,39661,1,0,0:0:0:0:
256,192,39775,1,8,0:0:0:0:
256,192,39888,1,8,0:0:0:0:
256,192,40002,1,0,0:0:0:0:
256,192,40115,1,8,0:0:0:0:
256,192,40229,1,8,0:0:0:0:
256,192,40343,1,0,0:0:0:0:
256,192,40456,1,8,0:0:0:0:
256,192,40570,1,0,0:0:0:0:
256,192,40684,1,8,0:0:0:0:
256,192,40797,1,8,0:0:0:0:
256,192,40911,1,0,0:0:0:0:
256,192,41025,1,0,0:0:0:0:
256,192,41138,1,8,0:0:0:0:
256,192,41252,1,0,0:0:0:0:
256,192,41365,1,8,0:0:0:0:
256,192,41479,1,0,0:0:0:0:
256,192,41593,1,8,0:0:0:0:
256,192,41706,1,8,0:0:0:0:
256,192,41820,1,8,0:0:0:0:
256,192,41934,1,0,0:0:0:0:
256,192,42047,1,8,0:0:0:0:
256,192,42161,1,8,0:0:0:0:
256,192,42275,1,8,0:0:0:0:
256,192,42388,1,0,0:0:0:0:
256,192,42502,1,8,0:0:0:0:
256,192,42615,1,8,0:0:0:0:
256,192,42729,1,0,0:0:0:0:
256,192,42843,1,0,0:0:0:0:
256,192,42956,1,0,0:0:0:0:
256,192,43070,1,0,0:0:0:0:
256,192,43184,1,8,0:0:0:0:
256,192,43297,1,0,0:0:0:0:
256,192,43411,1,8,0:0:0:0:
256,192,43525,1,8,0:0:0:0:
256,192,43638,1,0,0:0:0:0:
256,192,43752,1,8,0:0:0:0:
256,192,43865,1,8,0:0:0:0:
256,192,43979,1,0,0:0:0:0:
256,192,44093,1,8,0:0:0:0:
256,192,44206,1,0,0:0:0:0:
256,192,44320,1,8,0:0:0:0:
256,192,44434,1,8,0:0:0:0:
256,192,44547,1,0,0:0:0:0:
256,192,44661,1,8,0:0:0:0:
256,192,44775,1,8,0:0:0:0:
256,192,44888,1,8,0:0:0:0:
256,192,45002,1,0,0:0:0:0:
256,192,45078,1,8,0:0:0:0:
256,192,45153,1,0,0:0:0:0:
256,192,45229,1,8,0:0:0:0:
256,192,45305,1,0,0:0:0:0:
256,192,45381,1,0,0:0:0:0:
256,192,45456,1,12,0:0:0:0:
256,192,45608,1,0,0:0:0:0:
256,192,45684,1,8,0:0:0:0:
256,192,45759,1,0,0:0:0:0:
256,192,45835,1,0,0:0:0:0:
256,192,45911,1,8,0:0:0:0:
256,192,45987,1,0,0:0:0:0:
256,192,46062,1,0,0:0:0:0:
256,192,46138,1,12,0:0:0:0:
256,192,46290,1,0,0:0:0:0:
256,192,46365,1,8,0:0:0:0:
256,192,46441,1,0,0:0:0:0:
256,192,46517,1,0,0:0:0:0:
256,192,46593,1,12,0:0:0:0:
256,192,46820,1,12,0:0:0:0:
256,192,47047,1,8,0:0:0:0:
256,192,47161,1,8,0:0:0:0:
256,192,47275,1,0,0:0:0:0:
256,192,47388,1,8,0:0:0:0:
256,192,47502,1,8,0:0:0:0:
256,192,47615,1,0,0:0:0:0:
256,192,47729,1,8,0:0:0:0:
256,192,47843,1,0,0:0:0:0:
256,192,47956,1,8,0:0:0:0:
256,192,48070,1,8,0:0:0:0:
256,192,48184,1,0,0:0:0:0:
256,192,48297,1,8,0:0:0:0:
256,192,48411,1,8,0:0:0:0:
256,192,48525,1,0,0:0:0:0:
256,192,48638,1,8,0:0:0:0:
256,192,48752,1,0,0:0:0:0:
256,192,48865,1,8,0:0:0:0:
256,192,48979,1,8,0:0:0:0:
256,192,49093,1,0,0:0:0:0:
256,192,49206,1,8,0:0:0:0:
256,192,49320,1,8,0:0:0:0:
256,192,49434,1,0,0:0:0:0:
256,192,49547,1,8,0:0:0:0:
256,192,49661,1,0,0:0:0:0:
256,192,49775,1,8,0:0:0:0:
256,192,49888,1,8,0:0:0:0:
256,192,50002,1,0,0:0:0:0:
256,192,50115,1,8,0:0:0:0:
256,192,50229,1,8,0:0:0:0:
256,192,50343,1,0,0:0:0:0:
256,192,50456,1,8,0:0:0:0:
256,192,50570,1,0,0:0:0:0:
256,192,50684,1,8,0:0:0:0:
256,192,50797,1,8,0:0:0:0:
256,192,50911,1,0,0:0:0:0:
256,192,51025,1,8,0:0:0:0:
256,192,51138,1,8,0:0:0:0:
256,192,51252,1,0,0:0:0:0:
256,192,51365,1,8,0:0:0:0:
256,192,51479,1,0,0:0:0:0:
256,192,51593,1,8,0:0:0:0:
256,192,51706,1,8,0:0:0:0:
256,192,51820,1,0,0:0:0:0:
256,192,51934,1,0,0:0:0:0:
256,192,52047,1,8,0:0:0:0:
256,192,52161,1,0,0:0:0:0:
256,192,52275,1,8,0:0:0:0:
256,192,52388,1,0,0:0:0:0:
256,192,52502,1,8,0:0:0:0:
256,192,52615,1,8,0:0:0:0:
256,192,52729,1,0,0:0:0:0:
256,192,52843,1,8,0:0:0:0:
256,192,52956,1,8,0:0:0:0:
256,192,53070,1,0,0:0:0:0:
256,192,53184,1,8,0:0:0:0:
256,192,53297,1,0,0:0:0:0:
256,192,53411,1,8,0:0:0:0:
256,192,53525,1,8,0:0:0:0:
256,192,53638,1,0,0:0:0:0:
256,192,53752,1,8,0:0:0:0:
256,192,53865,1,8,0:0:0:0:
256,192,53979,1,0,0:0:0:0:
256,192,54093,1,12,0:0:0:0:
256,192,54320,1,0,0:0:0:0:
256,192,54396,1,0,0:0:0:0:
256,192,54472,1,0,0:0:0:0:
256,192,54547,1,12,0:0:0:0:
256,192,54775,1,8,0:0:0:0:
256,192,54850,1,8,0:0:0:0:
256,192,54926,1,8,0:0:0:0:
256,192,55002,1,4,0:0:0:0:
256,192,55229,1,0,0:0:0:0:
256,192,55305,1,0,0:0:0:0:
256,192,55381,1,0,0:0:0:0:
256,192,55456,1,12,0:0:0:0:
256,192,55684,1,0,0:0:0:0:
256,192,55759,1,0,0:0:0:0:
256,192,55835,1,0,0:0:0:0:
256,192,55911,1,8,0:0:0:0:
256,192,55987,1,8,0:0:0:0:
256,192,56062,1,8,0:0:0:0:
256,192,56138,1,0,0:0:0:0:
256,192,56214,1,8,0:0:0:0:
256,192,56290,1,8,0:0:0:0:
256,192,56365,1,8,0:0:0:0:
256,192,56441,1,0,0:0:0:0:
256,192,56517,1,0,0:0:0:0:
256,192,56593,1,8,0:0:0:0:
256,192,56669,1,0,0:0:0:0:
256,192,56744,1,8,0:0:0:0:
256,192,56820,1,8,0:0:0:0:
256,192,56896,1,0,0:0:0:0:
256,192,56972,1,0,0:0:0:0:
256,192,57047,1,8,0:0:0:0:
256,192,57123,1,0,0:0:0:0:
256,192,57199,1,8,0:0:0:0:
256,192,57275,1,8,0:0:0:0:
256,192,57350,1,0,0:0:0:0:
256,192,57426,1,0,0:0:0:0:
256,192,57502,1,8,0:0:0:0:
256,192,57578,1,0,0:0:0:0:
256,192,57653,1,0,0:0:0:0:
256,192,57729,1,8,0:0:0:0:
256,192,57805,1,8,0:0:0:0:
256,192,57881,1,0,0:0:0:0:
256,192,57956,1,8,0:0:0:0:
256,192,58032,1,0,0:0:0:0:
256,192,58108,1,8,0:0:0:0:
256,192,58184,1,8,0:0:0:0:
256,192,58259,1,0,0:0:0:0:
256,192,58335,1,0,0:0:0:0:
256,192,58411,1,8,0:0:0:0:
256,192,58487,1,0,0:0:0:0:
256,192,58562,1,8,0:0:0:0:
256,192,58638,1,8,0:0:0:0:
256,192,58714,1,8,0:0:0:0:
256,192,58790,1,0,0:0:0:0:
256,192,58865,1,8,0:0:0:0:
256,192,58941,1,8,0:0:0:0:
256,192,59017,1,0,0:0:0:0:
256,192,59093,1,8,0:0:0:0:
256,192,59169,1,8,0:0:0:0:
256,192,59244,1,0,0:0:0:0:
256,192,59320,1,8,0:0:0:0:
256,192,59396,1,8,0:0:0:0:
256,192,59472,1,8,0:0:0:0:
256,192,59547,1,0,0:0:0:0:
256,192,59623,1,8,0:0:0:0:
256,192,59699,1,0,0:0:0:0:
256,192,59775,1,8,0:0:0:0:
256,192,59850,1,8,0:0:0:0:
256,192,59926,1,0,0:0:0:0:
256,192,60002,1,8,0:0:0:0:
256,192,60078,1,0,0:0:0:0:
256,192,60153,1,0,0:0:0:0:
256,192,60229,1,8,0:0:0:0:
256,192,60305,1,8,0:0:0:0:
256,192,60381,1,8,0:0:0:0:
256,192,60456,1,0,0:0:0:0:
256,192,60532,1,0,0:0:0:0:
256,192,60608,1,0,0:0:0:0:
256,192,60684,1,8,0:0:0:0:
256,192,60759,1,0,0:0:0:0:
256,192,60835,1,8,0:0:0:0:
256,192,60911,1,8,0:0:0:0:
256,192,60987,1,0,0:0:0:0:
256,192,61062,1,0,0:0:0:0:
256,192,61138,1,8,0:0:0:0:
256,192,61214,1,0,0:0:0:0:
256,192,61290,1,0,0:0:0:0:
256,192,61365,1,8,0:0:0:0:
256,192,61441,1,8,0:0:0:0:
256,192,61517,1,0,0:0:0:0:
256,192,61593,1,8,0:0:0:0:
256,192,61669,1,8,0:0:0:0:
256,192,61744,1,8,0:0:0:0:
256,192,61820,1,8,0:0:0:0:
256,192,61896,1,0,0:0:0:0:
256,192,61972,1,0,0:0:0:0:
256,192,62047,1,8,0:0:0:0:
256,192,62123,1,8,0:0:0:0:
256,192,62199,1,8,0:0:0:0:
256,192,62275,1,0,0:0:0:0:
256,192,62350,1,8,0:0:0:0:
256,192,62426,1,0,0:0:0:0:
256,192,62502,1,0,0:0:0:0:
256,192,62578,1,0,0:0:0:0:
256,192,62653,1,8,0:0:0:0:
256,192,62729,1,8,0:0:0:0:
256,192,62805,1,8,0:0:0:0:
256,192,62881,1,0,0:0:0:0:
256,192,62956,1,8,0:0:0:0:
256,192,63032,1,0,0:0:0:0:
256,192,63108,1,0,0:0:0:0:
256,192,63184,1,8,0:0:0:0:
256,192,63259,1,8,0:0:0:0:
256,192,63335,1,0,0:0:0:0:
256,192,63411,1,8,0:0:0:0:
256,192,63487,1,8,0:0:0:0:
256,192,63562,1,0,0:0:0:0:
256,192,63638,1,8,0:0:0:0:
256,192,63714,1,0,0:0:0:0:
256,192,63790,1,0,0:0:0:0:
256,192,63865,1,8,0:0:0:0:
256,192,63941,1,0,0:0:0:0:
256,192,64017,1,0,0:0:0:0:
256,192,64093,1,8,0:0:0:0:
256,192,64169,1,0,0:0:0:0:
256,192,64244,1,0,0:0:0:0:
256,192,64320,1,8,0:0:0:0:
256,192,64396,1,0,0:0:0:0:
256,192,64472,1,0,0:0:0:0:
256,192,64547,1,0,0:0:0:0:
256,192,64623,1,8,0:0:0:0:
256,192,64699,1,8,0:0:0:0:
256,192,64775,1,8,0:0:0:0:
256,192,64850,1,0,0:0:0:0:
256,192,64926,1,0,0:0:0:0:
256,192,65002,1,0,0:0:0:0:
256,192,65078,1,8,0:0:0:0:
256,192,65153,1,8,0:0:0:0:
256,192,65229,1,8,0:0:0:0:
256,192,65305,1,0,0:0:0:0:
256,192,65381,1,8,0:0:0:0:
256,192,65456,1,0,0:0:0:0:
256,192,65532,1,8,0:0:0:0:
256,192,65608,1,8,0:0:0:0:
256,192,65684,1,8,0:0:0:0:
256,192,65759,1,0,0:0:0:0:
256,192,65835,1,0,0:0:0:0:
256,192,65911,1,8,0:0:0:0:
256,192,65987,1,0,0:0:0:0:
256,192,66062,1,0,0:0:0:0:
256,192,66138,1,8,0:0:0:0:
256,192,66214,1,8,0:0:0:0:
256,192,66290,1,0,0:0:0:0:
256,192,66365,1,8,0:0:0:0:
256,192,66820,1,8,0:0:0:0:
256,192,66896,1,8,0:0:0:0:
256,192,66972,1,8,0:0:0:0:
256,192,67047,1,0,0:0:0:0:
256,192,67123,1,0,0:0:0:0:
256,192,67199,1,0,0:0:0:0:
256,192,67275,1,8,0:0:0:0:
256,192,67350,1,8,0:0:0:0:
256,192,67426,1,8,0:0:0:0:
256,192,67502,1,0,0:0:0:0:
256,192,67578,1,0,0:0:0:0:
256,192,67653,1,0,0:0:0:0:
256,192,67729,1,8,0:0:0:0:
256,192,67805,1,0,0:0:0:0:
256,192,67881,1,0,0:0:0:0:
256,192,67956,1,0,0:0:0:0:
256,192,68032,1,8,0:0:0:0:
256,192,68108,1,8,0:0:0:0:
256,192,68184,1,8,0:0:0:0:
256,192,68259,1,0,0:0:0:0:
256,192,68335,1,0,0:0:0:0:
256,192,68411,1,0,0:0:0:0:
256,192,68487,1,8,0:0:0:0:
256,192,68562,1,8,0:0:0:0:
256,192,68638,1,0,0:0:0:0:
256,192,68752,1,8,0:0:0:0:
256,192,68865,1,8,0:0:0:0:
256,192,68979,1,8,0:0:0:0:
256,192,69093,1,8,0:0:0:0:
256,192,69206,1,0,0:0:0:0:
256,192,69320,1,8,0:0:0:0:
256,192,69434,1,0,0:0:0:0:
256,192,69547,1,0,0:0:0:0:
256,192,69661,1,0,0:0:0:0:
256,192,69775,1,8,0:0:0:0:
256,192,69888,1,0,0:0:0:0:
256,192,70002,1,0,0:0:0:0:
256,192,70456,1,12,0:0:0:0:
256,192,70911,1,8,0:0:0:0:
256,192,70987,1,0,0:0:0:0:
256,192,71062,1,0,0:0:0:0:
256,192,71138,1,8,0:0:0:0:
256,192,71214,1,8,0:0:0:0:
256,192,71290,1,0,0:0:0:0:
256,192,71365,1,8,0:0:0:0:
256,192,71820,1,8,0:0:0:0:
256,192,71896,1,8,0:0:0:0:
256,192,71972,1,0,0:0:0:0:
256,192,72047,1,8,0:0:0:0:
256,192,72123,1,0,0:0:0:0:
256,192,72199,1,0,0:0:0:0:
256,192,72275,1,8,0:0:0:0:
256,192,72729,1,8,0:0:0:0:
256,192,72805,1,8,0:0:0:0:
256,192,72881,1,0,0:0:0:0:
256,192,72956,1,8,0:0:0:0:
256,192,73032,1,0,0:0:0:0:
256,192,73108,1,8,0:0:0:0:
256,192,73184,1,8,0:0:0:0:
256,192,73259,1,8,0:0:0:0:
256,192,73335,1,0,0:0:0:0:
256,192,73411,1,8,0:0:0:0:
256,192,73487,1,0,0:0:0:0:
256,192,73562,1,0,0:0:0:0:
256,192,73638,1,0,0:0:0:0:
256,192,73865,1,12,0:0:0:0:
256,192,74093,1,0,0:0:0:0:
256,192,74169,1,0,0:0:0:0:
256,192,74244,1,8,0:0:0:0:
256,192,74320,1,8,0:0:0:0:
256,192,74396,1,0,0:0:0:0:
256,192,74472,1,8,0:0:0:0:
256,192,74547,1,8,0:0:0:0:
256,192,74623,1,8,0:0:0:0:
256,192,74699,1,0,0:0:0:0:
256,192,74775,1,8,0:0:0:0:
256,192,74850,1,0,0:0:0:0:
256,192,74926,1,0,0:0:0:0:
256,192,75002,1,8,0:0:0:0:
256,192,75078,1,8,0:0:0:0:
256,192,75153,1,0,0:0:0:0:
256,192,75229,1,8,0:0:0:0:
256,192,75305,1,8,0:0:0:0:
256,192,75381,1,0,0:0:0:0:
256,192,75456,1,8,0:0:0:0:
256,192,75532,1,0,0:0:0:0:
256,192,75608,1,0,0:0:0:0:
256,192,75684,1,8,0:0:0:0:
256,192,75759,1,0,0:0:0:0:
256,192,75835,1,0,0:0:0:0:
256,192,75911,1,8,0:0:0:0:
256,192,75987,1,8,0:0:0:0:
256,192,76062,1,0,0:0:0:0:
256,192,76138,1,8,0:0:0:0:
256,192,76214,1,0,0:0:0:0:
256,192,76290,1,8,0:0:0:0:
256,192,76365,1,8,0:0:0:0:
256,192,76441,1,0,0:0:0:0:
256,192,76517,1,0,0:0:0:0:
256,192,76593,1,8,0:0:0:0:
256,192,76669,1,0,0:0:0:0:
256,192,76744,1,8,0:0:0:0:
256,192,76820,1,8,0:0:0:0:
256,192,76896,1,8,0:0:0:0:
256,192,76972,1,0,0:0:0:0:
256,192,77047,1,8,0:0:0:0:
256,192,77123,1,0,0:0:0:0:
256,192,77199,1,0,0:0:0:0:
256,192,77275,1,8,0:0:0:0:
256,192,77350,1,0,0:0:0:0:
256,192,77426,1,0,0:0:0:0:
256,192,77502,1,8,0:0:0:0:
256,192,77578,1,8,0:0:0:0:
256,192,77653,1,8,0:0:0:0:
256,192,77729,1,4,0:0:0:0:
256,192,77843,1,0,0:0:0:0:
256,192,77956,1,8,0:0:0:0:
256,192,78070,1,8,0:0:0:0:
256,192,78184,1,0,0:0:0:0:
256,192,78297,1,0,0:0:0:0:
256,192,78411,1,8,0:0:0:0:
256,192,78525,1,8,0:0:0:0:
256,192,78638,1,0,0:0:0:0:
256,192,78752,1,0,0:0:0:0:
256,192,78865,1,8,0:0:0:0:
256,192,78979,1,8,0:0:0:0:
256,192,79093,1,0,0:0:0:0:
256,192,79206,1,0,0:0:0:0:
256,192,79320,1,12,0:0:0:0:
256,192,79547,1,0,0:0:0:0:
256,192,79623,1,8,0:0:0:0:
256,192,79699,1,8,0:0:0:0:
256,192,79775,1,8,0:0:0:0:
256,192,79850,1,8,0:0:0:0:
256,192,79926,1,8,0:0:0:0:
256,192,80002,1,0,0:0:0:0:
256,192,80078,1,8,0:0:0:0:
256,192,80153,1,8,0:0:0:0:
256,192,80229,1,8,0:0:0:0:
256,192,80305,1,8,0:0:0:0:
256,192,80381,1,8,0:0:0:0:
256,192,80456,1,0,0:0:0:0:
256,192,80532,1,0,0:0:0:0:
256,192,80608,1,0,0:0:0:0:
256,192,80684,1,8,0:0:0:0:
256,192,80759,1,0,0:0:0:0:
256,192,80835,1,0,0:0:0:0:
256,192,80911,1,8,0:0:0:0:
256,192,81365,1,8,0:0:0:0:
256,192,81441,1,8,0:0:0:0:
256,192,81517,1,8,0:0:0:0:
256,192,81593,1,8,0:0:0:0:
256,192,81669,1,8,0:0:0:0:
256,192,81744,1,0,0:0:0:0:
256,192,81820,1,0,0:0:0:0:
256,192,81896,1,0,0:0:0:0:
256,192,81972,1,0,0:0:0:0:
256,192,82047,1,8,0:0:0:0:
256,192,82123,1,0,0:0:0:0:
256,192,82199,1,0,0:0:0:0:
256,192,82275,1,8,0:0:0:0:
256,192,82350,1,0,0:0:0:0:
256,192,82426,1,0,0:0:0:0:
256,192,82502,1,8,0:0:0:0:
256,192,82578,1,8,0:0:0:0:
256,192,82653,1,0,0:0:0:0:
256,192,82729,1,8,0:0:0:0:
256,192,82805,1,8,0:0:0:0:
256,192,82881,1,8,0:0:0:0:
256,192,82956,1,0,0:0:0:0:
256,192,83032,1,0,0:0:0:0:
256,192,83108,1,0,0:0:0:0:
256,192,83184,1,8,0:0:0:0:
256,192,83259,1,8,0:0:0:0:
256,192,83335,1,0,0:0:0:0:
256,192,83411,1,8,0:0:0:0:
256,192,83487,1,0,0:0:0:0:
256,192,83562,1,8,0:0:0:0:
256,192,83638,1,8,0:0:0:0:
256,192,83714,1,8,0:0:0:0:
256,192,83790,1,0,0:0:0:0:
256,192,83865,1,0,0:0:0:0:
256,192,83941,1,0,0:0:0:0:
256,192,84017,1,0,0:0:0:0:
256,192,84093,1,8,0:0:0:0:
256,192,84169,1,8,0:0:0:0:
256,192,84244,1,0,0:0:0:0:
256,192,84320,1,8,0:0:0:0:
256,192,84396,1,8,0:0:0:0:
256,192,84472,1,0,0:0:0:0:
256,192,84547,1,12,0:0:0:0:
256,192,85002,1,12,0:0:0:0:
256,192,85229,1,0,0:0:0:0:
256,192,85456,1,8,0:0:0:0:
256,192,85570,1,0,0:0:0:0:
256,192,85797,1,0,0:0:0:0:
256,192,85911,1,8,0:0:0:0:
256,192,86025,1,0,0:0:0:0:
256,192,86138,1,8,0:0:0:0:
256,192,86252,1,8,0:0:0:0:
256,192,86365,1,0,0:0:0:0:
256,192,86479,1,0,0:0:0:0:
256,192,86593,1,8,0:0:0:0:
256,192,86706,1,0,0:0:0:0:
256,192,86820,1,8,0:0:0:0:
256,192,87047,1,0,0:0:0:0:
256,192,87275,1,8,0:0:0:0:
256,192,87388,1,0,0:0:0:0:
256,192,87615,1,0,0:0:0:0:
256,192,87729,1,8,0:0:0:0:
256,192,87843,1,0,0:0:0:0:
256,192,87956,1,0,0:0:0:0:
256,192,88070,1,0,0:0:0:0:
256,192,88184,1,8,0:0:0:0:
256,192,88297,1,0,0:0:0:0:
256,192,88411,1,8,0:0:0:0:
256,192,88525,1,8,0:0:0:0:
256,192,88638,1,0,0:0:0:0:
256,192,88714,1,8,0:0:0:0:
256,192,88790,1,8,0:0:0:0:
256,192,88865,1,8,0:0:0:0:
256,192,88941,1,8,0:0:0:0:
256,192,89017,1,8,0:0:0:0:
256,192,89093,1,0,0:0:0:0:
256,192,89169,1,8,0:0:0:0:
256,192,89244,1,8,0:0:0:0:
256,192,89320,1,8,0:0:0:0:
256,192,89396,1,8,0:0:0:0:
256,192,89472,1,8,0:0:0:0:
256,192,89547,1,0,0:0:0:0:
256,192,89623,1,8,0:0:0:0:
256,192,89699,1,8,0:0:0:0:
256,192,89775,1,0,0:0:0:0:
256,192,89850,1,8,0:0:0:0:
256,192,89926,1,8,0:0:0:0:
256,192,90002,1,8,0:0:0:0:
256,192,90078,1,0,0:0:0:0:
256,192,90153,1,0,0:0:0:0:
256,192,90229,1,8,0:0:0:0:
256,192,90305,1,0,0:0:0:0:
256,192,90381,1,0,0:0:0:0:
256,192,90456,1,8,0:0:0:0:
256,192,90570,1,8,0:0:0:0:
256,192,90684,1,0,0:0:0:0:
256,192,90797,1,12,0:0:0:0:
256,192,90911,1,0,0:0:0:0:
256,192,91025,1,0,0:0:0:0:
256,192,91138,1,8,0:0:0:0:
256,192,91252,1,0,0:0:0:0:
256,192,91365,1,0,0:0:0:0:
256,192,91479,1,0,0:0:0:0:
256,192,91593,1,12,0:0:0:0:
256,192,91706,1,0,0:0:0:0:
256,192,91820,1,0,0:0:0:0:
256,192,91934,1,0,0:0:0:0:
256,192,92047,1,12,0:0:0:0:
256,192,92161,1,0,0:0:0:0:
256,192,92275,1,8,0:0:0:0:
256,192,92388,1,8,0:0:0:0:
256,192,92502,1,0,0:0:0:0:
256,192,92615,1,0,0:0:0:0:
256,192,92729,1,8,0:0:0:0:
256,192,92843,1,0,0:0:0:0:
256,192,92956,1,8,0:0:0:0:
256,192,93070,1,8,0:0:0:0:
256,192,93184,1,8,0:0:0:0:
256,192,93297,1,0,0:0:0:0:
256,192,93411,1,8,0:0:0:0:
256,192,93525,1,0,0:0:0:0:
256,192,93638,1,8,0:0:0:0:
256,192,93752,1,8,0:0:0:0:
256,192,93865,1,0,0:0:0:0:
256,192,93979,1,0,0:0:0:0:
256,192,94093,1,8,0:0:0:0:
256,192,94206,1,0,0:0:0:0:
256,192,94320,1,0,0:0:0:0:
256,192,94434,1,0,0:0:0:0:
256,192,94547,1,8,0:0:0:0:
256,192,94661,1,0,0:0:0:0:
256,192,94775,1,0,0:0:0:0:
256,192,94888,1,0,0:0:0:0:
256,192,95002,1,8,0:0:0:0:
256,192,95115,1,8,0:0:0:0:
256,192,95229,1,0,0:0:0:0:
256,192,95343,1,0,0:0:0:0:
256,192,95456,1,8,0:0:0:0:
256,192,95570,1,0,0:0:0:0:
256,192,95684,1,8,0:0:0:0:
256,192,95797,1,8,0:0:0:0:
256,192,95911,1,0,0:0:0:0:
256,192,95987,1,8,0:0:0:0:
256,192,96062,1,8,0:0:0:0:
256,192,96138,1,8,0:0:0:0:
256,192,96214,1,8,0:0:0:0:
256,192,96290,1,8,0:0:0:0:
256,192,96365,1,0,0:0:0:0:
256,192,96441,1,8,0:0:0:0:
256,192,96517,1,8,0:0:0:0:
256,192,96593,1,8,0:0:0:0:
256,192,96669,1,8,0:0:0:0:
256,192,96744,1,8,0:0:0:0:
256,192,96820,1,0,0:0:0:0:
256,192,96896,1,8,0:0:0:0:
256,192,96972,1,0,0:0:0:0:
256,192,97047,1,0,0:0:0:0:
256,192,97123,1,0,0:0:0:0:
256,192,97199,1,8,0:0:0:0:
256,192,97275,1,8,0:0:0:0:
256,192,97350,1,8,0:0:0:0:
256,192,97426,1,0,0:0:0:0:
256,192,97502,1,0,0:0:0:0:
256,192,97578,1,0,0:0:0:0:
256,192,97653,1,0,0:0:0:0:
256,192,97729,1,8,0:0:0:0:
256,192,97843,1,8,0:0:0:0:
256,192,97956,1,0,0:0:0:0:
256,192,98070,1,8,0:0:0:0:
256,192,98184,1,0,0:0:0:0:
256,192,98297,1,0,0:0:0:0:
256,192,98411,1,8,0:0:0:0:
256,192,98525,1,8,0:0:0:0:
256,192,98638,1,0,0:0:0:0:
256,192,98752,1,8,0:0:0:0:
256,192,98865,1,0,0:0:0:0:
256,192,98979,1,0,0:0:0:0:
256,192,99093,1,8,0:0:0:0:
256,192,99206,1,8,0:0:0:0:
256,192,99320,1,8,0:0:0:0:
256,192,99434,1,8,0:0:0:0:
256,192,99547,1,4,0:0:0:0:
