osu file format v14

[General]
AudioFilename: audio.mp3
AudioLeadIn: 0
PreviewTime: -1
Countdown: 1
SampleSet: None
StackLeniency: 0.7
Mode: 2
LetterboxInBreaks: 0
WidescreenStoryboard: 0

[Editor]
DistanceSpacing: 2.2
BeatDivisor: 6
GridSize: 8
TimelineZoom: 2.1

[Metadata]
Title:Unknown Title
TitleUnicode:Unknown Title
Artist:Unknown Artist
ArtistUnicode:Unknown Artist
Creator:Yumeno Himiko
Version:Yakuman
Source:雀魂
Tags:雀魂麻将majsoul水晶碰碰 Majsoul Catfood Studio Mahjong
BeatmapID:1894904
BeatmapSetID:908048

[Difficulty]
HPDrainRate:6
CircleSize:4
OverallDifficulty:8
ApproachRate:8
SliderMultiplier:2.4
SliderTickRate:2

[Events]
//Background and Video events
0,0,"bg.jpg",0,0
//Break Periods
//Storyboard Layer 0 (Background)
//Storyboard Layer 1 (Fail)
//Storyboard Layer 2 (Pass)
//Storyboard Layer 3 (Foreground)
//Storyboard Sound Samples

[TimingPoints]
-517,612.244897959184,4,3,1,40,1,0
1013,-100,4,3,1,50,0,0
1931,-100,4,3,1,60,0,0
10503,-100,4,3,1,50,0,0
11727,-100,4,3,1,60,0,0

[HitObjects]
160,312,95,5,0,0:0:0:0:
288,304,248,1,2,0:2:0:0:
160,184,554,1,0,0:0:0:0:
288,168,707,1,2,0:2:0:0:
32,120,1013,1,0,1:0:0:0:
408,64,1319,1,0,1:0:0:0:
280,64,1511,1,0,0:0:0:0:
376,64,1625,1,0,0:0:0:0:
40,304,1931,5,4,0:1:0:0:
304,304,2238,1,2,0:0:0:0:
40,304,2544,1,10,0:0:0:0:
272,176,2850,1,0,0:0:0:0:
96,176,3054,1,0,0:0:0:0:
256,88,3156,5,2,0:0:0:0:
496,80,3462,1,2,0:0:0:0:
232,88,3768,1,10,0:0:0:0:
496,192,4074,1,0,0:0:0:0:
232,192,4380,5,2,0:0:0:0:
496,192,4687,1,2,0:0:0:0:
112,192,4993,1,10,0:0:0:0:
376,192,5299,1,2,0:0:0:0:
200,192,5503,1,0,0:0:0:0:
112,192,5605,5,2,0:0:0:0:
376,192,5911,1,2,0:0:0:0:
240,192,6115,1,0,0:0:0:0:
416,192,6217,1,10,0:0:0:0:
152,192,6523,1,0,0:0:0:0:
416,192,6829,5,2,0:0:0:0:
152,192,7136,1,2,0:0:0:0:
416,192,7442,1,10,0:0:0:0:
152,192,7748,1,0,0:0:0:0:
328,192,7952,1,0,0:0:0:0:
240,192,8054,5,2,0:0:0:0:
16,192,8360,1,2,0:0:0:0:
328,192,8666,1,10,0:0:0:0:
16,192,8972,1,2,0:0:0:0:
408,304,9278,5,2,0:0:0:0:
144,304,9585,1,2,0:0:0:0:
408,304,9891,1,10,0:0:0:0:
24,304,10197,1,2,0:0:0:0:
288,304,10503,5,0,0:0:0:0:
112,304,10707,1,0,0:0:0:0:
200,304,10809,1,0,0:0:0:0:
24,304,11013,1,0,0:0:0:0:
288,304,11115,1,8,0:0:0:0:
112,304,11421,1,0,0:0:0:0:
496,80,11727,5,4,0:1:0:0:
232,80,12034,1,2,0:0:0:0:
496,80,12340,1,10,0:0:0:0:
232,80,12646,1,0,0:0:0:0:
408,80,12850,1,0,0:0:0:0:
320,80,12952,5,2,0:0:0:0:
56,80,13258,1,2,0:0:0:0:
464,80,13564,1,10,0:0:0:0:
200,80,13870,1,0,0:0:0:0:
464,80,14176,5,2,0:0:0:0:
200,80,14483,1,2,0:0:0:0:
488,80,14789,1,10,0:0:0:0:
104,80,15095,1,2,0:0:0:0:
416,192,15401,1,2,0:0:0:0:
152,192,15707,1,2,0:0:0:0:
328,192,15911,1,0,0:0:0:0:
240,192,16013,1,10,0:0:0:0:
504,192,16319,1,2,0:0:0:0:
32,192,16625,5,2,0:0:0:0:
296,192,16931,1,2,0:0:0:0:
32,192,17238,1,10,0:0:0:0:
296,192,17544,1,0,0:0:0:0:
120,192,17748,1,0,0:0:0:0:
208,192,17850,5,2,0:0:0:0:
472,192,18156,1,2,0:0:0:0:
80,192,18462,1,10,0:0:0:0:
344,192,18768,1,0,0:0:0:0:
80,192,19074,5,2,0:0:0:0:
344,192,19380,1,2,0:0:0:0:
16,192,19687,1,10,0:0:0:0:
280,192,19993,1,2,0:0:0:0:
104,192,20197,1,0,0:0:0:0:
192,192,20299,5,2,0:0:0:0:
456,192,20605,1,0,0:0:0:0:
288,192,20809,1,0,0:0:0:0:
128,192,20911,1,10,0:0:0:0:
400,192,21217,1,2,0:0:0:0:
16,192,21523,5,4,0:1:0:0:
288,192,21829,1,2,0:0:0:0:
24,192,22136,1,10,0:0:0:0:
288,192,22442,1,0,0:0:0:0:
112,192,22646,1,0,0:0:0:0:
200,192,22748,5,2,0:0:0:0:
376,192,22952,1,0,0:0:0:0:
288,192,23054,1,0,0:0:0:0:
112,192,23258,1,2,0:0:0:0:
280,192,23360,1,8,0:0:0:0:
16,192,23666,1,2,0:0:0:0:
432,192,23972,5,2,0:0:0:0:
168,192,24278,1,0,0:0:0:0:
456,192,24585,1,8,0:0:0:0:
216,192,24891,1,2,0:0:0:0:
480,192,25197,5,2,0:0:0:0:
304,192,25401,1,0,0:0:0:0:
216,192,25503,1,2,0:0:0:0:
392,192,25707,1,0,0:0:0:0:
216,192,25809,1,10,0:0:0:0:
24,192,26115,1,2,0:0:0:0:
456,192,26421,5,2,0:0:0:0:
216,192,26727,1,0,0:0:0:0:
480,192,27034,1,8,0:0:0:0:
216,192,27340,1,2,0:0:0:0:
392,192,27544,1,0,0:0:0:0:
480,192,27646,5,0,0:0:0:0:
56,192,27952,1,2,0:0:0:0:
320,192,28258,1,10,0:0:0:0:
56,192,28564,1,2,0:0:0:0:
448,192,28870,5,2,0:0:0:0:
184,192,29176,1,0,0:0:0:0:
480,192,29483,1,8,0:0:0:0:
216,192,29789,1,2,0:0:0:0:
392,192,29993,1,0,0:0:0:0:
304,192,30095,5,2,0:0:0:0:
40,192,30401,1,2,0:0:0:0:
216,192,30605,1,0,0:0:0:0:
48,192,30707,1,10,0:0:0:0:
304,192,31013,1,0,0:0:0:0:
40,192,31319,5,2,0:0:0:0:
304,192,31625,1,0,0:0:0:0:
8,192,31931,1,10,0:0:0:0:
272,192,32238,1,2,0:0:0:0:
96,192,32442,1,0,0:0:0:0:
184,192,32544,5,0,0:0:0:0:
448,192,32850,1,2,0:0:0:0:
272,192,33054,1,0,0:0:0:0:
184,192,33156,1,10,0:0:0:0:
448,192,33462,1,2,0:0:0:0:
56,192,33768,5,2,0:0:0:0:
320,192,34074,1,2,0:0:0:0:
56,192,34380,1,10,0:0:0:0:
464,192,34687,1,2,0:0:0:0:
200,192,34993,5,2,0:0:0:0:
376,192,35197,1,0,0:0:0:0:
464,192,35299,1,2,0:0:0:0:
288,192,35503,1,0,0:0:0:0:
200,192,35605,1,10,0:0:0:0:
464,192,35911,1,10,0:0:0:0:
288,192,36115,1,0,0:0:0:0:
376,192,36217,5,2,0:0:0:0:
112,192,36523,1,0,0:0:0:0:
376,192,36829,1,8,0:0:0:0:
112,192,37136,1,0,0:0:0:0:
288,192,37340,1,0,0:0:0:0:
376,192,37442,5,0,0:0:0:0:
112,192,37748,1,10,0:0:0:0:
288,192,37952,1,0,0:0:0:0:
456,192,38054,1,8,0:0:0:0:
64,192,38360,1,10,0:0:0:0:
456,192,38972,5,2,0:0:0:0:
280,192,39176,1,0,0:0:0:0:
368,192,39278,1,8,0:0:0:0:
104,192,39585,1,2,0:0:0:0:
280,192,39789,1,0,0:0:0:0:
192,192,39891,5,0,0:0:0:0:
16,192,40095,1,2,0:0:0:0:
104,192,40197,1,0,0:0:0:0:
280,192,40401,1,2,0:0:0:0:
192,192,40503,1,8,0:0:0:0:
120,248,40605,1,0,0:0:0:0:
192,192,40707,1,0,0:0:0:0:
280,192,40809,1,0,0:0:0:0:
352,248,40911,1,0,0:0:0:0:
280,192,41013,1,0,0:0:0:0:
72,80,41115,5,4,0:1:0:0:
336,80,41421,1,2,0:0:0:0:
72,80,41727,1,10,0:0:0:0:
336,80,42034,1,0,0:0:0:0:
160,80,42238,1,0,0:0:0:0:
328,80,42340,5,2,0:0:0:0:
72,80,42646,1,2,0:0:0:0:
360,168,42952,1,10,0:0:0:0:
96,168,43258,1,2,0:0:0:0:
360,168,43564,5,0,0:0:0:0:
96,168,43870,1,2,0:0:0:0:
480,168,44176,1,8,0:0:0:0:
216,168,44483,1,2,0:0:0:0:
392,168,44687,1,0,0:0:0:0:
480,168,44789,5,0,0:0:0:0:
216,168,45095,1,2,0:0:0:0:
496,168,45401,1,10,0:0:0:0:
232,168,45707,1,0,0:0:0:0:
408,168,45911,1,0,0:0:0:0:
320,168,46013,5,2,0:0:0:0:
56,168,46319,1,2,0:0:0:0:
320,168,46625,1,10,0:0:0:0:
56,168,46931,1,0,0:0:0:0:
440,168,47238,5,2,0:0:0:0:
176,168,47544,1,2,0:0:0:0:
440,168,47850,1,8,0:0:0:0:
56,280,48156,1,2,0:0:0:0:
320,280,48462,5,0,0:0:0:0:
56,280,48768,1,2,0:0:0:0:
352,280,49074,1,10,0:0:0:0:
88,280,49380,1,2,0:0:0:0:
264,280,49585,1,0,0:0:0:0:
176,280,49687,5,2,0:0:0:0:
440,280,49993,1,2,0:0:0:0:
56,136,50299,1,10,0:0:0:0:
320,136,50605,1,0,0:0:0:0:
152,136,50809,1,0,0:0:0:0:
320,136,50911,5,2,0:0:0:0:
56,136,51217,1,2,0:0:0:0:
320,136,51523,1,10,0:0:0:0:
56,136,51829,1,2,0:0:0:0:
232,136,52034,1,0,0:0:0:0:
320,136,52136,5,0,0:0:0:0:
56,136,52442,1,2,0:0:0:0:
456,136,52748,1,8,0:0:0:0:
192,136,53054,1,2,0:0:0:0:
456,136,53360,5,2,0:0:0:0:
192,136,53666,1,0,0:0:0:0:
480,136,53972,1,8,0:0:0:0:
216,136,54278,1,0,0:0:0:0:
392,136,54483,1,0,0:0:0:0:
304,136,54585,1,0,0:0:0:0:
40,136,54891,5,2,0:0:0:0:
424,136,55197,1,8,0:0:0:0:
160,136,55503,1,2,0:0:0:0:
336,136,55707,1,0,0:0:0:0:
424,136,55809,5,0,0:0:0:0:
160,136,56115,1,0,0:0:0:0:
464,136,56421,1,8,0:0:0:0:
200,136,56727,1,0,0:0:0:0:
376,136,56931,1,0,0:0:0:0:
288,136,57034,1,0,0:0:0:0:
24,136,57340,5,2,0:0:0:0:
288,136,57646,1,10,0:0:0:0:
24,136,57952,1,2,0:0:0:0:
448,136,58258,5,2,0:2:0:0:
