osu file format v14

[General]
AudioFilename: audio.mp3
AudioLeadIn: 0
PreviewTime: -1
Countdown: 1
SampleSet: None
StackLeniency: 0.7
Mode: 0
LetterboxInBreaks: 0
WidescreenStoryboard: 0

[Editor]
DistanceSpacing: 0.6
BeatDivisor: 16
GridSize: 8
TimelineZoom: 1

[Metadata]
Title:Unknown Title
TitleUnicode:Unknown Title
Artist:Unknown Artist
ArtistUnicode:Unknown Artist
Creator:Crystar
Version:1000 point
Source:雀魂
Tags:雀魂 断幺九 雀魂麻将majsoul 水晶碰碰 水晶杠杠 杠精
BeatmapID:1917324
BeatmapSetID:918166

[Difficulty]
HPDrainRate:6
CircleSize:4
OverallDifficulty:8
ApproachRate:8
SliderMultiplier:2.4
SliderTickRate:1

[Events]
//Background and Video events
0,0,"bg.jpg",0,0
//Break Periods
//Storyboard Layer 0 (Background)
//Storyboard Layer 1 (Fail)
//Storyboard Layer 2 (Pass)
//Storyboard Layer 3 (Foreground)
//Storyboard Sound Samples

[TimingPoints]
-517,612.244897959184,4,3,1,40,1,0
1013,-100,4,3,1,50,0,0
1931,-100,4,3,1,60,0,0
10503,-100,4,3,1,50,0,0
11727,-100,4,3,1,60,0,0

[HitObjects]
71,128,95,6,0,L|141:136,1,60
451,265,554,6,0,L|381:273,1,60
53,127,1013,5,0,1:0:0:0:
359,78,1319,1,0,1:0:0:0:
423,19,1511,1,0,0:0:0:0:
423,19,1625,2,0,P|435:115|428:126,1,90
376,163,1931,5,4,0:1:0:0:
342,0,2238,1,2,0:0:0:0:
501,53,2544,1,10,0:0:0:0:
376,163,2850,1,0,0:0:0:0:
440,103,3054,1,0,0:0:0:0:
440,103,3156,6,0,L|421:228,1,120
348,313,3768,1,10,0:0:0:0:
510,187,4074,1,0,0:0:0:0:
312,112,4380,5,2,0:0:0:0:
510,187,4687,1,2,0:0:0:0:
277,226,4993,1,10,0:0:0:0:
440,103,5299,1,2,0:0:0:0:
460,304,5605,1,2,0:0:0:0:
440,103,5911,1,2,0:0:0:0:
346,315,6115,1,0,0:0:0:0:
346,315,6217,2,0,P|333:190|333:189,1,120
510,187,6829,5,2,0:0:0:0:
277,226,7136,1,2,0:0:0:0:
440,103,7442,1,10,0:0:0:0:
457,304,7748,1,0,0:0:0:0:
312,112,7952,1,0,0:0:0:0:
312,112,8054,6,0,L|175:109,1,120
76,202,8666,1,10,0:0:0:0:
163,42,8972,1,2,0:0:0:0:
76,202,9278,5,2,0:0:0:0:
258,185,9585,1,2,0:0:0:0:
70,98,9891,1,10,0:0:0:0:
170,248,10197,1,2,0:0:0:0:
258,80,10503,6,0,P|323:85|354:93,1,80
381,149,10809,2,0,L|393:50,1,80
433,6,11115,1,8,0:0:0:0:
330,231,11421,1,0,0:0:0:0:
503,126,11727,5,4,0:1:0:0:
294,53,12034,1,2,0:0:0:0:
454,235,12340,1,10,0:0:0:0:
218,279,12646,1,0,0:0:0:0:
345,141,12850,1,0,0:0:0:0:
345,141,12952,6,0,L|328:284,1,120
271,366,13564,1,10,0:0:0:0:
454,235,13870,1,0,0:0:0:0:
411,337,14176,5,2,0:0:0:0:
247,199,14483,1,2,0:0:0:0:
445,126,14789,1,10,0:0:0:0:
342,76,15095,1,2,0:0:0:0:
454,235,15401,5,0,0:0:0:0:
512,50,15707,1,0,0:0:0:0:
340,192,15911,1,0,0:0:0:0:
340,192,16013,2,0,L|202:173,1,120
402,104,16625,5,2,0:0:0:0:
180,79,16931,1,2,0:0:0:0:
262,278,17238,1,10,0:0:0:0:
267,163,17544,1,0,0:0:0:0:
141,223,17748,1,0,0:0:0:0:
141,223,17850,6,0,L|125:341,1,120
376,233,18462,1,10,0:0:0:0:
282,46,18768,1,0,0:0:0:0:
267,163,19074,5,2,0:0:0:0:
399,100,19380,1,2,0:0:0:0:
156,88,19687,1,10,0:0:0:0:
262,278,19993,1,2,0:0:0:0:
267,163,20197,1,0,0:0:0:0:
267,163,20299,6,0,P|198:168|153:212,1,120
450,344,20809,2,0,L|454:294,1,40,8|0,0:0|0:0,0:0:0:0:
411,228,21217,1,2,0:0:0:0:
336,384,21523,5,4,0:1:0:0:
504,228,21829,1,2,0:0:0:0:
285,169,22136,1,10,0:0:0:0:
450,344,22442,1,0,0:0:0:0:
242,309,22646,1,0,0:0:0:0:
242,309,22748,6,0,L|117:317,1,80
85,364,23054,2,0,P|78:296|79:253,1,80
142,226,23360,1,8,0:0:0:0:
0,165,23666,1,2,0:0:0:0:
237,108,23972,5,2,0:0:0:0:
402,241,24278,1,0,0:0:0:0:
307,296,24585,1,8,0:0:0:0:
407,48,24891,1,2,0:0:0:0:
505,194,25197,5,2,0:0:0:0:
314,119,25401,1,0,0:0:0:0:
314,119,25503,2,0,P|273:107|228:109,1,80
169,158,25809,1,10,0:0:0:0:
207,371,26115,1,2,0:0:0:0:
398,223,26421,5,2,0:0:0:0:
169,158,26727,1,0,0:0:0:0:
354,382,27034,1,8,0:0:0:0:
447,123,27340,1,2,0:0:0:0:
225,288,27544,1,0,0:0:0:0:
225,288,27646,6,0,L|370:302,1,120
512,108,28258,2,0,L|374:124,1,120
344,299,28870,5,2,0:0:0:0:
392,121,29176,1,0,0:0:0:0:
458,305,29483,1,8,0:0:0:0:
253,146,29789,1,2,0:0:0:0:
493,51,29993,1,0,0:0:0:0:
493,51,30095,6,0,L|479:179,1,120
209,371,30605,2,0,P|203:336|202:299,1,40,0|8,0:0|0:0,0:0:0:0:
262,268,31013,1,0,0:0:0:0:
168,132,31319,5,2,0:0:0:0:
332,315,31625,1,0,0:0:0:0:
81,360,31931,1,10,0:0:0:0:
301,157,32238,1,2,0:0:0:0:
476,367,32442,1,0,0:0:0:0:
476,367,32544,6,0,B|487:280|487:281,1,80
507,205,32850,2,0,L|395:222,1,80
352,259,33156,1,10,0:0:0:0:
491,100,33462,1,2,0:0:0:0:
266,41,33768,5,2,0:0:0:0:
442,198,34074,1,2,0:0:0:0:
235,247,34380,1,10,0:0:0:0:
378,59,34687,1,2,0:0:0:0:
158,118,34993,5,2,0:0:0:0:
375,191,35197,1,0,0:0:0:0:
375,191,35299,2,0,L|379:293,1,80
324,332,35605,2,0,L|225:316,1,80
179,288,35911,1,10,0:0:0:0:
52,67,36115,6,0,L|108:61,1,40
83,329,36523,1,0,0:0:0:0:
83,329,36600,1,0,0:0:0:0:
83,329,36676,1,0,0:0:0:0:
83,329,36753,1,0,0:0:0:0:
83,329,36829,2,0,L|75:191,1,120
364,316,37340,6,0,L|371:263,1,45
400,88,37748,1,10,0:0:0:0:
469,138,37952,1,0,0:0:0:0:
469,138,38054,2,0,L|328:141,1,120
158,72,38972,5,2,0:0:0:0:
191,155,39176,5,0,0:0:0:0:
252,81,39278,1,8,0:0:0:0:
276,159,39585,5,2,0:0:0:0:
209,14,39789,5,2,0:0:0:0:
107,139,39891,2,0,L|97:240,1,80
54,322,40197,2,0,P|131:299|145:298,1,80
206,258,40503,5,0,0:0:0:0:
229,264,40605,1,0,0:0:0:0:
252,268,40707,1,0,0:0:0:0:
275,265,40809,1,0,0:0:0:0:
295,252,40911,1,0,0:0:0:0:
312,235,41013,1,0,0:0:0:0:
326,215,41115,5,4,2:1:0:0:
107,139,41421,1,2,0:0:0:0:
299,361,41727,1,10,0:0:0:0:
410,101,42034,1,0,0:0:0:0:
130,299,42238,1,0,0:0:0:0:
130,299,42340,6,0,P|55:267|24:228,1,120
381,189,42952,1,10,0:0:0:0:
182,50,43258,1,2,0:0:0:0:
295,349,43564,5,0,0:0:0:0:
454,53,43870,1,2,0:0:0:0:
109,229,44176,1,8,0:0:0:0:
437,384,44483,1,2,0:0:0:0:
380,87,44687,1,0,0:0:0:0:
380,87,44789,6,0,L|272:100,1,80
230,138,45095,1,2,0:0:0:0:
435,204,45401,1,10,0:0:0:0:
396,4,45707,1,0,0:0:0:0:
305,260,45911,1,0,0:0:0:0:
305,260,46013,6,0,P|306:335|293:364,1,80
226,377,46319,1,2,0:0:0:0:
271,174,46625,1,10,0:0:0:0:
415,301,46931,1,0,0:0:0:0:
199,255,47238,5,2,0:0:0:0:
336,384,47544,1,2,0:0:0:0:
381,197,47850,1,8,0:0:0:0:
199,255,48156,1,2,0:0:0:0:
455,252,48462,6,0,P|468:206|459:158,1,80
400,116,48768,2,0,L|302:118,1,80
240,161,49074,1,10,0:0:0:0:
367,308,49380,1,2,0:0:0:0:
424,113,49585,1,0,0:0:0:0:
400,116,49687,6,0,L|302:118,1,80
455,252,49993,1,2,0:0:0:0:
270,295,50299,1,10,0:0:0:0:
320,117,50605,1,0,0:0:0:0:
375,208,50809,1,0,0:0:0:0:
375,208,50911,6,0,L|364:319,1,80
318,363,51217,1,2,0:0:0:0:
320,117,51523,1,10,0:0:0:0:
512,230,51829,1,2,0:0:0:0:
247,266,52034,1,0,0:0:0:0:
247,266,52136,6,0,L|148:253,1,80
102,201,52442,1,2,0:0:0:0:
253,73,52748,1,8,0:0:0:0:
190,362,53054,1,2,0:0:0:0:
412,160,53360,5,2,0:0:0:0:
167,255,53666,1,0,0:0:0:0:
415,325,53972,1,8,0:0:0:0:
348,48,54278,1,0,0:0:0:0:
274,206,54483,1,0,0:0:0:0:
274,206,54585,2,0,P|344:219|370:207,1,80
412,160,54891,5,2,0:0:0:0:
187,164,55197,1,8,0:0:0:0:
296,371,55503,1,2,0:0:0:0:
313,81,55707,1,0,0:0:0:0:
313,81,55809,6,0,L|219:83,1,80
146,83,56115,1,0,0:0:0:0:
418,144,56421,1,8,0:0:0:0:
101,256,56727,1,0,0:0:0:0:
346,369,56931,1,0,0:0:0:0:
347,363,57034,2,0,L|366:257,1,80
429,224,57340,5,2,0:0:0:0:
242,307,57646,1,10,0:0:0:0:
511,377,57952,1,2,0:0:0:0:
460,90,58258,5,2,0:2:0:0:
