osu file format v14

[General]
AudioFilename: audio.mp3
AudioLeadIn: 0
PreviewTime: 18703
Countdown: 1
SampleSet: None
StackLeniency: 0.7
Mode: 0
LetterboxInBreaks: 0
WidescreenStoryboard: 0

[Editor]
DistanceSpacing: 1
BeatDivisor: 4
GridSize: 16
TimelineZoom: 1

[Metadata]
Title:Unknown
TitleUnicode:Unknown
Artist:Unknown Artist
ArtistUnicode:Unknown Artist
Creator:Stats-Kun
Version:Extreme Percussion Technology
Source:
Tags:
BeatmapID:1771651
BeatmapSetID:847114

[Difficulty]
HPDrainRate:6
CircleSize:4
OverallDifficulty:10
ApproachRate:10
SliderMultiplier:1.4
SliderTickRate:1

[Events]
//Background and Video events
//Break Periods
//Storyboard Layer 0 (Background)
//Storyboard Layer 1 (Fail)
//Storyboard Layer 2 (Pass)
//Storyboard Layer 3 (Foreground)
//Storyboard Sound Samples

[TimingPoints]
7807,352.941176470588,4,1,0,100,1,0
13409,352.941176470588,4,1,0,100,1,0
19011,342.857142857143,4,1,0,100,1,0
19011,-25,4,1,0,100,0,0
24432,342.857142857143,4,1,0,100,1,0
28503,272.727272727273,4,1,0,100,1,0
29593,-12.5,4,1,0,100,0,0
43230,-1,4,1,0,100,0,0

[HitObjects]
95,62,7630,5,0,0:0:0:0:
376,77,7806,2,0,P|386:157|367:203,2,105
126,261,8512,2,0,P|174:295|216:304,1,70
400,295,8777,1,0,0:0:0:0:
361,110,8865,2,0,P|336:62|314:50,1,70
116,136,9218,2,0,P|101:190|124:239,2,105
381,123,9924,1,0,0:0:0:0:
93,79,10454,5,0,0:0:0:0:
384,255,10631,2,0,P|366:293|300:319,2,105
164,58,11336,2,0,L|217:109,1,70
166,288,11689,2,0,L|122:342,1,70
370,360,12042,1,0,0:0:0:0:
481,263,12218,1,0,0:0:0:0:
487,122,12394,1,0,0:0:0:0:
373,24,12571,1,0,0:0:0:0:
123,285,12748,1,0,0:0:0:0:
294,61,13101,1,0,0:0:0:0:
132,286,13277,5,0,0:0:0:0:
390,68,13409,2,0,P|452:127|452:143,2,105
147,101,14114,2,0,L|94:155,1,70
256,272,14467,2,0,L|326:313,1,70
349,107,14820,2,0,P|296:79|241:77,2,105
151,107,15526,2,0,P|77:126|51:185,1,140
254,51,16055,5,0,0:0:0:0:
131,96,16232,2,0,P|99:146|91:195,2,105
366,232,16937,2,0,P|407:186|416:132,2,105
214,69,17644,1,0,0:0:0:0:
61,307,17821,1,0,0:0:0:0:
386,305,17996,1,0,0:0:0:0:
286,77,18173,1,0,0:0:0:0:
156,313,18350,1,0,0:0:0:0:
50,49,19011,6,0,L|359:48,1,280
458,54,19353,2,0,L|465:337,1,280
366,313,19696,2,0,L|50:329,1,280
55,338,20039,2,0,L|81:40,1,280
308,59,20382,2,0,P|403:249|121:311,3,560
450,52,21582,5,0,0:0:0:0:
340,300,21754,2,0,L|136:107,1,280
376,79,22097,2,0,L|176:288,1,280
115,45,22440,1,0,0:0:0:0:
409,307,22611,1,0,0:0:0:0:
96,323,22782,1,0,0:0:0:0:
367,74,22953,1,0,0:0:0:0:
255,41,23125,2,0,B|186:43|131:47|80:91|43:160|18:226|30:290|136:332|213:351|289:355|321:346,2,560
422,76,24368,5,0,0:0:0:0:
96,98,24432,2,0,P|72:173|75:208,1,105
410,202,24774,2,0,L|404:161,1,35
144,166,24946,2,0,L|143:209,1,35
362,290,25117,2,0,P|396:251|416:194,2,105
97,153,25803,2,0,L|117:119,1,35
379,218,25974,2,0,L|356:255,1,35
235,313,26146,2,0,L|180:287,1,35
270,44,26317,2,0,L|325:74,1,35
198,329,26489,1,0,0:0:0:0:
61,196,27003,5,0,0:0:0:0:
251,78,27174,1,0,0:0:0:0:
166,333,27347,1,0,0:0:0:0:
393,157,27517,1,0,0:0:0:0:
79,243,27689,1,0,0:0:0:0:
401,280,27860,1,0,0:0:0:0:
85,59,28203,1,0,0:0:0:0:
116,300,28503,6,0,L|141:271,1,35
161,313,28639,2,0,L|174:276,1,35
211,321,28775,2,0,L|211:281,1,35
263,323,28912,2,0,L|251:281,1,35
324,313,29048,2,0,L|304:268,1,35
373,280,29184,2,0,L|345:245,1,35
416,245,29321,2,0,L|381:216,1,35
445,208,29457,2,0,L|405:190,1,35
26,44,29593,6,0,L|321:42,1,280
60,81,29730,2,0,L|360:80,1,280
99,120,29866,2,0,L|398:117,1,280
136,161,30003,2,0,L|426:158,1,280
486,340,30139,6,0,L|191:342,1,280
452,303,30276,2,0,L|152:304,1,280
413,264,30412,2,0,L|114:267,1,280
376,223,30549,2,0,L|86:226,1,280
486,44,30684,6,0,L|191:42,1,280
452,81,30821,2,0,L|152:80,1,280
413,120,30957,2,0,L|114:117,1,280
376,161,31094,2,0,L|86:158,1,280
26,340,31230,6,0,L|321:342,1,280
60,303,31367,2,0,L|360:304,1,280
99,264,31503,2,0,L|398:267,1,280
136,223,31640,2,0,L|426:226,1,280
69,87,31775,5,0,0:0:0:0:
144,42,31843,1,0,0:0:0:0:
91,117,31912,1,0,0:0:0:0:
172,63,31980,1,0,0:0:0:0:
115,149,32048,1,0,0:0:0:0:
200,90,32116,1,0,0:0:0:0:
137,178,32184,1,0,0:0:0:0:
227,112,32253,1,0,0:0:0:0:
180,195,32321,1,0,0:0:0:0:
262,147,32389,1,0,0:0:0:0:
229,218,32457,1,0,0:0:0:0:
279,176,32525,1,0,0:0:0:0:
280,217,32593,1,0,0:0:0:0:
324,188,32662,1,0,0:0:0:0:
331,220,32730,1,0,0:0:0:0:
366,208,32798,1,0,0:0:0:0:
443,297,32866,5,0,0:0:0:0:
368,342,32934,1,0,0:0:0:0:
421,267,33003,1,0,0:0:0:0:
340,321,33071,1,0,0:0:0:0:
397,235,33139,1,0,0:0:0:0:
312,294,33207,1,0,0:0:0:0:
375,206,33275,1,0,0:0:0:0:
285,272,33344,1,0,0:0:0:0:
332,189,33412,1,0,0:0:0:0:
250,237,33480,1,0,0:0:0:0:
283,166,33548,1,0,0:0:0:0:
233,208,33616,1,0,0:0:0:0:
232,167,33684,1,0,0:0:0:0:
188,196,33753,1,0,0:0:0:0:
181,164,33821,1,0,0:0:0:0:
146,176,33889,1,0,0:0:0:0:
256,192,33957,12,0,42685,0:0:0:0:
0,387,43230,6,0,B|-1:3|-1:3|512:1|512:1|521:362|521:362|57:372|57:372|50:48|50:48|471:44|471:44|476:316|476:316|103:324|103:324|95:92|95:92|421:97|421:97|413:269|413:269|151:276|151:276|146:138|146:138|376:136|376:136|380:229|380:229|195:232|195:232|191:178|191:178|285:181|285:181|251:205,1,4900
502,2,44593,1,0,0:0:0:0:
25,363,45071,1,0,0:0:0:0:
498,16,45548,1,0,0:0:0:0:
256,192,45616,12,0,51139,0:0:0:0:
