osu file format v14

[General]
AudioFilename: audio.mp3
AudioLeadIn: 0
PreviewTime: 9671
Countdown: 0
SampleSet: Soft
StackLeniency: 0.4
Mode: 0
LetterboxInBreaks: 0
WidescreenStoryboard: 1

[Editor]
Bookmarks: 1327
DistanceSpacing: 1.2
BeatDivisor: 4
GridSize: 32
TimelineZoom: 1.4

[Metadata]
Title:Spelunker
TitleUnicode:Spelunker
Artist:Unknown Artist
ArtistUnicode:Unknown Artist
Creator:mrowswares
Version:Walao's Hard
Source:しょぼんのアクション
Tags:スペランカー しょぼんのアクション Syobon no Akushon Action Cat Neko Gato mario from hell Super Mario Bros world parody ちくChiku Spelunk 元祖みんなでスペランカー Tim Timothy G. Martin stage theme 01 atari NES nintendo entertainment system kingling nelliel walaowey matsubara kanon nyantiaz yellojello cptsqbany skubi pocket- pokey_gd minorsonek m2usonek apo11o apollo yokespai aistre alphabet venax video game instrumental scognito
BeatmapID:2112178
BeatmapSetID:1006950

[Difficulty]
HPDrainRate:5
CircleSize:3.8
OverallDifficulty:6
ApproachRate:7.5
SliderMultiplier:1.4
SliderTickRate:1

[Events]
//Background and Video events
0,0,"WP.PNG",0,0
//Break Periods
//Storyboard Layer 0 (Background)
//Storyboard Layer 1 (Fail)
//Storyboard Layer 2 (Pass)
//Storyboard Layer 3 (Foreground)
//Storyboard Layer 4 (Overlay)
//Storyboard Sound Samples

[TimingPoints]
135,397.350993377483,4,2,2,68,1,0
135,-111.111111111111,4,2,2,68,0,0
19207,-100,4,2,2,76,0,0
31923,-100,4,2,2,72,0,0

[Colours]
Combo1 : 155,228,120
Combo2 : 231,114,114

[HitObjects]
136,66,135,6,0,P|181:51|239:49,1,94.499997116089,4|0,0:0|0:0,0:0:0:0:
258,69,532,2,0,P|287:78|318:76,1,62.9999980773926,8|0,0:0|0:0,0:0:0:0:
393,56,929,2,0,P|394:93|380:125,1,62.9999980773926
337,176,1327,1,8,0:0:0:0:
337,176,1525,1,0,0:0:0:0:
380,238,1724,6,0,L|394:331,1,94.499997116089
384,367,2121,2,0,L|321:358,1,62.9999980773926,8|0,0:0|0:0,0:0:0:0:
170,342,2717,1,4,0:0:0:0:
95,357,2916,2,0,L|32:366,1,62.9999980773926,8|0,0:0|0:0,0:0:0:0:
57,252,3313,6,0,P|78:210|77:163,1,94.499997116089,4|0,0:0|0:0,0:0:0:0:
51,136,3711,2,0,L|79:66,1,62.9999980773926,8|0,0:0|0:0,0:0:0:0:
137,32,4108,2,0,L|160:90,1,62.9999980773926
233,128,4505,1,8,0:0:0:0:
233,128,4704,1,0,0:0:0:0:
304,102,4903,6,0,P|337:49|390:29,1,94.499997116089
395,54,5300,2,0,L|388:132,1,62.9999980773926,8|0,0:0|0:0,0:0:0:0:
319,252,5896,1,4,0:0:0:0:
348,321,6095,1,8,0:0:0:0:
389,221,6293,1,2,0:3:0:0:
389,221,6393,1,8,0:3:0:0:
389,221,6492,6,0,P|345:181|283:183,1,94.499997116089,4|0,0:0|0:0,0:0:0:0:
275,185,6889,2,0,P|239:200|210:197,1,62.9999980773926,8|0,0:0|0:0,0:0:0:0:
157,147,7287,1,0,0:0:0:0:
229,123,7485,1,0,0:0:0:0:
172,72,7684,2,0,P|140:72|102:94,1,62.9999980773926,8|0,0:0|0:0,0:0:0:0:
52,132,8082,5,2,0:3:0:0:
52,132,8181,1,8,0:3:0:0:
52,132,8280,1,8,0:3:0:0:
96,193,8479,2,0,P|104:237|90:280,1,62.9999980773926,8|0,0:0|0:0,0:0:0:0:
48,308,8876,1,0,0:0:0:0:
100,363,9075,1,8,0:0:0:0:
153,309,9274,2,0,P|191:303|239:318,1,62.9999980773926,8|0,0:0|0:0,0:0:0:0:
335,349,9671,6,0,P|388:340|426:309,1,94.499997116089,4|0,0:0|0:0,0:0:0:0:
416,278,10068,2,0,L|353:268,1,62.9999980773926,8|0,0:0|0:0,0:0:0:0:
277,261,10466,2,0,L|267:198,1,62.9999980773926
289,126,10863,1,8,0:0:0:0:
289,126,11061,1,0,0:0:0:0:
353,165,11260,6,0,L|446:177,1,94.499997116089
485,181,11658,2,0,L|493:118,1,62.9999980773926,8|0,0:0|0:0,0:0:0:0:
453,54,12055,2,0,L|456:22,2,31.4999990386963,2|8|8,0:3|0:3|0:3,0:0:0:0:
387,94,12452,1,8,0:0:0:0:
316,66,12651,1,2,0:3:0:0:
316,66,12750,1,8,0:3:0:0:
316,66,12850,6,0,P|248:59|190:81,1,125.999996154785,4|0,0:0|0:0,0:0:0:0:
145,137,13446,1,0,0:0:0:0:
92,190,13644,2,0,L|33:202,2,31.4999990386963
169,216,14042,1,2,0:3:0:0:
169,216,14240,1,2,0:3:0:0:
242,232,14439,6,0,L|363:207,2,94.499997116089,8|2|2,0:0|0:3|0:3,0:0:0:0:
192,289,15234,2,0,L|148:299,2,31.4999990386963
266,304,15631,2,0,L|345:287,1,62.9999980773926,2|2,0:3|0:3,0:0:0:0:
398,264,16029,6,0,P|384:215|440:149,1,125.999996154785,4|0,0:0|0:0,0:0:0:0:
460,221,16625,1,2,0:3:0:0:
499,156,16823,2,0,P|483:109|461:91,1,62.9999980773926,8|2,0:3|0:3,0:0:0:0:
400,82,17221,2,0,P|368:85|339:75,1,62.9999980773926,8|2,0:0|0:3,0:0:0:0:
263,66,17618,5,8,0:0:0:0:
289,136,17817,1,0,0:0:0:0:
268,208,18015,1,8,0:0:0:0:
294,278,18214,1,0,0:0:0:0:
265,348,18413,1,8,0:0:0:0:
116,319,18810,2,0,L|111:278,3,31.4999990386963,2|2|8|8,0:3|0:3|0:3|0:3,0:0:0:0:
116,246,19207,6,0,P|119:182|75:134,1,105,14|8,0:0|0:3,0:0:0:0:
61,126,19605,2,0,P|38:81|45:40,1,70,10|2,0:0|0:3,0:0:0:0:
122,70,20002,2,0,P|156:66|185:47,1,70,2|2,0:0|0:3,0:0:0:0:
267,29,20399,1,10,0:0:0:0:
267,29,20597,1,8,0:3:0:0:
287,111,20797,6,0,L|282:215,1,105,2|2,0:0|0:3,0:0:0:0:
316,240,21194,2,0,L|319:309,2,70,10|2|2,0:0|0:3|0:0,0:0:0:0:
377,182,21789,1,8,0:0:0:0:
460,189,21988,2,0,L|457:265,1,70,10|2,0:0|0:3,0:0:0:0:
377,361,22385,6,0,P|325:356|251:382,1,105,6|8,0:0|0:3,0:0:0:0:
250,334,22783,2,0,L|179:326,1,70,10|2,0:0|0:3,0:0:0:0:
101,356,23181,2,0,L|31:363,1,70,2|2,0:0|0:3,0:0:0:0:
24,279,23577,1,10,0:0:0:0:
24,279,23776,1,8,0:3:0:0:
13,195,23976,6,0,L|117:205,1,105,2|2,0:0|0:3,0:0:0:0:
159,208,24373,2,0,L|165:277,2,70,10|2|2,0:0|0:3|0:0,0:0:0:0:
139,126,24968,1,8,0:0:0:0:
194,62,25168,2,0,L|228:57,3,35,10|2|2|8,0:0|0:3|0:3|0:3,0:0:0:0:
270,59,25564,6,0,P|323:62|379:89,1,105,6|2,0:0|0:3,0:0:0:0:
356,122,25962,2,0,P|344:166|356:215,1,70,10|2,0:0|0:3,0:0:0:0:
427,167,26359,1,2,0:0:0:0:
453,246,26557,1,8,0:3:0:0:
373,269,26757,2,0,P|334:273|297:257,1,70,10|2,0:0|0:3,0:0:0:0:
266,187,27154,5,6,0:0:0:0:
266,187,27253,1,2,0:3:0:0:
266,187,27352,1,8,0:3:0:0:
216,110,27552,2,0,P|177:106|140:122,1,70,10|2,0:0|0:3,0:0:0:0:
67,141,27948,1,2,0:0:0:0:
53,223,28147,1,8,0:0:0:0:
42,306,28346,2,0,L|131:322,1,70,10|2,0:0|0:3,0:0:0:0:
235,361,28743,6,0,L|338:342,1,105,14|8,0:0|0:3,0:0:0:0:
379,333,29141,2,0,L|448:344,1,70,10|2,0:0|0:3,0:0:0:0:
512,289,29538,2,0,L|500:220,1,70,2|2,0:0|0:3,0:0:0:0:
486,137,29935,1,10,0:0:0:0:
486,137,30133,1,8,0:3:0:0:
420,187,30332,6,0,L|316:170,1,105,2|2,0:0|0:3,0:0:0:0:
343,137,30731,2,0,P|348:100|336:60,2,70,10|2|2,0:0|0:3|0:0,0:0:0:0:
264,106,31327,1,8,0:0:0:0:
264,106,31426,1,2,0:3:0:0:
264,106,31525,2,0,L|194:115,1,70,10|0,0:0|0:0,0:0:0:0:
152,117,31822,1,8,0:3:0:0:
152,117,31923,6,0,L|82:109,2,70,6|8|8,0:0|0:0|0:0,0:0:0:0:
179,196,32519,1,8,0:0:0:0:
179,196,32618,1,8,0:0:0:0:
179,196,32717,2,0,P|183:235|168:282,1,70,0|8,0:0|0:0,0:0:0:0:
116,324,33115,2,0,L|81:326,2,35,8|8|8,0:0|0:0|0:0,0:0:0:0:
244,318,33512,6,0,L|340:310,1,70,4|8,0:0|0:0,0:0:0:0:
355,306,33810,1,0,0:0:0:0:
355,306,33909,2,0,L|424:312,1,70,8|8,0:0|0:0,0:0:0:0:
476,245,34307,2,0,L|532:241,2,35,0|8|8,0:0|0:0|0:0,0:0:0:0:
393,230,34704,2,0,L|348:225,2,35,8|8|0,0:0|0:0|0:0,0:0:0:0:
500,160,35101,6,0,L|504:90,1,70,4|8,0:0|0:0,0:0:0:0:
465,71,35399,1,8,0:0:0:0:
465,71,35499,2,0,P|425:71|390:56,1,70,8|8,0:0|0:0,0:0:0:0:
324,18,35896,2,0,P|284:18|249:33,1,70,8|8,0:0|0:0,0:0:0:0:
224,55,36194,1,8,0:0:0:0:
224,55,36293,2,0,L|216:141,1,70,8|8,0:0|0:0,0:0:0:0:
295,234,36691,5,8,0:3:0:0:
298,99,36889,1,2,0:3:0:0:
217,206,37088,1,8,0:3:0:0:
346,168,37287,1,2,0:3:0:0:
217,124,37485,1,12,0:2:0:0:
