osu file format v14

[General]
AudioFilename: audio.mp3
AudioLeadIn: 0
PreviewTime: 9671
Countdown: 0
SampleSet: Soft
StackLeniency: 0.5
Mode: 0
LetterboxInBreaks: 0
WidescreenStoryboard: 1

[Editor]
DistanceSpacing: 1.4
BeatDivisor: 4
GridSize: 8
TimelineZoom: 1.4

[Metadata]
Title:Spelunker
TitleUnicode:Spelunker
Artist:Unknown Artist
ArtistUnicode:Unknown Artist
Creator:mrowswares
Version:Nyantiaz's Insane
Source:しょぼんのアクション
Tags:スペランカー しょぼんのアクション Syobon no Akushon Action Cat Neko Gato mario from hell Super Mario Bros world parody ちくChiku Spelunk 元祖みんなでスペランカー Tim Timothy G. Martin stage theme 01 atari NES nintendo entertainment system kingling nelliel walaowey matsubara kanon nyantiaz yellojello cptsqbany skubi pocket- pokey_gd minorsonek m2usonek apo11o apollo yokespai aistre alphabet venax video game instrumental scognito
BeatmapID:2110861
BeatmapSetID:1006950

[Difficulty]
HPDrainRate:5.5
CircleSize:3.8
OverallDifficulty:7.2
ApproachRate:8.4
SliderMultiplier:1.6
SliderTickRate:1

[Events]
//Background and Video events
0,0,"WP.PNG",0,0
//Break Periods
//Storyboard Layer 0 (Background)
//Storyboard Layer 1 (Fail)
//Storyboard Layer 2 (Pass)
//Storyboard Layer 3 (Foreground)
//Storyboard Layer 4 (Overlay)
//Storyboard Sound Samples

[TimingPoints]
135,397.350993377483,4,2,2,68,1,0
2916,-86.9565217391304,4,2,2,68,0,0
3313,-100,4,2,2,68,0,0
12850,-111.111111111111,4,2,2,68,0,0
19207,-90.9090909090909,4,2,2,76,0,1
21989,-76.9230769230769,4,2,2,76,0,1
22386,-90.9090909090909,4,2,2,76,0,1
28346,-76.9230769230769,4,2,2,76,0,1
28744,-90.9090909090909,4,2,2,76,0,1
31923,-100,4,2,2,72,0,0

[Colours]
Combo1 : 155,228,120
Combo2 : 231,114,114

[HitObjects]
68,162,135,6,0,L|189:158,1,120,4|0,0:0|0:0,0:0:0:0:
248,111,532,2,0,L|244:27,1,80,8|0,0:0|0:0,0:0:0:0:
84,81,929,5,0,0:0:0:0:
165,260,1128,1,0,0:0:0:0:
187,158,1327,1,8,0:0:0:0:
71,292,1525,1,0,0:0:0:0:
254,233,1724,6,0,P|300:226|391:238,1,120
442,269,2121,1,8,0:0:0:0:
391,147,2320,2,0,L|390:46,1,80
489,192,2717,1,4,0:0:0:0:
315,103,2916,2,0,B|239:74|267:148|146:99,1,138.000002632141,8|0,0:0|0:0,0:0:0:0:
142,50,3313,6,0,P|112:90|139:170,1,120,4|0,0:0|0:0,0:0:0:0:
191,195,3711,1,8,0:0:0:0:
228,33,3909,1,0,0:0:0:0:
26,78,4108,2,0,L|30:185,1,80
189,274,4505,2,0,L|191:194,1,80,8|0,0:0|0:0,0:0:0:0:
121,362,4903,6,0,P|180:384|254:366,1,120
297,328,5300,1,8,0:0:0:0:
432,362,5499,2,0,L|429:260,1,80
322,137,5896,1,4,0:0:0:0:
418,265,6095,1,8,0:0:0:0:
475,107,6293,1,2,0:3:0:0:
475,107,6393,1,8,0:3:0:0:
475,107,6492,6,0,P|482:69|413:73,1,120,4|0,0:0|0:0,0:0:0:0:
357,108,6889,2,0,P|310:113|245:94,1,80,8|0,0:0|0:0,0:0:0:0:
121,46,7287,1,0,0:0:0:0:
175,187,7485,1,0,0:0:0:0:
224,20,7684,2,0,L|311:11,1,80,8|0,0:0|0:0,0:0:0:0:
133,60,8082,5,2,0:3:0:0:
93,55,8181,1,8,0:3:0:0:
53,51,8280,1,8,0:3:0:0:
175,187,8479,2,0,L|254:178,1,80,8|0,0:0|0:0,0:0:0:0:
83,143,8876,1,0,0:0:0:0:
105,320,9075,1,8,0:0:0:0:
105,320,9274,2,0,P|144:328|202:313,1,80,8|0,0:0|0:0,0:0:0:0:
343,277,9671,6,0,L|337:139,1,120,4|0,0:0|0:0,0:0:0:0:
332,79,10068,1,8,0:0:0:0:
424,203,10267,1,0,0:0:0:0:
246,146,10466,1,0,0:0:0:0:
246,146,10664,1,0,0:0:0:0:
404,28,10863,1,8,0:0:0:0:
404,28,11061,1,0,0:0:0:0:
502,163,11260,6,0,L|496:318,1,120
487,359,11658,1,8,0:0:0:0:
379,228,11856,1,0,0:0:0:0:
256,333,12055,1,2,0:3:0:0:
216,339,12154,1,8,0:3:0:0:
177,332,12253,1,8,0:3:0:0:
78,229,12452,2,0,L|78:119,1,80,8|2,0:0|0:3,0:0:0:0:
100,115,12750,1,8,0:3:0:0:
124,86,12850,6,0,B|242:88,2,107.999996704102,4|0|0,0:0|0:0|0:0,0:0:0:0:
28,312,14042,1,2,0:3:0:0:
106,371,14240,1,2,0:3:0:0:
189,313,14439,6,0,P|254:305|320:319,2,107.999996704102,8|2|2,0:0|0:3|0:3,0:0:0:0:
65,167,15433,1,0,0:0:0:0:
65,167,15631,2,0,P|54:99|60:71,1,71.9999978027344,2|2,0:3|0:3,0:0:0:0:
248,28,16029,6,0,P|241:86|224:171,1,143.999995605469,4|0,0:0|0:0,0:0:0:0:
378,276,16823,2,0,L|457:273,2,71.9999978027344,8|2|8,0:3|0:3|0:0,0:0:0:0:
296,209,17419,1,2,0:3:0:0:
145,308,17618,5,8,0:0:0:0:
231,334,17817,1,0,0:0:0:0:
153,209,18015,1,8,0:0:0:0:
70,356,18214,1,0,0:0:0:0:
217,260,18413,5,8,0:0:0:0:
225,243,18512,1,0,0:0:0:0:
230,226,18611,1,0,0:0:0:0:
231,208,18711,1,0,0:0:0:0:
230,191,18810,1,2,0:3:0:0:
221,156,18909,1,2,0:3:0:0:
220,120,19008,1,8,0:3:0:0:
227,84,19108,1,8,0:3:0:0:
241,52,19207,6,0,P|306:39|401:62,1,132.00000402832,14|8,0:0|0:3,0:0:0:0:
433,97,19605,2,0,L|430:208,1,88.000002685547,10|2,0:0|0:3,0:0:0:0:
304,318,20002,1,2,0:0:0:0:
319,196,20201,1,2,0:3:0:0:
407,356,20399,1,10,0:0:0:0:
403,231,20598,1,8,0:3:0:0:
194,202,20797,6,0,L|198:345,1,132.00000402832,2|2,0:0|0:3,0:0:0:0:
262,377,21194,1,10,0:0:0:0:
111,334,21393,1,2,0:3:0:0:
293,273,21591,1,2,0:0:0:0:
66,212,21790,1,8,0:0:0:0:
197,78,21989,2,0,P|253:55|261:130,1,155.999992858887,10|8,0:0|0:3,0:0:0:0:
300,197,22386,6,0,P|349:208|443:186,1,132.00000402832,6|8,0:0|0:3,0:0:0:0:
482,137,22784,1,10,0:0:0:0:
468,281,22982,1,2,0:3:0:0:
388,117,23181,1,2,0:0:0:0:
444,309,23380,1,2,0:3:0:0:
494,114,23578,2,0,L|488:23,1,88.000002685547,10|8,0:0|0:3,0:0:0:0:
297,0,23976,6,0,L|292:148,1,132.00000402832,2|2,0:0|0:3,0:0:0:0:
322,206,24373,1,10,0:0:0:0:
190,126,24572,1,2,0:3:0:0:
73,240,24770,5,2,0:0:0:0:
75,283,24869,1,0,0:0:0:0:
77,327,24968,1,8,0:0:0:0:
228,363,25168,1,10,0:0:0:0:
269,376,25267,1,2,0:3:0:0:
313,376,25366,1,2,0:3:0:0:
355,363,25466,1,8,0:3:0:0:
391,339,25565,6,0,L|387:187,1,132.00000402832,6|2,0:0|0:3,0:0:0:0:
385,126,25962,1,10,0:0:0:0:
483,214,26161,1,2,0:3:0:0:
287,192,26360,1,2,0:0:0:0:
389,255,26558,1,8,0:3:0:0:
488,110,26757,1,10,0:0:0:0:
488,110,27154,6,0,L|485:47,2,44.0000013427735,6|2|8,0:0|0:3|0:3,0:0:0:0:
306,161,27552,1,10,0:0:0:0:
367,80,27750,1,2,0:3:0:0:
379,229,27949,1,2,0:0:0:0:
272,74,28148,1,8,0:0:0:0:
243,246,28346,2,0,P|234:309|145:360,1,155.999992858887,10|0,0:0|0:0,0:0:0:0:
87,346,28744,6,0,L|85:203,1,132.00000402832,14|8,0:0|0:3,0:0:0:0:
118,142,29141,1,10,0:0:0:0:
196,195,29340,1,2,0:3:0:0:
19,163,29538,1,2,0:0:0:0:
116,41,29737,1,2,0:3:0:0:
118,142,29936,1,10,0:0:0:0:
25,12,30134,1,8,0:3:0:0:
202,97,30333,6,0,P|260:109|340:78,1,132.00000402832,2|2,0:0|0:3,0:0:0:0:
389,35,30731,2,0,L|484:37,1,88.000002685547,10|2,0:0|0:3,0:0:0:0:
510,162,31128,1,2,0:0:0:0:
487,199,31227,1,0,0:0:0:0:
478,242,31326,1,8,0:0:0:0:
485,285,31426,1,2,0:3:0:0:
506,323,31525,1,10,0:0:0:0:
339,359,31724,1,0,0:0:0:0:
339,359,31823,1,8,0:3:0:0:
339,359,31923,5,6,0:0:0:0:
241,213,32121,1,8,0:0:0:0:
422,263,32320,1,8,0:0:0:0:
251,341,32519,1,8,0:0:0:0:
251,341,32618,2,0,P|211:350|145:338,1,80,8|8,0:0|0:0,0:0:0:0:
115,295,32916,2,0,L|111:192,1,80,8|8,0:0|0:0,0:0:0:0:
135,137,33214,1,8,0:0:0:0:
173,145,33313,1,8,0:0:0:0:
213,142,33412,1,0,0:0:0:0:
250,126,33512,6,0,L|246:32,2,80,4|8|8,0:0|0:0|0:0,0:0:0:0:
363,188,34108,1,8,0:0:0:0:
363,188,34207,2,0,P|411:201|474:192,1,80,8|8,0:0|0:0,0:0:0:0:
510,167,34505,1,8,0:0:0:0:
485,305,34704,1,8,0:0:0:0:
485,305,34803,1,8,0:0:0:0:
337,282,35101,6,0,L|246:288,1,80,4|8,0:0|0:0,0:0:0:0:
219,274,35399,1,8,0:0:0:0:
184,258,35499,2,0,P|176:218|180:165,1,80,8|8,0:0|0:0,0:0:0:0:
233,66,35896,1,8,0:0:0:0:
339,135,36095,1,8,0:0:0:0:
378,141,36194,1,8,0:0:0:0:
417,135,36293,2,0,P|429:83|427:34,1,80,8|8,0:0|0:0,0:0:0:0:
286,15,36691,5,8,0:3:0:0:
251,254,36889,1,2,0:3:0:0:
419,80,37088,1,8,0:3:0:0:
182,121,37287,1,2,0:3:0:0:
399,227,37485,1,12,0:2:0:0:
