osu file format v14

[General]
AudioFilename: audio.mp3
AudioLeadIn: 0
PreviewTime: 18808
Countdown: 0
SampleSet: Normal
StackLeniency: 0.2
Mode: 1
LetterboxInBreaks: 0
WidescreenStoryboard: 1

[Editor]
DistanceSpacing: 1.6
BeatDivisor: 4
GridSize: 32
TimelineZoom: 0.7999997

[Metadata]
Title:Spelunker
TitleUnicode:Spelunker
Artist:Unknown Artist
ArtistUnicode:Unknown Artist
Creator:Hivie
Version:Vulkin's Kantan
Source:しょぼんのアクション
Tags:vulkin スペランカー しょぼんのアクション sybon Syobon no Akushon Action Cat Neko Gato mario from hell Super Mario Bros world parody ちくChiku Spelunk 元祖みんなでスペランカー Tim Timothy G. Martin stage theme 01 atari NES nintendo entertainment system video game music vgm instrumental scognito press tag2 tag4 tag coop co-op compatible
BeatmapID:3602513
BeatmapSetID:1760129

[Difficulty]
HPDrainRate:10
CircleSize:0
OverallDifficulty:3
ApproachRate:0
SliderMultiplier:1.4
SliderTickRate:1

[Events]
//Background and Video events
0,0,"bg.png",0,-10
//Break Periods
//Storyboard Layer 0 (Background)
//Storyboard Layer 1 (Fail)
//Storyboard Layer 2 (Pass)
//Storyboard Layer 3 (Foreground)
//Storyboard Layer 4 (Overlay)
//Storyboard Sound Samples

[TimingPoints]
133,397.350993377483,4,1,0,70,1,0
19205,-95.2380952380952,4,1,0,70,0,1
31821,-95.2380952380952,4,1,0,85,0,1
31921,-95.2380952380952,4,1,0,85,0,0
36639,-100,4,1,0,70,0,0
38676,-100,4,1,0,70,0,0
39470,-100,4,1,0,60,0,0
40265,-100,4,1,0,50,0,0
41060,-100,4,1,0,40,0,0
41854,-100,4,1,0,30,0,0
42649,-100,4,1,0,20,0,0
43444,-100,4,1,0,10,0,0

[Colours]
Combo1 : 0,128,255
Combo2 : 251,217,153
Combo3 : 131,180,252
Combo4 : 247,157,157
Combo5 : 159,253,157
Combo6 : 224,177,252
Combo7 : 128,255,128
Combo8 : 255,128,128

[HitObjects]
317,289,133,5,4,0:0:0:0:
225,305,1325,5,8,0:0:0:0:
151,253,1722,5,0,0:0:0:0:
135,161,2119,1,8,0:0:0:0:
186,87,3311,1,0,0:0:0:0:
278,69,4503,1,8,0:0:0:0:
352,121,4901,1,0,0:0:0:0:
369,214,5298,1,8,0:0:0:0:
317,289,6093,1,0,0:0:0:0:
225,305,6490,5,0,0:0:0:0:
369,214,7285,1,8,0:0:0:0:
225,305,7682,1,0,0:0:0:0:
151,253,8080,5,8,0:0:0:0:
278,69,8477,1,8,0:0:0:0:
369,214,8874,1,0,0:0:0:0:
135,161,9669,5,0,0:0:0:0:
225,305,10861,1,8,0:0:0:0:
135,161,11258,5,0,0:0:0:0:
352,121,11656,1,8,0:0:0:0:
369,214,12053,1,0,0:0:0:0:
352,121,12848,5,0,0:0:0:0:
151,253,14040,1,8,0:0:0:0:
186,87,14437,5,8,0:0:0:0:
352,121,15033,1,0,0:0:0:0:
151,253,16027,5,0,0:0:0:0:
278,69,16822,1,8,0:0:0:0:
225,305,17219,1,0,0:0:0:0:
369,214,17616,5,8,0:0:0:0:
135,161,18013,1,8,0:0:0:0:
278,69,18411,5,0,0:0:0:0:
186,87,19205,5,0,0:0:0:0:
186,87,20000,5,8,0:0:0:0:
317,289,20398,1,8,0:0:0:0:
186,87,20795,5,0,0:0:0:0:
317,289,21192,1,8,0:0:0:0:
225,305,22384,1,0,0:0:0:0:
225,305,23179,1,8,0:0:0:0:
278,69,23577,1,8,0:0:0:0:
225,305,23974,1,0,0:0:0:0:
278,69,24372,1,8,0:0:0:0:
225,305,25166,1,0,0:0:0:0:
369,214,25563,1,0,0:0:0:0:
369,214,26358,1,8,0:0:0:0:
135,161,26755,1,0,0:0:0:0:
369,214,27152,1,8,0:0:0:0:
135,161,27550,1,8,0:0:0:0:
369,214,27947,1,0,0:0:0:0:
186,87,28742,5,0,0:0:0:0:
186,87,29537,5,8,0:0:0:0:
317,289,29935,1,8,0:0:0:0:
186,87,30332,5,0,0:0:0:0:
317,289,30729,1,8,0:0:0:0:
135,161,31523,1,8,0:0:0:0:
186,87,31921,1,0,0:0:0:0:
278,69,33113,1,8,0:0:0:0:
352,121,33511,1,0,0:0:0:0:
369,214,34106,1,8,0:0:0:0:
317,289,35099,1,0,0:0:0:0:
225,305,35894,5,8,0:0:0:0:
225,305,36689,1,0,0:0:0:0:
369,214,37086,1,8,0:0:0:0:
151,253,37484,5,0,0:0:0:0:
135,161,38278,5,4,0:0:0:0:
