osu file format v14

[General]
AudioFilename: audio.mp3
AudioLeadIn: 0
PreviewTime: 18808
Countdown: 0
SampleSet: Normal
StackLeniency: 0.2
Mode: 1
LetterboxInBreaks: 0
WidescreenStoryboard: 1

[Editor]
DistanceSpacing: 1.6
BeatDivisor: 4
GridSize: 4
TimelineZoom: 2

[Metadata]
Title:Spelunker
TitleUnicode:Spelunker
Artist:Unknown Artist
ArtistUnicode:Unknown Artist
Creator:Hivie
Version:Oni
Source:しょぼんのアクション
Tags:vulkin スペランカー しょぼんのアクション sybon Syobon no Akushon Action Cat Neko Gato mario from hell Super Mario Bros world parody ちくChiku Spelunk 元祖みんなでスペランカー Tim Timothy G. Martin stage theme 01 atari NES nintendo entertainment system video game music vgm instrumental scognito press tag2 tag4 tag coop co-op compatible
BeatmapID:3602496
BeatmapSetID:1760129

[Difficulty]
HPDrainRate:7
CircleSize:0
OverallDifficulty:5.5
ApproachRate:0
SliderMultiplier:1.4
SliderTickRate:1

[Events]
//Background and Video events
0,0,"bg.png",0,-10
//Break Periods
//Storyboard Layer 0 (Background)
//Storyboard Layer 1 (Fail)
//Storyboard Layer 2 (Pass)
//Storyboard Layer 3 (Foreground)
//Storyboard Layer 4 (Overlay)
//Storyboard Sound Samples

[TimingPoints]
133,397.350993377483,4,1,0,70,1,0
133,-100,4,1,0,70,0,0
5844,-100,4,1,0,80,0,0
6241,-100,4,1,0,85,0,0
6539,-100,4,1,0,75,0,0
12897,-100,4,1,0,65,0,0
17566,-100,4,1,0,70,0,0
18358,-99.0079266164814,4,1,0,70,0,0
18457,-98.52167873797,4,1,0,70,0,0
18556,-98.0401836402231,4,1,0,70,0,0
18755,-97.0864294094642,4,1,0,70,0,0
18854,-96.6188275358793,4,1,0,70,0,0
18954,-96.1510530137981,4,1,0,70,0,0
19053,-95.6923966464296,4,1,0,70,0,0
19155,-95.2380952380952,4,1,0,90,0,0
19205,-95.2380952380952,4,1,0,90,0,1
31871,-95.2380952380952,4,1,0,85,0,1
31921,-95.2380952380952,4,1,0,85,0,0
31970,-100,4,1,0,85,0,0
35049,-100,4,1,0,93,0,0
36589,-100,4,1,0,70,0,0
38626,-100,4,1,0,70,0,0
39420,-100,4,1,0,60,0,0
40215,-100,4,1,0,50,0,0
41010,-100,4,1,0,40,0,0
41804,-100,4,1,0,30,0,0
42599,-100,4,1,0,20,0,0
43394,-100,4,1,0,10,0,0

[Colours]
Combo1 : 0,128,255
Combo2 : 251,217,153
Combo3 : 131,180,252
Combo4 : 247,157,157
Combo5 : 159,253,157
Combo6 : 224,177,252
Combo7 : 128,255,128
Combo8 : 255,128,128

[HitObjects]
317,289,133,5,4,0:0:0:0:
225,305,431,1,0,0:0:0:0:
151,253,530,1,8,0:0:0:0:
135,161,729,1,8,0:0:0:0:
186,87,927,1,0,0:0:0:0:
278,69,1126,1,8,0:0:0:0:
352,121,1325,1,0,0:0:0:0:
317,289,1523,1,8,0:0:0:0:
225,305,1722,1,0,0:0:0:0:
151,253,2020,1,0,0:0:0:0:
135,161,2119,1,8,0:0:0:0:
186,87,2317,1,8,0:0:0:0:
278,69,2516,1,0,0:0:0:0:
352,121,2715,1,8,0:0:0:0:
369,214,2814,1,0,0:0:0:0:
317,289,2914,1,8,0:0:0:0:
225,305,3311,5,0,0:0:0:0:
151,253,3609,1,0,0:0:0:0:
135,161,3709,1,8,0:0:0:0:
186,87,3907,1,8,0:0:0:0:
278,69,4106,1,0,0:0:0:0:
352,121,4305,1,8,0:0:0:0:
369,214,4503,1,0,0:0:0:0:
225,305,4702,1,0,0:0:0:0:
151,253,4901,1,8,0:0:0:0:
135,161,5199,1,0,0:0:0:0:
186,87,5298,1,8,0:0:0:0:
278,69,5497,1,8,0:0:0:0:
352,121,5695,1,0,0:0:0:0:
369,214,5894,1,8,0:0:0:0:
317,289,6093,1,8,0:0:0:0:
225,305,6291,1,8,0:0:0:0:
151,253,6391,1,8,0:0:0:0:
135,161,6490,5,0,0:0:0:0:
186,87,6788,1,0,0:0:0:0:
278,69,6887,1,8,0:0:0:0:
352,121,7086,1,8,0:0:0:0:
369,214,7285,1,0,0:0:0:0:
317,289,7483,1,8,0:0:0:0:
225,305,7682,1,8,0:0:0:0:
151,253,8080,1,0,0:0:0:0:
135,161,8179,1,8,0:0:0:0:
186,87,8278,1,0,0:0:0:0:
278,69,8477,1,8,0:0:0:0:
352,121,8676,1,8,0:0:0:0:
369,214,8874,1,0,0:0:0:0:
317,289,9073,1,8,0:0:0:0:
151,253,9272,1,8,0:0:0:0:
135,161,9669,5,0,0:0:0:0:
186,87,9967,1,0,0:0:0:0:
278,69,10066,1,8,0:0:0:0:
352,121,10265,1,8,0:0:0:0:
369,214,10464,1,0,0:0:0:0:
317,289,10662,1,8,0:0:0:0:
225,305,10861,1,8,0:0:0:0:
151,253,11059,1,8,0:0:0:0:
135,161,11258,1,0,0:0:0:0:
186,87,11556,1,0,0:0:0:0:
352,121,11656,1,8,0:0:0:0:
369,214,11854,1,0,0:0:0:0:
317,289,12053,1,8,0:0:0:0:
225,305,12152,1,8,0:0:0:0:
151,253,12252,1,8,0:0:0:0:
135,161,12450,1,0,0:0:0:0:
186,87,12649,1,8,0:0:0:0:
352,121,12848,5,0,0:0:0:0:
369,214,13146,1,0,0:0:0:0:
317,289,13444,1,0,0:0:0:0:
225,305,13841,1,0,0:0:0:0:
151,253,14040,1,8,0:0:0:0:
135,161,14238,1,8,0:0:0:0:
186,87,14437,5,8,0:0:0:0:
278,69,14735,1,8,0:0:0:0:
352,121,15033,1,8,0:0:0:0:
369,214,15431,1,0,0:0:0:0:
317,289,15629,1,0,0:0:0:0:
225,305,15828,1,0,0:0:0:0:
151,253,16027,5,8,0:0:0:0:
135,161,16325,1,0,0:0:0:0:
186,87,16623,1,0,0:0:0:0:
278,69,16821,5,8,0:0:0:0:
352,121,17020,1,8,0:0:0:0:
369,214,17219,1,8,0:0:0:0:
317,289,17417,1,8,0:0:0:0:
225,305,17616,5,0,0:0:0:0:
151,253,17815,1,8,0:0:0:0:
135,161,18013,1,0,0:0:0:0:
186,87,18212,1,8,0:0:0:0:
278,69,18411,5,0,0:0:0:0:
352,121,18510,1,8,0:0:0:0:
369,214,18609,1,0,0:0:0:0:
317,289,18808,5,8,0:0:0:0:
225,305,18907,1,8,0:0:0:0:
151,253,19007,1,8,0:0:0:0:
135,161,19106,1,8,0:0:0:0:
186,87,19205,1,0,0:0:0:0:
352,121,19503,5,0,0:0:0:0:
317,289,19603,1,8,0:0:0:0:
151,253,19801,1,0,0:0:0:0:
186,87,20000,1,8,0:0:0:0:
278,69,20100,1,0,0:0:0:0:
352,121,20199,1,8,0:0:0:0:
369,214,20298,1,0,0:0:0:0:
317,289,20398,1,8,0:0:0:0:
151,253,20596,1,8,0:0:0:0:
186,87,20795,1,0,0:0:0:0:
352,121,20894,1,0,0:0:0:0:
369,214,21093,1,0,0:0:0:0:
317,289,21192,1,8,0:0:0:0:
225,305,21292,1,0,0:0:0:0:
151,253,21391,1,8,0:0:0:0:
186,87,21589,1,0,0:0:0:0:
352,121,21788,1,8,0:0:0:0:
369,214,21888,1,0,0:0:0:0:
317,289,21988,1,8,0:0:0:0:
225,305,22384,5,0,0:0:0:0:
186,87,22682,1,0,0:0:0:0:
278,69,22782,1,8,0:0:0:0:
369,214,22980,1,0,0:0:0:0:
225,305,23179,1,8,0:0:0:0:
151,253,23278,1,0,0:0:0:0:
135,161,23378,1,8,0:0:0:0:
186,87,23477,1,8,0:0:0:0:
278,69,23576,1,0,0:0:0:0:
369,214,23775,1,8,0:0:0:0:
225,305,23974,1,0,0:0:0:0:
151,253,24073,1,0,0:0:0:0:
186,87,24272,1,0,0:0:0:0:
278,69,24372,1,8,0:0:0:0:
369,214,24570,1,8,0:0:0:0:
317,289,24670,1,8,0:0:0:0:
225,305,24768,1,0,0:0:0:0:
225,305,24868,1,0,0:0:0:0:
151,253,24967,1,8,0:0:0:0:
135,161,25166,1,8,0:0:0:0:
186,87,25265,1,8,0:0:0:0:
278,69,25364,1,8,0:0:0:0:
352,121,25464,1,8,0:0:0:0:
369,214,25563,1,0,0:0:0:0:
151,253,25861,5,0,0:0:0:0:
135,161,25960,1,8,0:0:0:0:
278,69,26159,1,0,0:0:0:0:
369,214,26358,1,8,0:0:0:0:
317,289,26457,1,0,0:0:0:0:
225,305,26557,1,8,0:0:0:0:
151,253,26656,1,0,0:0:0:0:
135,161,26755,1,8,0:0:0:0:
278,69,26954,1,0,0:0:0:0:
369,214,27152,1,8,0:0:0:0:
317,289,27251,1,8,0:0:0:0:
225,305,27351,1,0,0:0:0:0:
151,253,27450,1,0,0:0:0:0:
135,161,27550,1,8,0:0:0:0:
278,69,27748,1,8,0:0:0:0:
369,214,27947,1,0,0:0:0:0:
225,305,28146,1,8,0:0:0:0:
151,253,28245,1,0,0:0:0:0:
135,161,28344,1,8,0:0:0:0:
186,87,28742,5,0,0:0:0:0:
369,214,29040,1,0,0:0:0:0:
317,289,29140,1,8,0:0:0:0:
151,253,29338,1,0,0:0:0:0:
186,87,29537,1,8,0:0:0:0:
278,69,29637,1,0,0:0:0:0:
352,121,29736,1,8,0:0:0:0:
369,214,29834,1,8,0:0:0:0:
317,289,29934,1,0,0:0:0:0:
151,253,30133,1,8,0:0:0:0:
186,87,30331,1,0,0:0:0:0:
278,69,30431,1,0,0:0:0:0:
369,214,30630,1,0,0:0:0:0:
317,289,30729,1,8,0:0:0:0:
225,305,30828,1,0,0:0:0:0:
151,253,30928,1,8,0:0:0:0:
186,87,31126,1,0,0:0:0:0:
352,121,31325,1,8,0:0:0:0:
369,214,31424,1,0,0:0:0:0:
317,289,31523,1,8,0:0:0:0:
225,305,31821,5,8,0:0:0:0:
151,253,31921,1,0,0:0:0:0:
135,161,32119,1,8,0:0:0:0:
186,87,32318,1,8,0:0:0:0:
278,69,32517,1,8,0:0:0:0:
352,121,32616,1,8,0:0:0:0:
369,214,32815,1,8,0:0:0:0:
317,289,32914,1,8,0:0:0:0:
225,305,33113,1,8,0:0:0:0:
151,253,33212,1,8,0:0:0:0:
278,69,33510,5,0,0:0:0:0:
352,121,33709,1,8,0:0:0:0:
369,214,33907,1,8,0:0:0:0:
317,289,34106,5,8,0:0:0:0:
225,305,34205,1,8,0:0:0:0:
151,253,34403,1,8,0:0:0:0:
135,161,34503,1,8,0:0:0:0:
278,69,34702,1,8,0:0:0:0:
352,121,34801,1,8,0:0:0:0:
369,214,35099,5,0,0:0:0:0:
317,289,35298,1,8,0:0:0:0:
225,305,35397,1,8,0:0:0:0:
151,253,35496,1,8,0:0:0:0:
135,161,35695,1,8,0:0:0:0:
186,87,35894,1,0,0:0:0:0:
352,121,36093,1,8,0:0:0:0:
369,214,36192,1,8,0:0:0:0:
317,289,36292,1,8,0:0:0:0:
225,305,36490,1,8,0:0:0:0:
135,161,36689,5,0,0:0:0:0:
186,87,37086,5,0,0:0:0:0:
278,69,37483,5,0,0:0:0:0:
352,121,37583,1,8,0:0:0:0:
369,214,37682,1,0,0:0:0:0:
317,289,37881,5,8,0:0:0:0:
225,305,37980,1,8,0:0:0:0:
151,253,38080,1,8,0:0:0:0:
135,161,38179,1,8,0:0:0:0:
186,87,38278,1,4,0:0:0:0:
