osu file format v14

[General]
AudioFilename: audio.mp3
AudioLeadIn: 0
PreviewTime: 2309
Countdown: 0
SampleSet: Soft
StackLeniency: 0.3
Mode: 0
LetterboxInBreaks: 0
WidescreenStoryboard: 0

[Editor]
DistanceSpacing: 0.3
BeatDivisor: 6
GridSize: 4
TimelineZoom: 3.099999

[Metadata]
Title:Nintendo Direct Intro (E3 2019 ver.)
TitleUnicode:Nintendo Direct Intro (E3 2019 ver.)
Artist:Unknown Artist
ArtistUnicode:Unknown Artist
Creator:blixys
Version:Insane
Source:Nintendo Direct
Tags:electronic entertainment expo botw animal crossing acnh 6.11.19
BeatmapID:2062689
BeatmapSetID:985921

[Difficulty]
HPDrainRate:6
CircleSize:4
OverallDifficulty:8
ApproachRate:9
SliderMultiplier:1.64
SliderTickRate:1

[Events]
//Background and Video events
0,0,"nintendo_direct_e3_2019.jpg",0,0
//Break Periods
//Storyboard Layer 0 (Background)
//Storyboard Layer 1 (Fail)
//Storyboard Layer 2 (Pass)
//Storyboard Layer 3 (Foreground)
//Storyboard Sound Samples

[TimingPoints]
2543.93893129771,468.75,4,2,0,95,1,0
10043,-100,4,2,0,95,0,1
13793,-100,4,2,0,95,0,0

[Colours]
Combo1 : 212,212,212
Combo2 : 255,0,0

[HitObjects]
61,62,2543,5,4,0:0:0:0:
153,102,2700,1,0,0:0:0:0:
252,78,2856,1,0,0:0:0:0:
61,54,3012,5,8,0:0:0:0:
153,110,3169,1,0,0:0:0:0:
252,70,3325,5,0,0:0:0:0:
149,100,3481,1,2,0:0:0:0:
255,78,3637,5,0,0:0:0:0:
148,91,3793,1,0,0:0:0:0:
256,88,3950,5,8,0:0:0:0:
149,81,4106,1,0,0:0:0:0:
255,98,4262,5,0,0:0:0:0:
339,164,4418,1,4,0:0:0:0:
255,98,4575,1,0,0:0:0:0:
149,81,4731,1,0,0:0:0:0:
336,173,4887,5,8,0:0:0:0:
262,88,5044,1,0,0:0:0:0:
147,89,5200,1,0,0:0:0:0:
261,97,5356,5,2,0:0:0:0:
147,79,5512,1,0,0:0:0:0:
258,107,5668,5,0,0:0:0:0:
150,69,5824,1,8,0:0:0:0:
254,117,5981,5,0,0:0:0:0:
154,60,6137,1,0,0:0:0:0:
153,238,6293,6,0,L|218:214,2,54.6666666666667
263,166,6762,2,0,L|196:147,2,54.6666666666667,8|0|0,0:0|0:0|0:0,0:0:0:0:
351,125,7231,5,0,0:0:0:0:
400,50,7387,1,0,0:0:0:0:
344,120,7543,5,8,0:0:0:0:
406,54,7699,1,2,0:0:0:0:
339,114,7856,5,0,0:0:0:0:
411,60,8012,1,0,0:0:0:0:
420,148,8168,6,0,L|391:194,1,54.6666666666667,2|0,0:0|0:0,0:0:0:0:
336,280,8481,1,0,0:0:0:0:
236,100,8637,6,0,L|207:146,1,54.6666666666667,2|0,0:0|0:0,0:0:0:0:
152,232,8950,1,0,0:0:0:0:
72,272,9106,5,8,0:0:0:0:
147,321,9262,1,0,0:0:0:0:
77,265,9418,5,0,0:0:0:0:
143,327,9574,1,0,0:0:0:0:
83,260,9731,5,0,0:0:0:0:
137,332,9887,1,0,0:0:0:0:
120,64,10043,6,0,L|224:168,1,109.333333333333,4|0,0:0|0:0,0:0:0:0:
302,113,10512,2,0,L|159:151,1,109.333333333333,8|0,0:0|0:0,0:0:0:0:
168,246,10981,2,0,L|206:103,1,109.333333333333
302,113,11450,6,0,L|263:255,1,109.333333333333,8|0,0:0|0:0,0:0:0:0:
350,295,11919,2,0,L|246:191,1,109.333333333333,8|0,0:0|0:0,0:0:0:0:
168,245,12388,2,0,L|310:206,1,109.333333333333,8|0,0:0|0:0,0:0:0:0:
302,113,12856,2,0,L|159:151,1,109.333333333333,8|0,0:0|0:0,0:0:0:0:
168,246,13325,2,0,L|206:103,1,109.333333333333,8|0,0:0|0:0,0:0:0:0:
231,115,13715,1,0,0:0:0:0:
264,106,13793,1,4,0:0:0:0:
