osu file format v14

[General]
AudioFilename: audio.mp3
AudioLeadIn: 0
PreviewTime: 19243
Countdown: 0
SampleSet: Soft
StackLeniency: 0.7
Mode: 0
LetterboxInBreaks: 0
WidescreenStoryboard: 0

[Editor]
DistanceSpacing: 1
BeatDivisor: 4
GridSize: 16
TimelineZoom: 1

[Metadata]
Title:Miniministop Hitoyasumi no Uta[Mokuyoubi]Gakusei no Uta
TitleUnicode:ミニミニストップひとやすみの歌【木曜日】学生の歌
Artist:Unknown Artist
ArtistUnicode:Unknown Artist
Creator:Fluss
Version:Mini Insane!
Source:MINISTOP
Tags:chaica convenience store mercury sukijames cyco cycopton prophecy
BeatmapID:2159299
BeatmapSetID:1028779

[Difficulty]
HPDrainRate:6
CircleSize:3.8
OverallDifficulty:7.8
ApproachRate:7.8
SliderMultiplier:1.4
SliderTickRate:1

[Events]
//Background and Video events
0,0,"mimippu.png",0,0
//Break Periods
//Storyboard Layer 0 (Background)
//Storyboard Layer 1 (Fail)
//Storyboard Layer 2 (Pass)
//Storyboard Layer 3 (Foreground)
//Storyboard Sound Samples

[TimingPoints]
523,480,4,2,0,50,1,8
19243,480,4,2,0,50,1,0
19603,-100,4,2,0,5,0,0
19723,-100,4,2,0,50,0,0
20083,-100,4,2,0,5,0,0
20203,-100,4,2,0,50,0,0
20563,-100,4,2,0,50,0,0
20683,480,4,2,0,50,1,0

[Colours]
Combo1 : 45,45,255
Combo2 : 255,255,0

[HitObjects]
58,61,523,6,0,B|65:133|65:133|85:199,1,140,4|8,0:0|0:0,0:0:0:0:
161,270,1243,1,2,0:0:0:0:
161,270,1483,2,0,B|201:213|220:135,1,140,8|8,0:0|0:0,0:0:0:0:
282,62,2203,1,2,0:0:0:0:
282,62,2443,2,0,P|347:92|408:155,1,140,8|8,0:0|0:0,0:0:0:0:
456,228,3163,1,2,0:0:0:0:
456,228,3403,2,0,B|403:277|403:277|334:295,1,140,8|8,0:0|0:0,0:0:0:0:
321,99,4123,1,2,0:0:0:0:
252,243,4363,5,2,0:0:0:0:
179,108,4603,1,8,0:0:0:0:
100,196,4843,2,0,L|128:273,1,70,8|0,0:0|0:0,0:0:0:0:
234,311,5323,1,8,0:0:0:0:
321,211,5563,1,2,0:0:0:0:
215,132,5803,1,8,0:0:0:0:
367,86,6043,1,2,0:0:0:0:
203,50,6283,5,8,0:0:0:0:
333,149,6523,1,2,0:0:0:0:
200,195,6763,1,8,0:0:0:0:
319,265,7003,1,2,0:0:0:0:
198,322,7243,1,8,0:0:0:0:
429,62,8203,5,4,0:0:0:0:
456,212,8443,1,2,0:0:0:0:
308,94,8683,1,8,0:0:0:0:
332,293,8923,1,2,0:0:0:0:
408,126,9163,1,8,0:0:0:0:
223,247,9403,1,2,0:0:0:0:
218,121,9643,5,8,0:0:0:0:
86,104,9883,1,2,0:0:0:0:
86,104,10123,6,0,P|106:139|136:171,1,70,8|2,0:0|0:0,0:0:0:0:
231,304,10603,1,8,0:0:0:0:
335,109,10843,1,2,0:0:0:0:
394,293,11083,1,8,0:0:0:0:
394,293,11563,2,0,B|357:278|357:278|332:244,1,70,8|0,0:0|0:0,0:0:0:0:
226,205,12043,5,4,0:0:0:0:
93,298,12283,1,2,0:0:0:0:
140,98,12523,1,8,0:0:0:0:
232,307,12763,1,2,0:0:0:0:
309,124,13003,1,8,0:0:0:0:
413,287,13243,1,2,0:0:0:0:
413,287,13483,6,0,B|374:282|374:282|341:255,1,70,8|2,0:0|0:0,0:0:0:0:
348,76,13963,1,8,0:0:0:0:
236,153,14203,1,2,0:0:0:0:
287,292,14443,1,8,0:0:0:0:
391,132,14683,1,2,0:0:0:0:
391,132,14923,2,0,B|335:89|335:89|268:66,1,140,8|8,0:0|0:0,0:0:0:0:
103,77,15643,1,2,0:0:0:0:
103,77,15883,6,0,B|105:150|105:150|128:220,1,140,4|8,0:0|0:0,0:0:0:0:
170,299,16603,5,2,0:0:0:0:
217,87,16843,1,8,0:0:0:0:
261,252,17083,1,2,0:0:0:0:
159,166,17323,1,8,0:0:0:0:
391,198,17563,1,2,0:0:0:0:
391,198,17803,2,0,B|357:268|357:268|312:323,1,140,8|8,0:0|0:0,0:0:0:0:
214,284,18523,1,2,0:0:0:0:
134,92,18763,1,8,0:0:0:0:
134,92,19243,6,0,P|126:142|134:196,1,105,4|0,0:0|0:0,0:3:0:0:
184,265,19723,6,0,L|261:186,1,105,12|0,0:0|0:0,0:0:0:0:
320,121,20203,6,0,L|355:229,1,105,8|0,0:0|0:0,0:0:0:0:
430,296,20683,5,4,0:0:0:0:
318,68,20923,1,2,0:0:0:0:
318,253,21163,1,8,0:0:0:0:
435,74,21403,1,2,0:0:0:0:
230,158,21643,1,8,0:0:0:0:
372,271,21883,2,0,B|371:226|371:226|363:181,1,70,2|8,0:0|0:0,0:0:0:0:
256,58,22363,5,2,0:0:0:0:
110,174,22603,1,8,0:0:0:0:
251,243,22843,1,2,0:0:0:0:
143,46,23083,1,8,0:0:0:0:
199,259,23323,1,2,0:0:0:0:
256,78,23563,1,8,0:0:0:0:
114,241,23803,5,2,0:0:0:0:
189,136,24043,1,8,0:0:0:0:
265,230,24283,1,2,0:0:0:0:
165,37,24523,6,0,B|110:82|110:82|75:154,1,140,4|8,0:0|0:0,0:0:0:0:
107,249,25243,1,2,0:0:0:0:
206,191,25483,1,8,0:0:0:0:
239,300,25723,1,2,0:0:0:0:
336,209,25963,5,8,0:0:0:0:
423,67,26203,1,2,0:0:0:0:
251,88,26443,1,4,0:0:0:0:
434,180,26683,1,2,0:0:0:0:
268,241,26923,1,8,0:0:0:0:
347,45,27163,1,2,0:0:0:0:
263,162,27403,1,8,0:0:0:0:
91,66,27643,5,2,0:0:0:0:
149,171,27883,1,10,0:0:0:0:
213,71,28123,1,2,0:0:0:0:
42,210,28363,6,0,B|65:240|102:252,1,70,4|2,0:0|0:0,0:0:0:0:
208,267,28843,1,8,0:0:0:0:
299,90,29083,1,2,0:0:0:0:
316,244,29323,1,8,0:0:0:0:
147,85,29563,1,2,0:0:0:0:
147,85,29803,5,8,0:0:0:0:
309,156,30043,1,2,0:0:0:0:
149,248,30283,1,8,0:0:0:0:
243,81,30523,1,2,0:0:0:0:
257,296,30763,1,8,0:0:0:0:
152,105,31003,1,2,0:0:0:0:
317,173,31243,1,10,0:0:0:0:
317,173,31483,5,2,0:0:0:0:
372,105,31723,1,10,0:0:0:0:
446,63,31963,1,2,0:0:0:0:
457,159,32203,2,0,L|430:214,1,35,4|0,0:0|0:0,0:0:0:0:
