osu file format v14

[General]
AudioFilename: audio.mp3
AudioLeadIn: 0
PreviewTime: 19243
Countdown: 0
SampleSet: Soft
StackLeniency: 0.7
Mode: 0
LetterboxInBreaks: 0
WidescreenStoryboard: 1

[Editor]
DistanceSpacing: 1
BeatDivisor: 4
GridSize: 16
TimelineZoom: 1

[Metadata]
Title:Miniministop Hitoyasumi no Uta[Mokuyoubi]Gakusei no Uta
TitleUnicode:ミニミニストップひとやすみの歌【木曜日】学生の歌
Artist:Unknown Artist
ArtistUnicode:Unknown Artist
Creator:Fluss
Version:Mini Hard!
Source:MINISTOP
Tags:chaica convenience store mercury sukijames cyco cycopton prophecy
BeatmapID:2156009
BeatmapSetID:1028779

[Difficulty]
HPDrainRate:5
CircleSize:4
OverallDifficulty:6
ApproachRate:6
SliderMultiplier:1.1
SliderTickRate:1

[Events]
//Background and Video events
0,0,"mimippu.png",0,0
//Break Periods
//Storyboard Layer 0 (Background)
//Storyboard Layer 1 (Fail)
//Storyboard Layer 2 (Pass)
//Storyboard Layer 3 (Foreground)
//Storyboard Sound Samples

[TimingPoints]
523,480,4,2,0,50,1,8
19243,480,4,2,0,50,1,0
19603,-100,4,2,0,5,0,0
19723,-100,4,2,0,50,0,0
20083,-100,4,2,0,5,0,0
20203,-100,4,2,0,50,0,0
20683,480,4,2,0,50,1,0

[Colours]
Combo1 : 45,45,255
Combo2 : 255,255,0

[HitObjects]
60,71,523,6,0,L|76:144,1,55,4|2,0:0|0:0,0:0:0:0:
96,201,1003,2,0,L|164:189,1,55,8|2,0:0|0:0,0:0:0:0:
169,112,1483,2,0,L|229:138,1,55,8|2,0:0|0:0,0:0:0:0:
239,218,1963,2,0,L|291:190,1,55,8|2,0:0|0:0,0:0:0:0:
346,139,2443,2,0,L|373:191,1,55,8|2,0:0|0:0,0:0:0:0:
396,268,2923,2,0,L|333:274,1,55,8|2,0:0|0:0,0:0:0:0:
292,212,3403,2,0,L|240:265,1,55,8|2,0:0|0:0,0:0:0:0:
203,308,3883,2,0,L|159:244,1,55,8|2,0:0|0:0,0:0:0:0:
94,232,4363,5,4,0:0:0:0:
86,144,4603,1,8,0:0:0:0:
158,174,4843,2,0,L|197:126,1,55,8|0,0:0|0:0,0:0:0:0:
265,171,5323,6,0,L|301:225,1,55,8|2,0:0|0:0,0:0:0:0:
350,138,5803,1,8,0:0:0:0:
397,213,6043,1,2,0:0:0:0:
351,291,6283,1,8,0:0:0:0:
311,218,6523,1,2,0:0:0:0:
257,298,6763,1,8,0:0:0:0:
227,212,7003,1,2,0:0:0:0:
169,273,7243,2,0,L|115:300,1,55,8|0,0:0|0:0,0:0:0:0:
338,56,8203,5,4,0:0:0:0:
292,132,8443,2,0,L|350:140,1,55,2|8,0:0|0:0,0:0:0:0:
381,216,8923,1,2,0:0:0:0:
298,219,9163,2,0,L|323:289,1,55,8|2,0:0|0:0,0:0:0:0:
236,301,9643,6,0,L|181:255,1,55,8|2,0:0|0:0,0:0:0:0:
113,290,10123,1,8,0:0:0:0:
123,206,10363,1,2,0:0:0:0:
193,171,10603,1,8,0:0:0:0:
262,215,10843,1,2,0:0:0:0:
308,292,11083,6,0,P|343:293|361:284,1,55,8|0,0:0|0:0,0:0:0:0:
427,235,11563,2,0,P|400:207|363:195,1,55,8|0,0:0|0:0,0:0:0:0:
330,121,12043,5,4,0:0:0:0:
250,90,12283,1,2,0:0:0:0:
180,135,12523,2,0,P|187:164|201:194,1,55,8|2,0:0|0:0,0:0:0:0:
267,226,13003,1,8,0:0:0:0:
429,70,13483,6,0,L|365:85,1,55,8|2,0:0|0:0,0:0:0:0:
322,151,13963,2,0,L|386:172,1,55,8|2,0:0|0:0,0:0:0:0:
408,242,14443,2,0,L|345:261,1,55,8|2,0:0|0:0,0:0:0:0:
269,227,14923,1,8,0:0:0:0:
102,109,15883,6,0,P|134:89|160:83,1,55,4|2,0:0|0:0,0:0:0:0:
181,159,16363,2,0,P|217:132|235:107,1,55,8|2,0:0|0:0,0:0:0:0:
278,70,16843,2,0,L|308:120,1,55,8|2,0:0|0:0,0:0:0:0:
277,207,17323,1,8,0:0:0:0:
352,241,17563,1,2,0:0:0:0:
410,184,17803,2,0,P|383:165|355:155,1,55,8|2,0:0|0:0,0:0:0:0:
209,124,18283,6,0,L|250:81,1,55,8|2,0:0|0:0,0:0:0:0:
330,52,18763,1,8,0:0:0:0:
284,183,19243,6,0,P|242:218|188:223,2,110,4|12|8,0:0|0:0|0:0,0:0:0:0:
205,126,20683,6,0,P|165:106|138:83,1,55,4|2,0:0|0:0,0:0:0:0:
86,45,21163,6,0,P|76:80|74:117,1,55,8|2,0:0|0:0,0:0:0:0:
88,180,21643,1,8,0:0:0:0:
75,260,21883,2,0,P|113:258|146:243,1,55,2|8,0:0|0:0,0:0:0:0:
188,207,22363,1,2,0:0:0:0:
233,305,22603,5,8,0:0:0:0:
313,300,22843,1,2,0:0:0:0:
265,232,23083,2,0,L|324:214,1,55,8|2,0:0|0:0,0:0:0:0:
398,245,23563,1,8,0:0:0:0:
407,194,23803,5,2,0:0:0:0:
403,141,24043,1,8,0:0:0:0:
382,89,24283,1,2,0:0:0:0:
306,53,24523,6,0,P|286:82|274:109,1,55,4|0,0:0|0:0,0:0:0:0:
233,165,25003,2,0,P|209:144|188:116,1,55,8|2,0:0|0:0,0:0:0:0:
138,62,25483,1,8,0:0:0:0:
101,142,25723,1,2,0:0:0:0:
116,228,25963,6,0,L|133:294,1,55,8|2,0:0|0:0,0:0:0:0:
212,310,26443,1,4,0:0:0:0:
240,231,26683,1,2,0:0:0:0:
296,296,26923,2,0,L|348:240,1,55,8|2,0:0|0:0,0:0:0:0:
338,174,27403,1,8,0:0:0:0:
311,127,27643,5,2,0:0:0:0:
274,93,27883,1,10,0:0:0:0:
225,80,28123,1,2,0:0:0:0:
143,77,28363,6,0,P|152:115|168:148,1,55,4|2,0:0|0:0,0:0:0:0:
115,203,28843,1,8,0:0:0:0:
193,199,29083,1,2,0:0:0:0:
259,247,29323,2,0,L|295:195,1,55,8|2,0:0|0:0,0:0:0:0:
360,146,29803,5,8,0:0:0:0:
331,54,30043,1,2,0:0:0:0:
279,117,30283,1,8,0:0:0:0:
243,44,30523,1,2,0:0:0:0:
193,114,30763,1,8,0:0:0:0:
157,48,31003,1,2,0:0:0:0:
117,135,31243,1,10,0:0:0:0:
185,249,31483,5,2,0:0:0:0:
237,273,31723,1,10,0:0:0:0:
293,264,31963,1,2,0:0:0:0:
306,157,32203,1,4,0:0:0:0:
