osu file format v14

[General]
AudioFilename: audio.mp3
AudioLeadIn: 0
PreviewTime: 38
Countdown: 0
SampleSet: Soft
StackLeniency: 0.9
Mode: 0
LetterboxInBreaks: 0
WidescreenStoryboard: 1

[Editor]
DistanceSpacing: 1
BeatDivisor: 4
GridSize: 8
TimelineZoom: 1

[Metadata]
Title:Main Thema
TitleUnicode:メインテーマ
Artist:Unknown Artist
ArtistUnicode:Unknown Artist
Creator:fieryrage
Version:Easy
Source:たけしの挑戦状
Tags:takeshi no chousenjou takeshi's letter of challenge the ultimate from beat kitano taito corporation famicom fc video game instrumental
BeatmapID:2506620
BeatmapSetID:1203189

[Difficulty]
HPDrainRate:2
CircleSize:2
OverallDifficulty:3
ApproachRate:3
SliderMultiplier:0.9
SliderTickRate:1

[Events]
//Background and Video events
0,0,"asdfasdd.jpg",0,0
//Break Periods
//Storyboard Layer 0 (Background)
//Storyboard Layer 1 (Fail)
//Storyboard Layer 2 (Pass)
//Storyboard Layer 3 (Foreground)
//Storyboard Layer 4 (Overlay)
//Storyboard Sound Samples

[TimingPoints]
38,532.386867790594,4,2,0,40,1,0
3764,-100,4,2,0,5,0,0
4030,-100,4,2,0,40,0,0
7491,-100,4,2,0,5,0,0
7624,-100,4,2,0,40,0,0
8556,-100,4,2,0,40,0,0
12282,-100,4,2,0,5,0,0
12549,-100,4,2,0,40,0,0
12815,-100,4,2,0,40,0,0
16009,-100,4,2,0,5,0,0
16142,-100,4,2,0,40,0,0
17074,-100,4,2,0,40,0,0
20801,-100,4,2,0,5,0,0
21067,-100,4,2,0,40,0,0
24527,-100,4,2,0,5,0,0
24660,-100,4,2,0,40,0,0
25592,-100,4,2,0,40,0,0
29319,-100,4,2,0,5,0,0
29585,-100,4,2,0,40,0,0
33045,-100,4,2,0,5,0,0
33179,-100,4,2,0,40,0,0
34110,-100,4,2,0,40,0,0
42628,-100,4,2,0,38,0,0
43161,-100,4,2,0,36,0,0
43693,-100,4,2,0,34,0,0
44226,-100,4,2,0,32,0,0
44758,-100,4,2,0,30,0,0
45024,-100,4,2,0,28,0,0
45290,-100,4,2,0,26,0,0
45557,-100,4,2,0,24,0,0
45823,-100,4,2,0,22,0,0
46355,-100,4,2,0,20,0,0
46888,-100,4,2,0,18,0,0
47154,-100,4,2,0,16,0,0
47420,-100,4,2,0,14,0,0
47686,-100,4,2,0,12,0,0
47952,-100,4,2,0,10,0,0
48485,-100,4,2,0,5,0,0

[Colours]
Combo1 : 128,47,47
Combo2 : 96,96,96
Combo3 : 63,162,169
Combo4 : 166,166,166

[HitObjects]
256,88,38,5,2,0:0:0:0:
256,176,570,1,2,0:0:0:0:
256,264,1102,2,0,L|256:360,1,90,2|2,0:0|0:0,0:0:0:0:
168,344,2167,5,2,0:0:0:0:
104,280,2699,1,2,0:0:0:0:
104,192,3232,2,0,L|104:56,1,135,2|2,0:0|0:0,0:0:0:0:
104,8,4297,5,2,0:0:0:0:
192,40,4829,1,2,0:0:0:0:
280,72,5361,2,0,L|280:176,1,90,2|2,0:0|0:0,0:0:0:0:
280,256,6426,5,2,0:0:0:0:
368,256,6959,2,0,L|368:376,1,112.5,2|2,0:0|0:0,0:0:0:0:
504,288,8556,5,2,0:0:0:0:
504,200,9088,1,2,0:0:0:0:
504,112,9620,2,0,L|504:16,1,90,2|2,0:0|0:0,0:0:0:0:
416,48,10685,5,2,0:0:0:0:
328,24,11218,1,2,0:0:0:0:
248,56,11750,2,0,L|248:200,1,135,2|2,0:0|0:0,0:0:0:0:
248,240,12815,5,2,0:0:0:0:
168,280,13347,1,2,0:0:0:0:
80,256,13880,2,0,L|80:160,1,90,2|2,0:0|0:0,0:0:0:0:
80,80,14944,5,2,0:0:0:0:
168,80,15477,2,0,L|168:200,1,112.5,2|2,0:0|0:0,0:0:0:0:
280,304,17074,5,2,0:0:0:0:
344,240,17606,1,2,0:0:0:0:
416,184,18139,2,0,L|416:88,1,90,2|2,0:0|0:0,0:0:0:0:
344,40,19203,5,2,0:0:0:0:
256,40,19736,1,2,0:0:0:0:
168,40,20268,2,0,L|168:176,1,135,2|2,0:0|0:0,0:0:0:0:
168,224,21333,5,2,0:0:0:0:
88,272,21865,1,2,0:0:0:0:
8,232,22398,2,0,L|8:128,1,90,2|2,0:0|0:0,0:0:0:0:
8,48,23463,5,2,0:0:0:0:
96,48,23995,2,0,L|96:168,1,112.5,2|2,0:0|0:0,0:0:0:0:
184,288,25592,5,2,0:0:0:0:
272,256,26124,1,2,0:0:0:0:
256,168,26657,2,0,L|256:64,1,90,2|2,0:0|0:0,0:0:0:0:
328,16,27722,5,2,0:0:0:0:
416,40,28254,1,2,0:0:0:0:
504,64,28786,2,0,L|504:208,1,135,2|2,0:0|0:0,0:0:0:0:
504,248,29851,5,2,0:0:0:0:
432,296,30384,1,2,0:0:0:0:
352,336,30916,2,0,L|352:240,1,90,2|2,0:0|0:0,0:0:0:0:
352,152,31981,5,2,0:0:0:0:
264,152,32513,2,0,L|264:272,1,112.5,2|2,0:0|0:0,0:0:0:0:
128,352,34110,6,0,L|128:272,1,67.5,2|2,0:0|0:0,0:0:0:0:
24,240,35175,2,0,L|24:152,1,67.5,2|2,0:0|0:0,0:0:0:0:
24,56,36240,1,2,0:0:0:0:
208,56,37305,2,0,L|208:144,1,67.5,2|2,0:0|0:0,0:0:0:0:
296,192,38369,6,0,L|296:272,1,67.5,2|2,0:0|0:0,0:0:0:0:
400,304,39434,2,0,L|400:236,1,67.5,2|2,0:0|0:0,0:0:0:0:
432,128,40499,1,2,0:0:0:0:
296,8,41564,2,0,L|296:80,1,67.5,2|2,0:0|0:0,0:0:0:0:
256,192,42628,12,2,49017,0:0:0:0:
