osu file format v14

[General]
AudioFilename: audio.mp3
AudioLeadIn: 0
PreviewTime: 608
Countdown: 0
SampleSet: Normal
StackLeniency: 0.2
Mode: 0
LetterboxInBreaks: 0
WidescreenStoryboard: 0

[Editor]
DistanceSpacing: 0.9
BeatDivisor: 16
GridSize: 4
TimelineZoom: 6.899995

[Metadata]
Title:Kabuki
TitleUnicode:Kabuki
Artist:Unknown Artist
ArtistUnicode:Unknown Artist
Creator:RandomLoli
Version:omegabreak
Source:
Tags:
BeatmapID:1820610
BeatmapSetID:871343

[Difficulty]
HPDrainRate:5
CircleSize:5
OverallDifficulty:6
ApproachRate:10
SliderMultiplier:0.400000005960464
SliderTickRate:2

[Events]
//Background and Video events
0,0,"4d6698bb8acd6352fc8b0a081f9512fa.jpg",0,0
//Break Periods
//Storyboard Layer 0 (Background)
//Storyboard Layer 1 (Fail)
//Storyboard Layer 2 (Pass)
//Storyboard Layer 3 (Foreground)
//Storyboard Sound Samples

[TimingPoints]
0,416.666666666667,4,1,0,100,1,0
729,-1000,4,1,0,100,0,0

[HitObjects]
508,3,833,6,0,B|3:380|4:379,1,629.00000937283
256,192,859,5,0,0:0:0:0:
67,0,1250,6,0,B|444:445|443:444,1,629.00000937283
256,192,1276,5,0,0:0:0:0:
4,381,1666,6,0,B|509:4|508:5,1,629.00000937283
256,192,1692,5,0,0:0:0:0:
445,444,1979,6,0,B|68:-61|69:-60,1,629.00000937283
256,192,2005,5,0,0:0:0:0:
508,3,2083,6,0,B|3:380|4:379,1,629.00000937283
256,192,2109,5,0,0:0:0:0:
67,0,2291,6,0,B|444:445|443:444,1,629.00000937283
256,192,2317,5,0,0:0:0:0:
4,381,2500,6,0,B|509:4|508:5,1,629.00000937283
256,192,2526,5,0,0:0:0:0:
445,444,2743,6,0,B|68:-61|69:-60,1,629.00000937283
256,192,2760,5,0,0:0:0:0:
4,381,2847,6,0,B|509:4|508:5,1,629.00000937283
256,192,2864,5,0,0:0:0:0:
67,0,2951,6,0,B|444:445|443:444,1,629.00000937283
256,192,2968,5,0,0:0:0:0:
508,3,3055,6,0,B|3:380|4:379,1,629.00000937283
256,192,3072,5,0,0:0:0:0:
445,444,3159,6,0,B|68:-61|69:-60,1,629.00000937283
256,192,3177,5,0,0:0:0:0:
4,381,3263,6,0,B|509:4|508:5,1,629.00000937283
256,192,3281,5,0,0:0:0:0:
67,0,3368,6,0,B|444:445|443:444,1,629.00000937283
256,192,3385,5,0,0:0:0:0:
508,3,3472,6,0,B|3:380|4:379,1,629.00000937283
256,192,3489,5,0,0:0:0:0:
445,444,3576,6,0,B|68:-61|69:-60,1,629.00000937283
256,192,3593,5,0,0:0:0:0:
512,0,3683,5,0,0:0:0:0:
256,192,3697,5,0,0:0:0:0:
4,381,3854,6,0,B|509:4|508:5,1,629.00000937283
256,192,3880,5,0,0:0:0:0:
67,0,4097,6,0,B|444:445|443:444,1,629.00000937283
256,192,4114,5,0,0:0:0:0:
256,192,4218,5,0,0:0:0:0:
508,4,4270,6,0,B|3:381|4:380,1,629.00000937283
260,192,4403,5,0,0:0:0:0:
256,192,4427,5,0,0:0:0:0:
260,192,4612,5,0,0:0:0:0:
256,192,4635,5,0,0:0:0:0:
412,32,5572,2,0,L|104:36,1,309.000004604458
412,32,5598,2,0,L|408:336,1,305.000004544854
407,336,5625,2,0,L|408:36,1,301.750004496425
404,332,5651,2,0,L|108:332,1,296.750004421919
107,332,5677,2,0,L|408:332,1,301.5000044927
107,332,5703,2,0,L|104:40,1,293.00000436604
100,36,5729,2,0,L|104:336,1,301.000004485249
124,336,5755,2,0,L|412:40,1,413.750006165355
412,40,5781,2,0,L|112:336,1,422.250006292015
100,36,5807,2,0,L|404:328,1,422.50000629574
404,328,5833,2,0,L|92:32,1,431.0000064224
