osu file format v14

[General]
AudioFilename: audio.mp3
AudioLeadIn: 0
PreviewTime: 442
Countdown: 0
SampleSet: Normal
StackLeniency: 0.5
Mode: 0
LetterboxInBreaks: 0
WidescreenStoryboard: 1

[Editor]
DistanceSpacing: 0.9
BeatDivisor: 16
GridSize: 4
TimelineZoom: 4.299997

[Metadata]
Title:Kabuki
TitleUnicode:Kabuki
Artist:Unknown Artist
ArtistUnicode:Unknown Artist
Creator:RandomLoli
Version:ez pp
Source:
Tags:
BeatmapID:1836265
BeatmapSetID:871343

[Difficulty]
HPDrainRate:10
CircleSize:7
OverallDifficulty:10
ApproachRate:10
SliderMultiplier:0.400000005960464
SliderTickRate:4

[Events]
//Background and Video events
0,0,"4d6698bb8acd6352fc8b0a081f9512fa.jpg",0,0
//Break Periods
//Storyboard Layer 0 (Background)
//Storyboard Layer 1 (Fail)
//Storyboard Layer 2 (Pass)
//Storyboard Layer 3 (Foreground)
//Storyboard Sound Samples

[TimingPoints]
0,416.666666666667,5,1,0,100,1,0

[HitObjects]
168,118,781,5,0,0:0:0:0:
277,91,807,1,0,0:0:0:0:
168,118,833,5,0,0:0:0:0:
277,91,859,1,0,0:0:0:0:
168,118,885,5,0,0:0:0:0:
277,91,911,1,0,0:0:0:0:
168,118,937,1,0,0:0:0:0:
277,91,963,1,0,0:0:0:0:
168,118,989,5,0,0:0:0:0:
277,91,1015,1,0,0:0:0:0:
168,118,1041,1,0,0:0:0:0:
264,233,1067,1,0,0:0:0:0:
266,237,1093,1,0,0:0:0:0:
264,233,1119,1,0,0:0:0:0:
266,237,1145,5,0,0:0:0:0:
264,233,1171,1,0,0:0:0:0:
266,237,1197,5,0,0:0:0:0:
264,233,1224,1,0,0:0:0:0:
266,237,1250,5,0,0:0:0:0:
264,233,1276,1,0,0:0:0:0:
266,237,1302,5,0,0:0:0:0:
264,233,1328,1,0,0:0:0:0:
266,237,1354,5,0,0:0:0:0:
264,233,1380,1,0,0:0:0:0:
266,237,1406,5,0,0:0:0:0:
264,233,1432,1,0,0:0:0:0:
266,237,1458,5,0,0:0:0:0:
264,233,1484,1,0,0:0:0:0:
266,237,1510,5,0,0:0:0:0:
264,233,1536,1,0,0:0:0:0:
266,237,1562,5,0,0:0:0:0:
264,233,1588,1,0,0:0:0:0:
266,237,1614,5,0,0:0:0:0:
264,233,1640,1,0,0:0:0:0:
266,237,1669,5,0,0:0:0:0:
264,233,1692,1,0,0:0:0:0:
266,237,1721,5,0,0:0:0:0:
264,233,1744,1,0,0:0:0:0:
266,237,1773,5,0,0:0:0:0:
264,233,1796,1,0,0:0:0:0:
266,237,1825,5,0,0:0:0:0:
264,233,1848,1,0,0:0:0:0:
266,237,1877,5,0,0:0:0:0:
264,233,1900,1,0,0:0:0:0:
266,237,1926,1,0,0:0:0:0:
264,162,1954,5,0,0:0:0:0:
229,184,1978,5,0,0:0:0:0:
264,162,2005,5,0,0:0:0:0:
229,184,2030,5,0,0:0:0:0:
264,162,2057,5,0,0:0:0:0:
229,184,2083,5,0,0:0:0:0:
264,162,2109,5,0,0:0:0:0:
229,184,2135,5,0,0:0:0:0:
264,162,2161,5,0,0:0:0:0:
229,184,2187,5,0,0:0:0:0:
264,162,2213,5,0,0:0:0:0:
229,184,2239,5,0,0:0:0:0:
264,162,2265,5,0,0:0:0:0:
229,184,2291,5,0,0:0:0:0:
264,162,2317,5,0,0:0:0:0:
229,184,2343,5,0,0:0:0:0:
264,162,2369,5,0,0:0:0:0:
229,184,2395,5,0,0:0:0:0:
264,162,2421,5,0,0:0:0:0:
229,184,2446,5,0,0:0:0:0:
264,162,2473,1,0,0:0:0:0:
229,184,2498,5,0,0:0:0:0:
264,162,2525,1,0,0:0:0:0:
229,184,2550,5,0,0:0:0:0:
264,162,2577,1,0,0:0:0:0:
229,184,2602,5,0,0:0:0:0:
264,162,2629,1,0,0:0:0:0:
229,184,2654,5,0,0:0:0:0:
264,162,2681,1,0,0:0:0:0:
229,184,2705,5,0,0:0:0:0:
264,162,2733,1,0,0:0:0:0:
229,184,2757,5,0,0:0:0:0:
264,162,2785,1,0,0:0:0:0:
229,184,2808,5,0,0:0:0:0:
258,84,2837,1,0,0:0:0:0:
178,112,2860,5,0,0:0:0:0:
258,84,2890,1,0,0:0:0:0:
178,112,2913,5,0,0:0:0:0:
258,84,2942,1,0,0:0:0:0:
178,112,2965,5,0,0:0:0:0:
258,84,2994,1,0,0:0:0:0:
178,112,3017,5,0,0:0:0:0:
258,84,3046,1,0,0:0:0:0:
178,112,3069,5,0,0:0:0:0:
258,84,3098,1,0,0:0:0:0:
178,112,3121,5,0,0:0:0:0:
258,84,3150,1,0,0:0:0:0:
178,112,3173,5,0,0:0:0:0:
258,84,3202,1,0,0:0:0:0:
178,112,3224,5,0,0:0:0:0:
258,84,3254,1,0,0:0:0:0:
178,112,3279,5,0,0:0:0:0:
258,84,3306,1,0,0:0:0:0:
178,112,3331,5,0,0:0:0:0:
258,84,3358,1,0,0:0:0:0:
178,112,3383,5,0,0:0:0:0:
258,84,3410,1,0,0:0:0:0:
178,112,3437,5,0,0:0:0:0:
258,84,3462,1,0,0:0:0:0:
178,112,3489,5,0,0:0:0:0:
258,84,3514,1,0,0:0:0:0:
178,112,3543,5,0,0:0:0:0:
258,84,3566,1,0,0:0:0:0:
178,112,3592,5,0,0:0:0:0:
258,84,3620,5,0,0:0:0:0:
178,112,3644,5,0,0:0:0:0:
282,191,3671,5,0,0:0:0:0:
247,211,3696,5,0,0:0:0:0:
282,191,3723,5,0,0:0:0:0:
247,211,3749,5,0,0:0:0:0:
282,191,3775,5,0,0:0:0:0:
247,211,3801,5,0,0:0:0:0:
282,191,3827,5,0,0:0:0:0:
247,211,3853,5,0,0:0:0:0:
282,191,3879,5,0,0:0:0:0:
247,211,3905,5,0,0:0:0:0:
282,191,3931,5,0,0:0:0:0:
247,211,3957,5,0,0:0:0:0:
282,191,3983,5,0,0:0:0:0:
247,211,4009,5,0,0:0:0:0:
282,191,4035,5,0,0:0:0:0:
247,211,4061,5,0,0:0:0:0:
282,191,4087,5,0,0:0:0:0:
247,211,4119,5,0,0:0:0:0:
282,191,4140,1,0,0:0:0:0:
247,211,4171,5,0,0:0:0:0:
282,191,4192,1,0,0:0:0:0:
247,211,4223,5,0,0:0:0:0:
282,191,4244,1,0,0:0:0:0:
247,211,4275,5,0,0:0:0:0:
282,191,4296,1,0,0:0:0:0:
247,211,4327,5,0,0:0:0:0:
282,191,4348,1,0,0:0:0:0:
247,211,4379,5,0,0:0:0:0:
282,191,4400,1,0,0:0:0:0:
247,211,4431,5,0,0:0:0:0:
282,191,4452,1,0,0:0:0:0:
164,116,4482,5,0,0:0:0:0:
257,83,4504,1,0,0:0:0:0:
164,116,4533,5,0,0:0:0:0:
257,83,4557,1,0,0:0:0:0:
164,116,4585,5,0,0:0:0:0:
257,83,4609,1,0,0:0:0:0:
164,116,4637,5,0,0:0:0:0:
257,83,4661,1,0,0:0:0:0:
164,116,4689,5,0,0:0:0:0:
257,83,4713,1,0,0:0:0:0:
164,116,4741,5,0,0:0:0:0:
257,83,4765,1,0,0:0:0:0:
164,116,4793,5,0,0:0:0:0:
257,83,4817,1,0,0:0:0:0:
164,116,4845,5,0,0:0:0:0:
257,83,4869,1,0,0:0:0:0:
164,116,4897,5,0,0:0:0:0:
257,83,4921,1,0,0:0:0:0:
164,116,4952,5,0,0:0:0:0:
257,83,4973,1,0,0:0:0:0:
164,116,5004,5,0,0:0:0:0:
257,83,5025,1,0,0:0:0:0:
164,116,5056,5,0,0:0:0:0:
257,83,5077,1,0,0:0:0:0:
164,116,5108,5,0,0:0:0:0:
257,83,5129,1,0,0:0:0:0:
164,118,5160,5,0,0:0:0:0:
257,83,5181,1,0,0:0:0:0:
248,228,5212,5,0,0:0:0:0:
288,206,5233,1,0,0:0:0:0:
248,228,5261,5,0,0:0:0:0:
288,206,5287,5,0,0:0:0:0:
248,228,5313,5,0,0:0:0:0:
288,206,5338,5,0,0:0:0:0:
248,228,5365,5,0,0:0:0:0:
288,206,5390,5,0,0:0:0:0:
248,228,5418,5,0,0:0:0:0:
288,206,5442,5,0,0:0:0:0:
248,228,5470,5,0,0:0:0:0:
288,206,5494,5,0,0:0:0:0:
248,228,5522,5,0,0:0:0:0:
288,206,5546,5,0,0:0:0:0:
248,228,5574,5,0,0:0:0:0:
288,206,5598,5,0,0:0:0:0:
248,228,5626,5,0,0:0:0:0:
288,206,5650,5,0,0:0:0:0:
248,228,5678,5,0,0:0:0:0:
288,206,5702,5,0,0:0:0:0:
248,228,5730,5,0,0:0:0:0:
288,206,5754,5,0,0:0:0:0:
248,228,5781,5,0,0:0:0:0:
288,206,5806,1,0,0:0:0:0:
248,228,5833,5,0,0:0:0:0:
288,206,5858,1,0,0:0:0:0:
248,228,5885,5,0,0:0:0:0:
288,206,5910,1,0,0:0:0:0:
248,228,5935,5,0,0:0:0:0:
288,206,5962,1,0,0:0:0:0:
248,228,5987,5,0,0:0:0:0:
263,88,6014,1,0,0:0:0:0:
167,119,6038,5,0,0:0:0:0:
263,88,6066,1,0,0:0:0:0:
167,119,6090,5,0,0:0:0:0:
263,88,6118,1,0,0:0:0:0:
167,119,6141,5,0,0:0:0:0:
263,88,6170,1,0,0:0:0:0:
167,119,6193,5,0,0:0:0:0:
263,88,6223,1,0,0:0:0:0:
167,119,6246,5,0,0:0:0:0:
263,88,6275,1,0,0:0:0:0:
167,119,6298,5,0,0:0:0:0:
263,88,6327,1,0,0:0:0:0:
167,119,6350,5,0,0:0:0:0:
263,88,6379,1,0,0:0:0:0:
167,119,6402,1,0,0:0:0:0:
263,88,6431,5,0,0:0:0:0:
167,119,6454,1,0,0:0:0:0:
263,88,6483,5,0,0:0:0:0:
167,119,6506,1,0,0:0:0:0:
263,88,6535,5,0,0:0:0:0:
167,119,6557,1,0,0:0:0:0:
263,88,6587,5,0,0:0:0:0:
167,119,6612,1,0,0:0:0:0:
263,88,6639,5,0,0:0:0:0:
167,119,6664,1,0,0:0:0:0:
263,88,6691,5,0,0:0:0:0:
167,119,6716,1,0,0:0:0:0:
263,88,6743,5,0,0:0:0:0:
242,228,6770,1,0,0:0:0:0:
291,207,6795,5,0,0:0:0:0:
242,228,6822,1,0,0:0:0:0:
291,207,6847,5,0,0:0:0:0:
242,228,6875,1,0,0:0:0:0:
291,207,6899,1,0,0:0:0:0:
242,228,6925,1,0,0:0:0:0:
291,207,6953,5,0,0:0:0:0:
242,228,6977,1,0,0:0:0:0:
291,207,7004,5,0,0:0:0:0:
242,228,7029,1,0,0:0:0:0:
291,207,7056,5,0,0:0:0:0:
242,228,7082,1,0,0:0:0:0:
291,207,7108,5,0,0:0:0:0:
242,228,7134,1,0,0:0:0:0:
291,207,7160,5,0,0:0:0:0:
242,228,7186,1,0,0:0:0:0:
291,207,7212,5,0,0:0:0:0:
242,228,7238,1,0,0:0:0:0:
291,207,7264,5,0,0:0:0:0:
242,228,7290,1,0,0:0:0:0:
291,207,7316,5,0,0:0:0:0:
242,228,7342,1,0,0:0:0:0:
291,207,7368,5,0,0:0:0:0:
242,228,7394,1,0,0:0:0:0:
291,207,7420,5,0,0:0:0:0:
242,228,7447,1,0,0:0:0:0:
291,207,7473,1,0,0:0:0:0:
242,228,7499,5,0,0:0:0:0:
291,207,7525,1,0,0:0:0:0:
169,120,7551,5,0,0:0:0:0:
258,90,7577,1,0,0:0:0:0:
169,120,7603,1,0,0:0:0:0:
258,90,7629,1,0,0:0:0:0:
169,120,7655,5,0,0:0:0:0:
258,90,7681,1,0,0:0:0:0:
169,120,7707,1,0,0:0:0:0:
258,90,7733,1,0,0:0:0:0:
169,120,7759,1,0,0:0:0:0:
258,90,7785,1,0,0:0:0:0:
169,120,7811,5,0,0:0:0:0:
258,90,7837,1,0,0:0:0:0:
169,120,7863,5,0,0:0:0:0:
258,90,7890,1,0,0:0:0:0:
169,120,7916,5,0,0:0:0:0:
258,90,7942,1,0,0:0:0:0:
169,120,7968,5,0,0:0:0:0:
258,90,7994,1,0,0:0:0:0:
169,120,8020,5,0,0:0:0:0:
258,90,8046,1,0,0:0:0:0:
169,120,8072,5,0,0:0:0:0:
258,90,8098,1,0,0:0:0:0:
169,120,8124,5,0,0:0:0:0:
258,90,8150,1,0,0:0:0:0:
169,120,8176,5,0,0:0:0:0:
258,90,8202,1,0,0:0:0:0:
169,120,8228,5,0,0:0:0:0:
258,90,8254,1,0,0:0:0:0:
169,120,8283,5,0,0:0:0:0:
258,90,8306,1,0,0:0:0:0:
169,120,8335,5,0,0:0:0:0:
169,120,8358,1,0,0:0:0:0:
242,234,8387,5,0,0:0:0:0:
283,214,8410,1,0,0:0:0:0:
242,234,8439,5,0,0:0:0:0:
283,214,8462,1,0,0:0:0:0:
242,234,8491,5,0,0:0:0:0:
283,214,8514,1,0,0:0:0:0:
242,234,8543,5,0,0:0:0:0:
283,214,8566,1,0,0:0:0:0:
242,234,8592,1,0,0:0:0:0:
283,214,8620,5,0,0:0:0:0:
242,234,8644,5,0,0:0:0:0:
283,214,8671,5,0,0:0:0:0:
242,234,8696,5,0,0:0:0:0:
283,214,8723,5,0,0:0:0:0:
242,234,8749,5,0,0:0:0:0:
283,214,8775,5,0,0:0:0:0:
242,234,8801,5,0,0:0:0:0:
283,214,8827,5,0,0:0:0:0:
242,234,8853,5,0,0:0:0:0:
283,214,8879,5,0,0:0:0:0:
242,234,8905,5,0,0:0:0:0:
283,214,8931,5,0,0:0:0:0:
242,234,8957,5,0,0:0:0:0:
283,214,8983,5,0,0:0:0:0:
242,234,9009,5,0,0:0:0:0:
283,214,9035,5,0,0:0:0:0:
242,234,9061,5,0,0:0:0:0:
283,214,9087,5,0,0:0:0:0:
242,234,9112,5,0,0:0:0:0:
283,214,9139,1,0,0:0:0:0:
242,234,9164,5,0,0:0:0:0:
283,214,9191,1,0,0:0:0:0:
242,234,9216,5,0,0:0:0:0:
283,214,9243,1,0,0:0:0:0:
242,234,9268,5,0,0:0:0:0:
283,214,9295,1,0,0:0:0:0:
242,234,9320,5,0,0:0:0:0:
283,214,9347,1,0,0:0:0:0:
242,234,9371,5,0,0:0:0:0:
283,214,9399,1,0,0:0:0:0:
242,234,9423,5,0,0:0:0:0:
283,214,9451,1,0,0:0:0:0:
242,233,9474,5,0,0:0:0:0:
261,87,9503,1,0,0:0:0:0:
162,119,9526,5,0,0:0:0:0:
261,87,9556,1,0,0:0:0:0:
162,119,9579,5,0,0:0:0:0:
261,87,9608,1,0,0:0:0:0:
162,119,9631,5,0,0:0:0:0:
261,87,9660,1,0,0:0:0:0:
162,119,9683,5,0,0:0:0:0:
261,87,9712,1,0,0:0:0:0:
162,119,9735,5,0,0:0:0:0:
261,87,9764,1,0,0:0:0:0:
162,119,9787,5,0,0:0:0:0:
261,87,9816,1,0,0:0:0:0:
162,119,9839,5,0,0:0:0:0:
261,87,9868,1,0,0:0:0:0:
162,119,9890,5,0,0:0:0:0:
261,87,9920,1,0,0:0:0:0:
162,119,9945,5,0,0:0:0:0:
261,87,9972,1,0,0:0:0:0:
162,119,9997,5,0,0:0:0:0:
261,87,10024,1,0,0:0:0:0:
162,119,10049,5,0,0:0:0:0:
261,87,10076,1,0,0:0:0:0:
162,119,10103,5,0,0:0:0:0:
261,87,10128,1,0,0:0:0:0:
162,119,10155,5,0,0:0:0:0:
261,87,10180,1,0,0:0:0:0:
162,119,10209,5,0,0:0:0:0:
261,87,10232,1,0,0:0:0:0:
162,119,10258,5,0,0:0:0:0:
261,87,10286,5,0,0:0:0:0:
162,119,10310,5,0,0:0:0:0:
261,87,10337,5,0,0:0:0:0:
162,119,10362,5,0,0:0:0:0:
261,87,10389,5,0,0:0:0:0:
162,119,10415,5,0,0:0:0:0:
261,87,10441,5,0,0:0:0:0:
162,119,10467,5,0,0:0:0:0:
261,87,10493,5,0,0:0:0:0:
162,119,10519,5,0,0:0:0:0:
261,87,10545,5,0,0:0:0:0:
162,119,10571,5,0,0:0:0:0:
261,87,10597,5,0,0:0:0:0:
162,119,10623,5,0,0:0:0:0:
258,84,10649,5,0,0:0:0:0:
180,101,10675,5,0,0:0:0:0:
258,84,10701,5,0,0:0:0:0:
180,101,10727,5,0,0:0:0:0:
258,84,10753,5,0,0:0:0:0:
180,101,10785,5,0,0:0:0:0:
258,84,10806,1,0,0:0:0:0:
180,101,10837,5,0,0:0:0:0:
258,84,10858,1,0,0:0:0:0:
180,101,10889,5,0,0:0:0:0:
258,84,10910,1,0,0:0:0:0:
180,101,10941,5,0,0:0:0:0:
258,84,10962,1,0,0:0:0:0:
180,101,10993,5,0,0:0:0:0:
258,84,11014,1,0,0:0:0:0:
180,101,11045,5,0,0:0:0:0:
258,84,11066,1,0,0:0:0:0:
180,101,11097,5,0,0:0:0:0:
258,84,11118,1,0,0:0:0:0:
180,101,11148,5,0,0:0:0:0:
258,84,11170,1,0,0:0:0:0:
180,101,11199,5,0,0:0:0:0:
258,84,11223,1,0,0:0:0:0:
180,101,11251,5,0,0:0:0:0:
258,84,11275,1,0,0:0:0:0:
180,101,11303,5,0,0:0:0:0:
258,84,11327,1,0,0:0:0:0:
180,101,11355,5,0,0:0:0:0:
258,84,11379,1,0,0:0:0:0:
180,101,11407,5,0,0:0:0:0:
258,84,11431,1,0,0:0:0:0:
180,101,11459,5,0,0:0:0:0:
258,84,11483,1,0,0:0:0:0:
180,101,11511,5,0,0:0:0:0:
258,84,11535,1,0,0:0:0:0:
180,101,11563,5,0,0:0:0:0:
258,84,11587,1,0,0:0:0:0:
156,161,11618,5,0,0:0:0:0:
258,84,11639,1,0,0:0:0:0:
183,236,11670,5,0,0:0:0:0:
222,241,11691,1,0,0:0:0:0:
183,236,11722,5,0,0:0:0:0:
222,241,11743,1,0,0:0:0:0:
183,236,11774,5,0,0:0:0:0:
222,241,11795,1,0,0:0:0:0:
183,236,11826,5,0,0:0:0:0:
222,241,11847,1,0,0:0:0:0:
183,236,11878,5,0,0:0:0:0:
222,241,11899,1,0,0:0:0:0:
183,236,11927,5,0,0:0:0:0:
222,241,11953,5,0,0:0:0:0:
202,82,11979,5,0,0:0:0:0:
258,71,12004,5,0,0:0:0:0:
202,82,12031,5,0,0:0:0:0:
258,71,12056,5,0,0:0:0:0:
202,82,12084,5,0,0:0:0:0:
258,71,12108,5,0,0:0:0:0:
202,82,12136,5,0,0:0:0:0:
258,71,12160,5,0,0:0:0:0:
202,82,12188,5,0,0:0:0:0:
258,71,12212,5,0,0:0:0:0:
202,82,12240,5,0,0:0:0:0:
258,71,12264,5,0,0:0:0:0:
202,82,12292,5,0,0:0:0:0:
258,71,12316,5,0,0:0:0:0:
202,82,12344,5,0,0:0:0:0:
258,71,12368,5,0,0:0:0:0:
202,82,12396,5,0,0:0:0:0:
258,71,12420,5,0,0:0:0:0:
202,82,12447,5,0,0:0:0:0:
258,71,12472,1,0,0:0:0:0:
202,82,12499,5,0,0:0:0:0:
258,71,12524,1,0,0:0:0:0:
202,82,12551,5,0,0:0:0:0:
258,71,12576,1,0,0:0:0:0:
202,82,12601,5,0,0:0:0:0:
258,71,12628,1,0,0:0:0:0:
202,82,12653,5,0,0:0:0:0:
258,71,12680,1,0,0:0:0:0:
202,82,12704,5,0,0:0:0:0:
258,71,12732,1,0,0:0:0:0:
202,82,12756,5,0,0:0:0:0:
202,82,12784,1,0,0:0:0:0:
202,82,12807,5,0,0:0:0:0:
202,82,12836,1,0,0:0:0:0:
202,82,12859,5,0,0:0:0:0:
202,82,12889,1,0,0:0:0:0:
202,82,12912,5,0,0:0:0:0:
202,82,12941,1,0,0:0:0:0:
209,91,12964,5,0,0:0:0:0:
258,73,12993,1,0,0:0:0:0:
209,91,13016,5,0,0:0:0:0:
258,73,13045,1,0,0:0:0:0:
168,106,13068,1,0,0:0:0:0:
256,84,13097,5,0,0:0:0:0:
168,106,13120,1,0,0:0:0:0:
256,84,13149,5,0,0:0:0:0:
168,106,13172,1,0,0:0:0:0:
256,84,13201,5,0,0:0:0:0:
168,106,13223,1,0,0:0:0:0:
256,84,13253,5,0,0:0:0:0:
168,106,13278,1,0,0:0:0:0:
256,84,13305,5,0,0:0:0:0:
168,106,13330,1,0,0:0:0:0:
256,84,13357,5,0,0:0:0:0:
168,106,13382,1,0,0:0:0:0:
256,84,13409,5,0,0:0:0:0:
168,106,13436,1,0,0:0:0:0:
256,84,13461,5,0,0:0:0:0:
168,106,13488,1,0,0:0:0:0:
256,84,13513,5,0,0:0:0:0:
168,106,13541,1,0,0:0:0:0:
256,84,13565,1,0,0:0:0:0:
168,106,13591,1,0,0:0:0:0:
256,84,13619,5,0,0:0:0:0:
168,106,13643,1,0,0:0:0:0:
256,84,13670,5,0,0:0:0:0:
168,106,13695,1,0,0:0:0:0:
256,84,13722,5,0,0:0:0:0:
168,106,13748,1,0,0:0:0:0:
256,84,13774,5,0,0:0:0:0:
168,106,13800,1,0,0:0:0:0:
256,84,13826,5,0,0:0:0:0:
168,106,13852,1,0,0:0:0:0:
256,84,13878,5,0,0:0:0:0:
168,106,13904,1,0,0:0:0:0:
256,84,13930,5,0,0:0:0:0:
168,106,13956,1,0,0:0:0:0:
256,84,13982,5,0,0:0:0:0:
168,106,14008,1,0,0:0:0:0:
256,84,14034,5,0,0:0:0:0:
168,106,14060,1,0,0:0:0:0:
256,84,14086,5,0,0:0:0:0:
