osu file format v14

[General]
AudioFilename: audio.mp3
AudioLeadIn: 0
PreviewTime: -1
Countdown: 1
SampleSet: Normal
StackLeniency: 0.7
Mode: 0
LetterboxInBreaks: 0
WidescreenStoryboard: 0

[Editor]
DistanceSpacing: 1
BeatDivisor: 4
GridSize: 4
TimelineZoom: 3.150002

[Metadata]
Title:Hamoods 7th child of the Sun (And India)
TitleUnicode:Hamoods 7th child of the Sun (And India)
Artist:Unknown Artist
ArtistUnicode:Unknown Artist
Creator:mithew
Version:An Ode To Hamood
Source:
Tags:
BeatmapID:1308446
BeatmapSetID:620679

[Difficulty]
HPDrainRate:5
CircleSize:4
OverallDifficulty:8
ApproachRate:9
SliderMultiplier:1.4
SliderTickRate:1

[Events]
//Background and Video events
0,0,"unknown.png",0,0
//Break Periods
//Storyboard Layer 0 (Background)
//Storyboard Layer 1 (Fail)
//Storyboard Layer 2 (Pass)
//Storyboard Layer 3 (Foreground)
//Storyboard Sound Samples

[TimingPoints]
507.946308724832,375,4,1,0,60,1,0
3132,345.490769638271,4,1,0,60,1,0
3628,345.490769638271,4,1,0,60,1,0
3930,345.490769638271,4,1,0,60,1,0
4145,345.490769638271,4,1,0,60,1,0
4447,345.490769638271,4,1,0,60,1,0
5159,345.490769638271,4,1,0,60,1,0
5849,292.682926829268,4,1,0,60,1,0
6326,340.909090909091,4,1,0,60,1,0
6496,272.727272727273,4,1,0,60,1,0
7177,318.826086956522,4,1,0,60,1,0
7495,318.826086956522,4,1,0,60,1,0
7634,318.826086956522,4,1,0,60,1,0
7853,318.826086956522,4,1,0,60,1,0
8490,285.714285714286,4,1,0,60,1,0
8597,302.714285714286,4,1,0,60,1,0
10205,314.714285714286,4,1,0,60,1,0
10401,314.714285714286,4,1,0,60,1,0
10499,314.714285714286,4,1,0,60,1,0
10794,314.714285714286,4,1,0,60,1,0
11608,336.814285714286,4,1,0,60,1,0
13150,336.814285714286,4,1,0,60,1,0
13852,336.814285714286,4,1,0,60,1,0
14571,336.814285714286,4,1,0,60,1,0
14697,336.814285714286,4,1,0,60,1,0
15749,336.814285714286,4,1,0,60,1,0

[HitObjects]
132,128,507,5,0,0:0:0:0:
274,58,695,1,0,0:0:0:0:
97,130,1445,5,0,0:0:0:0:
251,162,1633,1,0,0:0:0:0:
97,130,2289,5,0,0:0:0:0:
251,162,2477,1,0,0:0:0:0:
135,326,3132,5,0,0:0:0:0:
296,261,3304,1,0,0:0:0:0:
296,261,3391,1,0,0:0:0:0:
296,261,3477,1,0,0:0:0:0:
170,52,3628,1,0,0:0:0:0:
126,223,3800,1,0,0:0:0:0:
165,71,3930,1,0,0:0:0:0:
286,174,4145,1,0,0:0:0:0:
286,174,4448,1,0,0:0:0:0:
91,147,4620,1,0,0:0:0:0:
91,147,4707,1,0,0:0:0:0:
91,147,4793,1,0,0:0:0:0:
304,50,4966,1,0,0:0:0:0:
308,301,5159,1,0,0:0:0:0:
302,54,5849,5,0,0:0:0:0:
141,119,5995,1,0,0:0:0:0:
141,119,6068,1,0,0:0:0:0:
141,119,6141,1,0,0:0:0:0:
267,328,6326,1,0,0:0:0:0:
311,157,6496,1,0,0:0:0:0:
272,309,6632,1,0,0:0:0:0:
151,206,6836,1,0,0:0:0:0:
151,206,7177,1,0,0:0:0:0:
346,233,7337,1,0,0:0:0:0:
346,233,7416,1,0,0:0:0:0:
346,233,7495,1,0,0:0:0:0:
133,330,7634,1,0,0:0:0:0:
129,79,7853,1,0,0:0:0:0:
346,130,8490,5,0,0:0:0:0:
91,100,8597,1,0,0:0:0:0:
414,132,9353,5,0,0:0:0:0:
162,182,9505,1,0,0:0:0:0:
54,0,10205,5,0,0:0:0:0:
19,181,10401,1,0,0:0:0:0:
15,198,10499,2,0,L|24:296,1,70
163,165,10794,1,0,0:0:0:0:
9,100,10951,1,0,0:0:0:0:
35,350,11148,1,0,0:0:0:0:
362,351,11608,5,0,0:0:0:0:
247,319,11776,1,0,0:0:0:0:
261,269,11860,1,0,0:0:0:0:
296,230,11944,1,0,0:0:0:0:
344,210,12028,1,0,0:0:0:0:
396,213,12112,1,0,0:0:0:0:
144,227,12281,1,0,0:0:0:0:
345,302,12450,1,0,0:0:0:0:
345,302,12723,1,0,0:0:0:0:
60,231,12955,5,0,0:0:0:0:
122,78,13150,1,0,0:0:0:0:
227,213,13276,2,0,L|239:240,1,17.5
30,143,13486,1,0,0:0:0:0:
30,143,13655,1,0,0:0:0:0:
278,65,13852,6,0,L|295:163,1,70
338,135,14104,2,0,L|321:233,1,70
306,297,14357,1,0,0:0:0:0:
366,39,14571,5,0,0:0:0:0:
488,141,14697,1,0,0:0:0:0:
488,141,14781,1,0,0:0:0:0:
488,141,14865,1,0,0:0:0:0:
326,203,15033,1,0,0:0:0:0:
463,61,15202,1,0,0:0:0:0:
151,89,15749,5,0,0:0:0:0:
310,159,15917,1,0,0:0:0:0:
221,224,16085,1,0,0:0:0:0:
441,141,16254,5,0,0:0:0:0:
128,82,16422,1,0,0:0:0:0:
430,278,16591,1,0,0:0:0:0:
256,192,16759,12,0,21980,0:0:0:0:
