osu file format v14

[General]
AudioFilename: audio.mp3
AudioLeadIn: 0
PreviewTime: 111
Countdown: 0
SampleSet: None
StackLeniency: 0.7
Mode: 1
LetterboxInBreaks: 0
WidescreenStoryboard: 1

[Editor]
DistanceSpacing: 1
BeatDivisor: 2
GridSize: 32
TimelineZoom: 0.9

[Metadata]
Title:Dr. Amigo Family Clinic Jingle
TitleUnicode:Dr. Amigo Family Clinic Jingle
Artist:Unknown Artist
ArtistUnicode:Unknown Artist
Creator:Midnaait
Version:Dr. Futsuu
Source:
Tags:Doctor Mario Spanish Commercial
BeatmapID:2006259
BeatmapSetID:958198

[Difficulty]
HPDrainRate:9
CircleSize:5
OverallDifficulty:4
ApproachRate:5
SliderMultiplier:1.4
SliderTickRate:1

[Events]
//Background and Video events
0,0,"13-1.jpg",0,0
//Break Periods
//Storyboard Layer 0 (Background)
//Storyboard Layer 1 (Fail)
//Storyboard Layer 2 (Pass)
//Storyboard Layer 3 (Foreground)
//Storyboard Sound Samples

[TimingPoints]
111,428.571428571429,4,1,0,40,1,0
6968,-100,4,1,0,40,0,1
13825,-100,4,1,0,40,0,0

[HitObjects]
207,172,111,5,0,0:0:0:0:
207,172,325,1,0,0:0:0:0:
207,172,753,1,0,0:0:0:0:
207,172,1825,1,8,0:0:0:0:
207,172,2039,1,8,0:0:0:0:
207,172,2468,1,8,0:0:0:0:
207,172,3539,1,0,0:0:0:0:
207,172,3753,1,0,0:0:0:0:
207,172,4182,1,0,0:0:0:0:
207,172,5253,1,8,0:0:0:0:
207,172,5468,1,8,0:0:0:0:
207,172,5896,1,8,0:0:0:0:
207,172,6325,1,0,0:0:0:0:
207,172,6539,1,0,0:0:0:0:
207,172,6968,1,4,0:0:0:0:
201,173,8039,1,0,0:0:0:0:
201,173,8253,1,8,0:0:0:0:
201,173,8682,1,0,0:0:0:0:
201,173,9325,1,0,0:0:0:0:
201,173,9753,1,8,0:0:0:0:
201,173,9968,1,8,0:0:0:0:
201,173,10396,1,0,0:0:0:0:
201,173,11039,1,0,0:0:0:0:
201,173,11468,1,8,0:0:0:0:
201,173,11682,1,0,0:0:0:0:
201,173,12111,1,0,0:0:0:0:
201,173,12325,1,8,0:0:0:0:
201,173,12753,1,0,0:0:0:0:
201,173,13182,1,8,0:0:0:0:
201,173,13825,1,8,0:0:0:0:
201,173,14039,1,8,0:0:0:0:
201,173,14468,1,0,0:0:0:0:
201,173,15539,1,0,0:0:0:0:
201,173,15753,1,0,0:0:0:0:
201,173,16182,1,8,0:0:0:0:
201,173,17253,1,8,0:0:0:0:
201,173,17468,1,8,0:0:0:0:
201,173,17896,1,0,0:0:0:0:
201,173,18325,1,0,0:0:0:0:
201,173,18968,1,0,0:0:0:0:
201,173,19182,1,0,0:0:0:0:
201,173,19611,1,8,0:0:0:0:
201,173,20039,1,8,0:0:0:0:
201,173,20682,1,8,0:0:0:0:
201,173,20896,1,8,0:0:0:0:
201,173,21325,1,0,0:0:0:0:
201,173,22396,1,0,0:0:0:0:
201,173,22611,1,0,0:0:0:0:
201,173,23039,1,8,0:0:0:0:
201,173,24111,1,8,0:0:0:0:
201,173,24325,1,8,0:0:0:0:
201,173,24753,1,0,0:0:0:0:
201,173,25182,1,0,0:0:0:0:
161,170,25396,1,8,0:0:0:0:
191,170,25825,1,8,0:0:0:0:
201,173,26039,1,0,0:0:0:0:
194,167,26468,1,8,0:0:0:0:
201,173,27539,1,8,0:0:0:0:
201,173,27753,1,8,0:0:0:0:
201,173,28182,1,0,0:0:0:0:
201,173,28611,1,8,0:0:0:0:
187,168,28825,1,8,0:0:0:0:
201,173,29039,1,0,0:0:0:0:
201,173,29253,1,0,0:0:0:0:
201,173,29468,1,8,0:0:0:0:
201,173,29896,1,4,0:0:0:0:
201,173,30325,1,4,0:0:0:0:
