osu file format v14

[General]
AudioFilename: audio.mp3
AudioLeadIn: 0
PreviewTime: -1
Countdown: 0
SampleSet: Soft
StackLeniency: 1
Mode: 0
LetterboxInBreaks: 0
WidescreenStoryboard: 1

[Editor]
DistanceSpacing: 0.5
BeatDivisor: 4
GridSize: 4
TimelineZoom: 1

[Metadata]
Title:Athletic Set
TitleUnicode:Athletic Set
Artist:Unknown Artist
ArtistUnicode:Unknown Artist
Creator:Preston
Version:Insane
Source:
Tags:
BeatmapID:1146811
BeatmapSetID:540813

[Difficulty]
HPDrainRate:7
CircleSize:4.5
OverallDifficulty:8
ApproachRate:9
SliderMultiplier:2.59999990463257
SliderTickRate:1

[Events]
//Background and Video events
Video,0,"Athletic Set.mp4"
0,0,"maxresdefault.jpg",0,0
//Break Periods
//Storyboard Layer 0 (Background)
//Storyboard Layer 1 (Fail)
//Storyboard Layer 2 (Pass)
//Storyboard Layer 3 (Foreground)
//Storyboard Sound Samples

[TimingPoints]
4909,451.130188679245,4,2,0,100,1,0
8518,-100,4,2,0,100,0,1
11224,-200,4,2,0,100,0,1
13029,-100,4,2,0,100,0,1
13931,-133.333333333333,4,2,0,100,0,1
14382,-100,4,2,0,100,0,1
14833,-200,4,2,0,100,0,1
18442,-133.333333333333,4,2,0,100,0,1
21149,-133.333333333333,4,2,0,100,0,0
22954,-133.333333333333,4,2,0,100,0,1
25660,-200,4,2,0,100,0,1
30172,-100,4,2,0,100,0,1
32879,-200,4,2,0,100,0,1
32979,-100,4,2,0,100,0,1
37390,-200,4,2,0,100,0,0
48217,-100,4,2,0,100,0,1
51149,-100,4,2,0,100,0,0

[Colours]
Combo1 : 96,96,96
Combo2 : 0,128,255
Combo3 : 255,0,0
Combo4 : 255,255,0
Combo5 : 0,255,0

[HitObjects]
144,296,4909,5,0,0:0:0:0:
280,72,5585,1,0,0:0:0:0:
336,224,5811,1,0,0:0:0:0:
144,180,6487,5,0,0:0:0:0:
340,72,6713,1,0,0:0:0:0:
260,260,7390,5,0,0:0:0:0:
204,56,7615,1,0,0:0:0:0:
348,152,7841,5,0,0:0:0:0:
364,172,7954,2,0,B|376:244|376:244|360:304,1,129.999995231629
284,232,8292,1,0,0:0:0:0:
192,112,8518,6,0,P|140:60|64:124,1,129.999995231629
208,188,8857,1,0,0:0:0:0:
216,176,8969,2,0,P|268:124|344:188,1,129.999995231629
148,272,9307,1,0,0:0:0:0:
144,252,9420,2,0,P|92:200|16:264,1,129.999995231629
92,104,9758,1,0,0:0:0:0:
112,104,9871,1,0,0:0:0:0:
240,8,10096,1,0,0:0:0:0:
388,128,10322,6,0,B|412:192|456:212|456:212|408:276,1,146.250000214577
316,268,10773,2,0,B|284:216|304:176|304:176|348:196,1,129.999995231629
412,328,11224,2,0,P|412:264|468:248,1,129.999995231629
248,320,11901,5,0,0:0:0:0:
184,144,12127,1,0,0:0:0:0:
164,312,12352,1,0,0:0:0:0:
260,168,12578,1,0,0:0:0:0:
112,216,12803,1,0,0:0:0:0:
268,244,13029,2,0,B|292:284|276:332|276:332|244:296,1,129.999995231629
232,288,13367,1,0,0:0:0:0:
148,200,13593,1,0,0:0:0:0:
144,184,13706,1,0,0:0:0:0:
252,56,13931,6,0,L|232:172,1,97.5000001430512
292,68,14382,6,0,L|272:216,1,129.999995231629
300,200,14833,6,0,B|340:244|308:296|308:296|260:256,1,129.999995231629
176,176,15510,1,0,0:0:0:0:
240,56,15736,5,0,0:0:0:0:
416,160,15961,1,0,0:0:0:0:
296,16,16187,1,0,0:0:0:0:
280,232,16412,1,0,0:0:0:0:
172,312,16638,1,0,0:0:0:0:
108,240,16863,1,0,0:0:0:0:
84,248,16976,1,0,0:0:0:0:
220,244,17202,1,0,0:0:0:0:
240,256,17315,1,0,0:0:0:0:
344,176,17540,5,0,0:0:0:0:
184,144,17766,1,0,0:0:0:0:
312,36,17991,1,0,0:0:0:0:
320,208,18217,1,0,0:0:0:0:
196,112,18442,2,0,P|153:80|111:179,1,195.000000286102
264,224,19119,1,0,0:0:0:0:
192,336,19345,5,0,0:0:0:0:
56,220,19570,1,0,0:0:0:0:
96,344,19796,1,0,0:0:0:0:
192,208,20021,1,0,0:0:0:0:
112,180,20247,2,0,B|84:136|84:136|112:80,1,97.4999964237214
124,80,20698,1,0,0:0:0:0:
280,172,20924,1,0,0:0:0:0:
256,192,21149,12,0,22728,0:0:0:0:
352,68,22954,5,0,0:0:0:0:
384,304,23179,1,0,0:0:0:0:
260,80,23405,1,0,0:0:0:0:
300,268,23630,1,0,0:0:0:0:
172,92,23856,1,0,0:0:0:0:
200,236,24082,2,0,B|152:224|124:248|124:248|168:276,1,97.5000001430512
160,292,24420,1,0,0:0:0:0:
172,308,24532,1,0,0:0:0:0:
316,132,24758,6,0,P|360:168|396:160,1,97.5000001430512
220,172,25097,1,0,0:0:0:0:
220,192,25209,2,0,P|176:228|140:220,1,97.5000001430512
316,252,25548,1,0,0:0:0:0:
316,272,25660,2,0,P|356:320|432:308,1,129.999995231629
132,64,26337,5,0,0:0:0:0:
148,252,26563,1,0,0:0:0:0:
264,136,26788,1,0,0:0:0:0:
76,128,27014,1,0,0:0:0:0:
236,240,27239,1,0,0:0:0:0:
152,64,27465,1,0,0:0:0:0:
252,96,27691,1,0,0:0:0:0:
252,96,27803,1,0,0:0:0:0:
200,192,28029,1,0,0:0:0:0:
200,192,28142,1,0,0:0:0:0:
296,184,28367,5,0,0:0:0:0:
448,312,28593,1,0,0:0:0:0:
404,144,28818,1,0,0:0:0:0:
308,300,29044,1,0,0:0:0:0:
492,208,29270,2,0,B|524:248|500:292|500:292|468:264,1,129.999995231629
304,184,29946,1,0,0:0:0:0:
60,80,30172,6,0,P|67:145|126:171,1,129.999995231629
168,116,30510,1,0,0:0:0:0:
176,132,30623,2,0,P|179:200|131:235,1,129.999995231629
68,200,30961,1,0,0:0:0:0:
68,224,31074,2,0,P|92:284|156:293,1,129.999995231629
144,364,31412,1,0,0:0:0:0:
168,364,31525,1,0,0:0:0:0:
264,152,31751,5,0,0:0:0:0:
416,292,31977,1,0,0:0:0:0:
372,108,32202,1,0,0:0:0:0:
256,272,32428,1,0,0:0:0:0:
452,208,32653,1,0,0:0:0:0:
240,172,32879,2,0,B|188:160|152:184|152:184|204:220,1,129.999995231629
136,72,33555,1,0,0:0:0:0:
312,196,33781,5,0,0:0:0:0:
432,240,34006,1,0,0:0:0:0:
384,364,34232,1,0,0:0:0:0:
268,308,34458,1,0,0:0:0:0:
332,188,34683,1,0,0:0:0:0:
364,312,34909,1,0,0:0:0:0:
232,336,35134,1,0,0:0:0:0:
208,204,35360,1,0,0:0:0:0:
256,192,35585,12,0,37164,0:0:0:0:
152,156,37390,5,0,0:0:0:0:
164,136,37503,2,0,L|164:100,1,32.4999988079071
232,64,37728,1,0,0:0:0:0:
244,84,37841,2,0,L|292:84,1,32.4999988079071
264,156,38067,1,0,0:0:0:0:
256,180,38179,2,0,L|256:212,1,32.4999988079071
288,272,38405,1,0,0:0:0:0:
304,288,38518,2,0,L|336:288,1,32.4999988079071
416,272,38743,1,0,0:0:0:0:
444,152,38969,1,0,0:0:0:0:
352,152,39194,5,0,0:0:0:0:
332,128,39307,2,0,L|296:128,1,32.4999988079071
224,64,39533,1,0,0:0:0:0:
204,88,39645,2,0,L|204:128,1,32.4999988079071
164,192,39871,1,0,0:0:0:0:
144,208,39984,2,0,B|56:208|56:208|0:272,1,162.499994039536
320,216,40999,5,0,0:0:0:0:
336,192,41112,2,0,L|336:160,1,32.4999988079071
412,192,41337,1,0,0:0:0:0:
432,216,41450,2,0,L|432:248,1,32.4999988079071
360,316,41676,1,0,0:0:0:0:
336,292,41788,2,0,L|304:292,1,32.4999988079071
220,296,42014,1,0,0:0:0:0:
200,320,42127,2,0,L|152:320,1,32.4999988079071
72,268,42352,1,0,0:0:0:0:
192,180,42578,1,0,0:0:0:0:
276,88,42803,5,0,0:0:0:0:
296,112,42916,2,0,L|328:112,1,32.4999988079071
400,164,43142,1,0,0:0:0:0:
380,188,43255,2,0,L|348:188,1,32.4999988079071
272,232,43480,1,0,0:0:0:0:
292,256,43593,2,0,L|456:256,1,162.499994039536
312,144,44608,5,0,0:0:0:0:
296,160,44721,2,0,L|260:160,1,32.4999988079071
184,72,44946,1,0,0:0:0:0:
168,92,45059,2,0,L|168:140,1,32.4999988079071
172,208,45285,1,0,0:0:0:0:
156,224,45397,2,0,L|120:224,1,32.4999988079071
80,288,45623,1,0,0:0:0:0:
88,308,45736,2,0,L|88:344,1,32.4999988079071
176,308,45961,1,0,0:0:0:0:
324,292,46187,5,0,0:0:0:0:
340,272,46300,1,0,0:0:0:0:
356,252,46412,2,0,L|356:208,1,32.4999988079071
284,160,46638,1,0,0:0:0:0:
260,140,46751,2,0,L|224:140,1,32.4999988079071
140,112,46976,1,0,0:0:0:0:
120,132,47089,2,0,L|120:184,1,32.4999988079071
224,272,48217,6,0,P|176:220|100:204,1,129.999995231629
116,164,48555,1,0,0:0:0:0:
128,140,48668,2,0,L|164:8,1,129.999995231629
288,184,49119,2,0,P|344:228|376:280,1,129.999995231629
436,136,49458,1,0,0:0:0:0:
432,160,49570,2,0,P|392:219|377:278,1,129.999995231629
232,52,50022,6,0,B|184:96|184:96|168:180,1,129.999995231629
64,72,50360,1,0,0:0:0:0:
64,99,50473,2,0,B|108:147|108:147|192:163,1,129.999995231629
256,228,50924,1,0,0:0:0:0:
256,228,51149,2,0,B|308:296|224:332|144:260|244:204|244:108,1,259.999990463257
