osu file format v14

[General]
AudioFilename: audio.mp3
AudioLeadIn: 0
PreviewTime: -1
Countdown: 0
SampleSet: None
StackLeniency: 0.2
Mode: 0
LetterboxInBreaks: 0
WidescreenStoryboard: 0

[Editor]
DistanceSpacing: 1
BeatDivisor: 4
GridSize: 4
TimelineZoom: 1.4

[Metadata]
Title:The Crackhead Bop
TitleUnicode:The Crackhead Bop
Artist:Unknown
ArtistUnicode:Unknown
Creator:Bakugou
Version:SLAP TALK
Source:
Tags:
BeatmapID:1965709
BeatmapSetID:941280

[Difficulty]
HPDrainRate:6
CircleSize:5
OverallDifficulty:8
ApproachRate:9.4
SliderMultiplier:1.6
SliderTickRate:1

[Events]
//Background and Video events
0,0,"crackhead bop.jpg",0,0
Video,0,"The Crackhead bop.mp4"
//Break Periods
//Storyboard Layer 0 (Background)
//Storyboard Layer 1 (Fail)
//Storyboard Layer 2 (Pass)
//Storyboard Layer 3 (Foreground)
//Storyboard Sound Samples

[TimingPoints]
371.652173913044,428.571428571429,4,1,0,100,1,0
3371,-80,4,1,0,100,0,0
3800,-50,4,1,0,100,0,0
7228,413.793103448276,4,1,0,100,1,0
7228,-50,4,1,0,100,0,0
10538,419.58041958042,4,1,0,100,1,0
10538,-50,4,1,0,100,0,0
12216,422.535211267606,4,1,0,100,1,0
12216,-50,4,1,0,100,0,0
13906,422.535211267606,4,1,0,100,1,0
13906,-50,4,1,0,100,0,0
16863,419.58041958042,4,1,0,100,1,1
16863,-33.3333333333333,4,1,0,100,0,1
18646,419.58041958042,4,1,0,100,1,1
18646,-33.3333333333333,4,1,0,100,0,1
20324,421.052631578947,4,1,0,100,1,1
20324,-40,4,1,0,100,0,1
21902,419.58041958042,4,1,0,100,1,1
21902,-33.3333333333333,4,1,0,100,0,1
23475,419.58041958042,4,1,0,100,1,1
23475,-50,4,1,0,100,0,1
27251,-33.3333333333333,4,1,0,100,0,1
27670,-50,4,1,0,100,0,1
29349,-100,4,1,0,100,0,0

[HitObjects]
103,92,371,5,0,0:0:0:0:
235,123,585,1,0,0:0:0:0:
56,169,800,1,0,0:0:0:0:
113,75,1014,1,0,0:0:0:0:
265,196,1228,2,0,L|173:210,1,80
48,98,1657,1,0,0:0:0:0:
163,142,1871,1,0,0:0:0:0:
68,248,2085,6,0,L|54:156,1,80
237,44,2514,1,0,0:0:0:0:
156,160,2728,1,0,0:0:0:0:
137,14,2942,1,0,0:0:0:0:
249,187,3157,2,0,L|243:147,1,40
116,101,3371,2,0,B|200:69|200:141|283:95,1,150
330,69,3800,6,0,P|390:63|343:209,1,240
225,333,4228,2,0,L|242:207,1,80
369,138,4443,2,0,L|379:217,1,80
297,306,4657,6,0,L|330:57,1,240
73,90,5085,2,0,P|79:132|119:171,1,80
232,105,5300,2,0,P|227:65|203:34,1,80
201,334,5514,6,0,B|201:233|201:233|232:192|232:192|232:84,1,240
22,172,5943,2,0,L|128:156,1,80
282,46,6157,2,0,L|176:30,1,80
29,199,6371,6,0,L|331:153,1,240
337,302,6800,2,0,P|357:181|236:187,1,240
192,357,7228,6,0,L|226:103,1,240
358,15,7641,2,0,L|368:94,1,80
191,196,7848,2,0,L|201:116,1,80
435,122,8055,6,0,B|317:167|317:79|182:122,1,240
116,0,8469,2,0,P|93:103|225:73,1,240
284,234,8883,6,0,P|305:129|199:116,1,240
115,235,9296,2,0,L|125:314,1,80
189,195,9503,2,0,L|199:115,1,80
69,82,9710,6,0,L|104:344,1,240
207,70,10124,2,0,B|170:50|170:50|126:45,1,80
189,195,10331,2,0,B|224:172|224:172|251:137,1,80
302,56,10538,6,0,B|276:94|276:94|276:291,1,240
306,355,10957,2,0,L|306:240,1,80
394,147,11167,2,0,L|394:227,1,80
418,384,11377,6,0,L|418:143,1,240
226,156,11796,2,0,L|310:214,1,80
374,21,12006,2,0,L|281:64,1,80
322,288,12216,6,0,B|322:85|322:85|280:25,1,240
147,142,12638,2,0,L|256:160,1,80
322,288,12849,2,0,L|213:306,1,80
78,277,13061,6,0,B|49:206|38:128|72:79|143:100|167:146|151:197,1,240
243,301,13483,2,0,B|226:276|226:276|226:205,1,80
129,66,13694,2,0,B|146:91|146:91|146:162,1,80
261,302,13906,6,0,B|244:277|244:277|244:61,1,240
477,111,14328,2,0,P|471:153|431:192,1,80
317,125,14543,2,0,P|321:85|345:54,1,80
463,189,14751,6,0,P|314:189|307:88,1,240
263,54,15173,2,0,B|285:80|285:80|303:159,1,80
123,39,15384,2,0,B|154:26|154:26|235:33,1,80
137,250,15596,6,0,B|99:213|99:213|108:140|108:140|96:66|96:66|141:20,1,240
263,54,16018,6,0,L|255:154,1,80
389,284,16229,2,0,L|382:204,1,80
256,133,16441,2,0,L|264:233,1,80
130,363,16652,2,0,L|136:283,1,80
83,75,16863,6,0,B|192:77|264:55|264:55|277:85|277:85|357:58|443:64,1,360.000013732911
423,78,17282,2,0,B|360:73|280:100|280:100|267:70|267:70|195:92|86:90,1,360.000013732911
83,75,17702,2,0,L|87:135,1,60.0000022888184
146,304,18646,6,0,P|306:306|235:117,1,360.000013732911
308,136,19065,2,0,P|315:312|138:311,1,360.000013732911
146,304,19485,2,0,L|150:245,1,60.0000022888184
73,129,20324,6,0,B|232:69|232:193|377:125,1,300
464,280,20745,2,0,P|506:172|333:175,1,300
188,303,21166,6,0,B|261:280|261:280|294:250,1,100
141,112,21376,2,0,B|124:186|124:186|133:230,1,100
329,166,21587,2,0,B|272:114|272:114|230:100,1,100
141,112,21797,1,0,0:0:0:0:
84,384,21902,6,0,P|109:272|34:42,1,360.000013732911
66,35,22321,2,0,P|136:198|114:374,1,360.000013732911
84,384,22741,1,0,0:0:0:0:
248,89,23475,6,0,L|238:199,1,80
360,295,23684,2,0,L|352:215,1,80
225,88,23894,2,0,L|200:356,1,240
199,366,24314,2,0,L|202:326,1,40
304,95,25153,6,0,L|194:85,1,80
98,207,25362,2,0,L|177:199,1,80
305,72,25572,2,0,L|36:47,1,240
27,46,25992,2,0,L|66:49,1,40
393,183,26831,6,0,P|363:289|249:247,1,240
269,128,27251,2,0,P|219:246|419:255,1,360.000013732911
474,23,27670,6,0,B|470:66|470:66|440:115,1,80
393,183,27880,1,0,0:0:0:0:
492,334,28090,6,0,B|456:309|456:309|429:258,1,80
393,183,28300,1,0,0:0:0:0:
278,154,28509,6,0,P|397:121|377:198,1,240
309,308,28929,2,0,B|281:234|281:234|277:129,1,160
256,50,29349,5,0,0:0:0:0:
256,50,29375,2,0,L|255:81,1,20
256,192,29558,12,0,38579,0:0:0:0:
