osu file format v14

[General]
AudioFilename: audio.mp3
AudioLeadIn: 0
PreviewTime: 102598
Countdown: 0
SampleSet: Normal
StackLeniency: 0.7
Mode: 0
LetterboxInBreaks: 0
WidescreenStoryboard: 1

[Editor]
DistanceSpacing: 3.8
BeatDivisor: 4
GridSize: 8
TimelineZoom: 2.200006

[Metadata]
Title:打屁♂鼓 (HandClap Right Version)
TitleUnicode:打屁♂鼓
Artist:Unknown
ArtistUnicode:Unknown
Creator:zPeanut
Version:HYDRA HandsUp
Source:
Tags:
BeatmapID:1761413
BeatmapSetID:820198

[Difficulty]
HPDrainRate:5
CircleSize:4
OverallDifficulty:8
ApproachRate:9
SliderMultiplier:1.55
SliderTickRate:1

[Events]
//Background and Video events
0,0,"1600x1200-72c5d7c95838019e3f4d52640c30a8e0.jpg",0,0
//Break Periods
//Storyboard Layer 0 (Background)
//Storyboard Layer 1 (Fail)
//Storyboard Layer 2 (Pass)
//Storyboard Layer 3 (Foreground)
//Storyboard Sound Samples

[TimingPoints]
115,428.571428571429,4,1,0,70,1,0
27543,-200,4,1,0,70,0,0
29257,-100,4,1,0,70,0,0
32686,-100,4,1,0,100,0,0
33543,-100,4,1,0,70,0,0
36115,-100,4,1,0,100,0,0
36972,-100,4,1,0,70,0,0
51329,-200,4,1,0,70,0,0
52186,-100,4,1,0,70,0,0
56703,-100,4,1,0,100,0,0
57560,-100,4,1,0,70,0,0
60024,-100,4,1,0,100,0,0
61100,-100,4,1,0,70,0,0
64027,428.571428571429,4,1,0,100,1,0
64829,-76.9230769230769,4,1,0,100,0,1
78543,-100,4,1,0,100,0,0
95098,-25,4,1,0,100,0,0
95634,-100,4,1,0,70,0,0
97348,-100,4,1,0,100,0,0
98419,-100,4,1,0,70,0,0
100777,-100,4,1,0,100,0,0
101848,-100,4,1,0,70,0,0
102593,440.366972477064,4,2,0,80,1,0
109701,440.366972477064,4,2,0,20,1,0
113215,-100,4,2,0,30,0,0
116738,-100,4,2,0,40,0,0
117619,-100,4,2,0,50,0,0
118500,-100,4,2,0,60,0,0
119381,-100,4,2,0,80,0,0
121913,-100,4,2,0,40,0,0
123683,428.571428571429,4,1,0,100,1,1
130435,-100,4,1,0,100,0,1
130649,-100,4,1,0,70,0,1
137292,-100,4,1,0,100,0,1
137506,-100,4,1,0,70,0,1
151113,-100,4,1,0,100,0,0

[Colours]
Combo1 : 28,89,89
Combo2 : 128,255,255
Combo3 : 0,49,85
Combo4 : 255,255,255
Combo5 : 16,159,171

[HitObjects]
79,251,13829,22,0,P|85:185|106:153,1,77.5
143,111,14257,1,0,0:0:0:0:
186,193,14472,1,0,0:0:0:0:
256,141,14686,6,0,P|271:195|266:246,1,77.5
186,193,15115,2,0,P|188:231|201:268,1,77.5
283,293,15543,5,0,0:0:0:0:
392,242,15757,1,0,0:0:0:0:
364,317,15972,5,0,0:0:0:0:
457,197,16186,1,0,0:0:0:0:
459,77,16400,6,0,L|424:97,1,38.75
390,102,16615,2,0,L|356:82,1,38.75
330,83,16829,2,0,L|295:103,1,38.75
261,108,17044,2,0,P|199:89|168:96,1,77.5
85,73,17472,5,0,0:0:0:0:
48,161,17686,1,0,0:0:0:0:
138,142,17900,2,0,P|133:194|114:225,1,77.5
121,215,18329,5,0,0:0:0:0:
240,255,18543,1,0,0:0:0:0:
151,321,18757,1,0,0:0:0:0:
319,282,18972,6,0,P|319:242|290:198,1,77.5
222,229,19400,2,0,P|221:190|238:156,1,77.5
304,99,19829,5,0,0:0:0:0:
356,165,20043,1,0,0:0:0:0:
403,97,20257,1,0,0:0:0:0:
455,163,20471,1,0,0:0:0:0:
304,329,20900,6,0,P|266:307|252:273,1,77.5
321,227,21329,1,0,0:0:0:0:
277,158,21543,2,0,L|200:209,1,77.5
131,238,21972,6,0,L|144:152,1,77.5
216,199,22400,2,0,L|227:105,1,77.5
225,122,22722,1,0,0:0:0:0:
225,122,22829,1,0,0:0:0:0:
291,52,23043,6,0,P|326:94|336:127,1,77.5
452,121,23472,5,0,0:0:0:0:
386,239,23686,1,0,0:0:0:0:
270,170,23900,1,0,0:0:0:0:
136,279,24329,6,0,P|129:237|131:191,1,77.5
186,134,24757,1,0,0:0:0:0:
208,225,24972,2,0,P|264:210|314:122,1,155
361,66,25829,2,0,P|399:100|408:232,1,155
330,311,26686,5,0,0:0:0:0:
277,245,26900,1,0,0:0:0:0:
355,207,27115,1,0,0:0:0:0:
292,135,27329,1,0,0:0:0:0:
211,66,27543,6,0,P|189:106|181:137,1,77.5
93,160,28400,2,0,P|117:196|148:216,1,77.5
227,248,29257,2,0,P|230:209|245:174,2,77.5
288,311,29900,1,0,0:0:0:0:
359,250,30115,5,0,0:0:0:0:
319,150,30329,1,0,0:0:0:0:
449,179,30543,1,0,0:0:0:0:
359,250,30757,1,0,0:0:0:0:
248,278,30972,6,0,P|228:236|219:174,1,77.5
299,205,31400,2,0,P|316:170|326:133,1,77.5
244,135,31829,2,0,P|226:100|216:63,1,77.5,0|0,0:0|0:0,0:0:0:0:
296,21,32257,1,0,0:0:0:0:
407,60,32686,5,0,0:0:0:0:
178,162,32900,1,0,0:0:0:0:
367,126,33114,1,0,0:0:0:0:
217,95,33328,1,0,0:0:0:0:
327,193,33543,1,0,0:0:0:0:
257,28,33972,5,0,0:0:0:0:
403,56,34400,6,0,P|403:101|379:140,1,77.5
314,103,34829,2,0,P|312:141|328:176,1,77.5
417,221,35257,2,0,L|327:274,1,77.5
261,226,35686,1,0,0:0:0:0:
171,90,36114,5,0,0:0:0:0:
320,285,36329,1,0,0:0:0:0:
282,63,36543,1,0,0:0:0:0:
187,284,36757,1,0,0:0:0:0:
392,88,36972,1,0,0:0:0:0:
256,192,37400,5,0,0:0:0:0:
113,201,37614,5,0,0:0:0:0:
113,201,37828,2,0,P|117:156|140:103,1,77.5
195,69,38257,2,0,P|206:105|209:144,1,77.5
223,233,38686,5,0,0:0:0:0:
372,160,38900,1,0,0:0:0:0:
325,242,39114,5,0,0:0:0:0:
412,87,39329,1,0,0:0:0:0:
459,220,39543,6,0,P|425:252|387:259,1,77.5
323,222,39972,2,0,P|348:193|385:182,1,77.5
463,131,40400,6,0,L|486:183,1,38.75
478,188,40614,2,0,L|462:223,1,38.75
461,256,40829,2,0,L|484:308,1,38.75
480,320,41043,2,0,L|380:342,1,77.5
365,271,41472,5,0,0:0:0:0:
274,336,41686,1,0,0:0:0:0:
206,265,41900,1,0,0:0:0:0:
280,131,42114,2,0,P|296:170|291:224,1,77.5
206,265,42543,2,0,P|206:226|222:191,1,77.5
280,131,42972,5,0,0:0:0:0:
342,205,43186,1,0,0:0:0:0:
367,108,43400,1,0,0:0:0:0:
222,191,43614,1,0,0:0:0:0:
280,131,43829,6,0,P|271:93|257:57,2,77.5
366,106,44472,1,0,0:0:0:0:
417,293,44900,6,0,P|369:245|325:243,1,77.5
292,300,45329,1,0,0:0:0:0:
246,213,45543,2,0,L|308:137,1,77.5
392,168,45972,5,0,0:0:0:0:
323,48,46186,1,0,0:0:0:0:
294,152,46400,1,0,0:0:0:0:
433,80,46614,1,0,0:0:0:0:
433,80,46722,1,0,0:0:0:0:
433,80,46829,1,0,0:0:0:0:
474,166,47043,6,0,P|469:204|450:254,1,77.5
411,318,47472,1,0,0:0:0:0:
349,224,47686,1,0,0:0:0:0:
290,311,47900,1,0,0:0:0:0:
111,245,48329,6,0,P|120:191|150:141,1,77.5
190,94,48757,1,0,0:0:0:0:
224,207,48972,6,0,P|264:191|312:71,1,155
414,31,49829,2,0,P|454:47|502:167,1,155
469,248,50686,5,0,0:0:0:0:
348,216,50900,1,0,0:0:0:0:
395,311,51114,1,0,0:0:0:0:
457,187,51329,2,0,P|408:156|372:99,1,116.25
328,36,52186,6,0,L|275:124,1,77.5
288,102,52614,1,0,0:0:0:0:
288,102,52829,1,0,0:0:0:0:
119,275,53257,6,0,P|111:237|120:177,1,77.5
196,153,53686,2,0,P|198:191|190:229,1,77.5
230,304,54114,5,0,0:0:0:0:
334,109,54543,1,0,0:0:0:0:
449,125,54972,6,0,P|447:163|433:199,1,77.5
376,257,55400,2,0,P|362:220|360:182,1,77.5
334,109,55829,2,0,L|244:144,1,77.5
239,238,56257,1,0,0:0:0:0:
71,85,56686,5,0,0:0:0:0:
143,248,56900,1,0,0:0:0:0:
143,248,57007,1,0,0:0:0:0:
143,248,57114,1,0,0:0:0:0:
299,68,57329,1,0,0:0:0:0:
401,261,57543,1,0,0:0:0:0:
142,80,57964,5,0,0:0:0:0:
227,248,58400,6,0,P|275:226|300:183,1,77.5
222,171,58829,2,0,P|185:158|158:130,1,77.5
226,94,59257,2,0,P|274:72|299:29,1,77.5
344,130,59686,1,0,0:0:0:0:
226,94,60115,5,0,0:0:0:0:
276,271,60329,1,0,0:0:0:0:
317,48,60543,1,0,0:0:0:0:
186,304,60757,1,0,0:0:0:0:
120,36,60972,1,0,0:0:0:0:
368,281,61392,5,0,0:0:0:0:
256,192,61499,12,0,63749,0:0:0:0:
203,49,64027,6,0,P|174:83|158:121,1,77.5
236,138,64455,2,0,P|219:172|193:201,1,77.5
142,262,64884,5,0,0:0:0:0:
225,342,65098,1,0,0:0:0:0:
333,342,65312,1,0,0:0:0:0:
398,254,65526,1,0,0:0:0:0:
394,147,65741,6,0,L|304:202,1,100.749995388031
304,111,66169,2,0,L|214:166,1,100.749995388031
184,249,66598,5,0,0:0:0:0:
105,131,66812,1,0,0:0:0:0:
96,229,67026,5,0,0:0:0:0:
196,51,67241,1,0,0:0:0:0:
254,132,67455,6,0,P|296:103|331:47,2,100.749995388031
191,218,68098,1,0,0:0:0:0:
122,130,68312,2,0,P|98:176|120:335,1,201.499990776062
216,329,68955,5,0,0:0:0:0:
296,229,69169,1,0,0:0:0:0:
201,141,69384,1,0,0:0:0:0:
280,32,69598,1,0,0:0:0:0:
378,115,69812,1,0,0:0:0:0:
378,115,70026,2,0,P|431:79|457:39,2,100.749995388031
367,210,70669,1,0,0:0:0:0:
277,271,70884,6,0,P|227:262|179:232,1,100.749995388031
99,218,71312,2,0,P|144:168|200:142,1,100.749995388031
256,116,71741,5,0,0:0:0:0:
308,227,71955,1,0,0:0:0:0:
388,139,72169,1,0,0:0:0:0:
335,42,72384,1,0,0:0:0:0:
257,118,72598,6,0,P|251:206|228:251,1,100.749995388031
181,282,73026,2,0,P|168:233|170:183,1,100.749995388031
198,105,73455,5,0,0:0:0:0:
280,45,73669,1,0,0:0:0:0:
333,126,73884,1,0,0:0:0:0:
403,54,74098,1,0,0:0:0:0:
452,149,74312,6,0,P|484:106|500:55,2,100.749995388031
375,228,74955,1,0,0:0:0:0:
298,301,75169,2,0,P|265:235|308:102,1,201.499990776062
380,169,75812,1,0,0:0:0:0:
205,68,76026,1,0,0:0:0:0:
78,287,76455,5,0,0:0:0:0:
115,119,76884,2,0,P|140:176|179:200,1,100.749995388031
270,215,77312,1,0,0:0:0:0:
363,169,77741,6,0,L|392:118,4,50.3749976940156
380,255,78384,1,0,0:0:0:0:
253,307,78812,6,0,P|197:276|178:239,1,77.5
155,169,79241,1,0,0:0:0:0:
245,110,79455,2,0,L|311:179,1,77.5
330,246,79884,2,0,L|407:181,1,77.5
469,160,80312,2,0,L|383:87,1,77.5
380,34,80741,2,0,L|308:103,1,77.5
312,183,81169,5,0,0:0:0:0:
211,98,81384,1,0,0:0:0:0:
201,218,81598,1,0,0:0:0:0:
388,136,81812,1,0,0:0:0:0:
169,302,82241,6,0,P|158:260|168:201,1,77.5
210,154,82669,1,0,0:0:0:0:
246,261,82884,1,0,0:0:0:0:
300,176,83098,6,0,P|351:149|359:103,1,77.5
446,66,83526,2,0,L|435:153,1,77.5
486,232,83955,1,0,0:0:0:0:
432,304,84169,1,0,0:0:0:0:
296,295,84384,6,0,L|266:197,3,77.5
251,127,85241,1,0,0:0:0:0:
398,205,85669,6,0,P|423:169|433:126,1,77.5
385,53,86098,1,0,0:0:0:0:
329,134,86312,1,0,0:0:0:0:
282,46,86526,1,0,0:0:0:0:
236,130,86741,2,0,P|193:89|179:41,1,77.5
102,33,87169,1,0,0:0:0:0:
50,112,87384,1,0,0:0:0:0:
129,165,87598,1,0,0:0:0:0:
236,130,87812,5,0,0:0:0:0:
226,232,88026,2,0,P|287:224|315:203,2,77.5
227,325,88669,1,0,0:0:0:0:
395,326,89098,5,0,0:0:0:0:
431,254,89312,2,0,P|418:201|396:169,1,77.5
432,94,89741,5,0,0:0:0:0:
301,201,89955,1,0,0:0:0:0:
328,52,90169,1,0,0:0:0:0:
301,199,90384,1,0,0:0:0:0:
142,72,90598,5,0,0:0:0:0:
206,237,90812,1,0,0:0:0:0:
263,77,91026,5,0,0:0:0:0:
97,311,91241,1,0,0:0:0:0:
157,207,91455,5,0,0:0:0:0:
218,326,91669,1,0,0:0:0:0:
343,275,91884,1,0,0:0:0:0:
284,159,92098,1,0,0:0:0:0:
368,96,92312,6,0,B|384:104|384:104|368:104|368:104|384:112|384:112|368:112|368:112|384:120|384:120|368:120|368:120|384:128|384:128|368:128|368:128|384:136|384:136|368:136|368:136|384:144|384:144|368:144|368:144|384:152|384:152|368:152|368:152,1,232.5
400,256,93169,1,0,0:0:0:0:
480,160,93384,1,0,0:0:0:0:
368,96,93598,1,0,0:0:0:0:
246,47,94026,6,0,P|216:77|194:115,1,77.5
273,133,94455,2,0,P|252:165|224:192,1,77.5
189,261,94884,2,0,P|161:233|140:201,1,77.5
86,127,95312,1,0,0:0:0:0:
66,267,95741,6,0,P|106:295|146:306,1,77.5
235,248,96169,1,0,0:0:0:0:
309,313,96384,1,0,0:0:0:0:
396,263,96598,2,0,P|417:206|418:156,1,77.5
424,84,97026,1,0,0:0:0:0:
94,36,97455,5,0,0:0:0:0:
424,84,97669,1,0,0:0:0:0:
58,200,97884,1,0,0:0:0:0:
380,315,98098,1,0,0:0:0:0:
278,27,98312,1,0,0:0:0:0:
181,316,98741,5,0,0:0:0:0:
263,132,99169,6,0,P|213:84|199:46,2,77.5
364,137,99812,2,0,P|349:194|317:228,1,77.5
271,313,100455,1,0,0:0:0:0:
45,198,100884,5,0,0:0:0:0:
271,313,101098,1,0,0:0:0:0:
139,271,101312,5,0,0:0:0:0:
464,202,101526,1,0,0:0:0:0:
369,316,101741,5,0,0:0:0:0:
75,89,102169,5,0,0:0:0:0:
75,89,102593,6,0,P|128:126|169:127,1,77.5
226,114,103033,2,0,L|278:197,1,77.5
335,249,103473,6,0,L|366:147,1,77.5
405,102,103914,2,0,P|441:148|457:188,1,77.5
446,261,104354,5,0,0:0:0:0:
292,207,104574,1,0,0:0:0:0:
363,291,104794,1,0,0:0:0:0:
231,136,105015,1,0,0:0:0:0:
148,71,105235,6,0,L|108:150,1,77.5
134,231,105675,2,0,L|218:181,1,77.5
263,131,106115,5,0,0:0:0:0:
296,248,106336,1,0,0:0:0:0:
370,149,106556,1,0,0:0:0:0:
434,282,106776,1,0,0:0:0:0:
456,161,106996,6,0,P|469:117|467:73,1,77.5
418,0,107437,1,0,0:0:0:0:
341,86,107657,1,0,0:0:0:0:
256,192,107877,12,0,109198,0:0:0:0:
200,143,109692,22,0,P|173:170|139:190,1,77.5
58,133,110133,1,0,0:0:0:0:
22,255,110353,1,0,0:0:0:0:
137,53,110573,2,0,P|207:43|315:70,1,155
414,38,111454,5,0,0:0:0:0:
357,147,111674,1,0,0:0:0:0:
463,131,111894,2,0,P|456:209|409:287,1,155
346,316,112555,5,0,0:0:0:0:
241,166,112775,1,0,0:0:0:0:
219,299,112995,1,0,0:0:0:0:
366,186,113215,2,0,P|402:145|403:42,1,155
296,268,113876,1,0,0:0:0:0:
231,152,114096,1,0,0:0:0:0:
381,229,114536,5,0,0:0:0:0:
109,243,114977,6,0,P|113:281|133:314,2,77.5
141,156,115637,1,0,0:0:0:0:
246,35,115858,6,0,P|196:66|163:107,1,77.5
246,290,116298,2,0,P|211:271|183:245,1,77.5
266,76,116738,5,0,0:0:0:0:
316,166,116958,1,0,0:0:0:0:
282,259,117179,1,0,0:0:0:0:
195,305,117399,1,0,0:0:0:0:
128,234,117619,6,0,P|193:207|227:203,1,77.5
280,212,118059,2,0,P|336:226|382:222,1,77.5
431,198,118500,5,0,0:0:0:0:
500,294,118720,1,0,0:0:0:0:
481,109,118940,2,0,P|416:91|318:95,1,155
238,50,119601,5,0,0:0:0:0:
158,161,119821,1,0,0:0:0:0:
243,279,120041,1,0,0:0:0:0:
256,192,120261,12,0,121693,0:0:0:0:
114,104,121913,6,0,P|172:90|219:93,1,77.5
296,101,122353,1,0,0:0:0:0:
321,198,122793,6,0,P|226:182|219:180,1,77.5
158,126,123234,1,0,0:0:0:0:
103,252,123454,1,0,0:0:0:0:
241,38,123683,6,0,P|277:79|296:120,1,77.5
321,198,124110,2,0,P|341:164|367:137,1,77.5
437,42,124539,5,0,0:0:0:0:
472,147,124754,1,0,0:0:0:0:
446,240,124968,1,0,0:0:0:0:
361,306,125183,1,0,0:0:0:0:
243,294,125397,6,0,P|276:235|310:206,1,77.5
373,231,125825,2,0,P|357:195|333:165,1,77.5
265,113,126254,6,0,P|206:128|174:146,2,77.5
362,47,126897,1,0,0:0:0:0:
481,78,127111,2,0,P|458:175|404:244,1,155
362,278,127754,5,0,0:0:0:0:
283,182,127968,1,0,0:0:0:0:
242,283,128183,1,0,0:0:0:0:
385,103,128397,1,0,0:0:0:0:
427,220,128611,1,0,0:0:0:0:
316,259,128825,6,0,P|272:222|246:176,1,77.5
340,168,129254,2,0,P|371:144|395:115,1,77.5
309,55,129683,5,0,0:0:0:0:
206,122,129897,1,0,0:0:0:0:
137,56,130111,5,0,0:0:0:0:
198,263,130325,1,0,0:0:0:0:
313,305,130540,6,0,P|331:252|332:135,1,155
308,60,131183,5,0,0:0:0:0:
171,145,131397,1,0,0:0:0:0:
335,153,131611,5,0,0:0:0:0:
465,229,131825,1,0,0:0:0:0:
339,280,132040,5,0,0:0:0:0:
213,235,132254,2,0,P|191:187|189:137,1,77.5
249,96,132683,2,0,P|266:130|274:168,1,77.5
308,245,133111,6,0,P|359:214|386:179,1,77.5
420,117,133540,1,0,0:0:0:0:
312,116,133754,1,0,0:0:0:0:
238,27,133968,6,0,P|209:83|201:196,1,155
268,282,134611,1,0,0:0:0:0:
370,192,134825,1,0,0:0:0:0:
270,281,135040,1,0,0:0:0:0:
129,262,135254,6,0,P|148:220|246:161,1,155
340,285,135897,1,0,0:0:0:0:
423,155,136111,1,0,0:0:0:0:
311,47,136325,1,0,0:0:0:0:
179,29,136540,6,0,L|126:88,1,77.5
208,117,136968,2,0,L|228:202,1,77.5
309,254,137397,6,0,P|329:210|370:169,1,77.5
437,202,137825,2,0,P|435:160|400:117,1,77.5
345,60,138254,5,0,0:0:0:0:
235,220,138468,1,0,0:0:0:0:
269,49,138683,5,0,0:0:0:0:
365,250,138897,1,0,0:0:0:0:
356,150,139111,6,0,P|296:161|264:148,1,77.5
204,125,139540,1,0,0:0:0:0:
101,162,139754,6,0,P|136:215|172:240,1,77.5
231,153,140183,1,0,0:0:0:0:
305,268,140397,1,0,0:0:0:0:
177,323,140611,1,0,0:0:0:0:
100,223,140825,6,0,P|146:227|247:146,1,155
305,79,141468,1,0,0:0:0:0:
387,215,141683,1,0,0:0:0:0:
302,298,141897,6,0,P|253:282|211:255,1,77.5
154,208,142325,1,0,0:0:0:0:
81,155,142540,2,0,P|150:110|166:109,1,77.5
224,79,142968,2,0,P|253:128|288:139,1,77.5
417,42,143397,5,0,0:0:0:0:
367,145,143611,1,0,0:0:0:0:
407,241,143825,1,0,0:0:0:0:
360,342,144040,1,0,0:0:0:0:
254,328,144254,6,0,P|204:297|126:198,1,155
90,127,144897,1,0,0:0:0:0:
59,271,145111,1,0,0:0:0:0:
201,87,145325,2,0,P|262:109|291:141,1,77.5
353,188,145754,1,0,0:0:0:0:
285,293,145968,6,0,P|230:270|195:232,1,77.5
135,218,146397,2,0,P|181:174|225:167,1,77.5
269,107,146825,5,0,0:0:0:0:
323,231,147040,1,0,0:0:0:0:
358,26,147254,1,0,0:0:0:0:
469,254,147468,1,0,0:0:0:0:
374,340,147683,6,0,P|302:318|235:261,1,155
209,164,148325,1,0,0:0:0:0:
120,293,148540,1,0,0:0:0:0:
52,37,148968,1,0,0:0:0:0:
297,100,149397,6,0,P|333:70|350:37,2,77.5
224,145,150040,1,0,0:0:0:0:
67,79,150254,6,0,L|105:127,1,38.75
107,129,150468,2,0,L|166:124|166:124,1,38.75
166,130,150683,2,0,L|221:150,1,38.75
224,149,150897,2,0,L|260:110,1,38.75
256,192,151111,12,0,154325,0:0:0:0:
232,76,154540,38,0,P|179:120|154:129,1,77.5
101,80,154968,2,0,P|86:139|93:173,1,77.5
126,234,155397,5,0,0:0:0:0:
265,172,155611,1,0,0:0:0:0:
244,286,155825,1,0,0:0:0:0:
386,199,156040,1,0,0:0:0:0:
390,75,156254,6,0,P|339:42|312:41,1,77.5
323,40,156575,1,0,0:0:0:0:
323,40,156683,1,0,0:0:0:0:
238,32,156897,6,0,P|219:87|221:139,1,77.5
476,114,157325,5,0,0:0:0:0:
276,332,157540,1,0,0:0:0:0:
33,81,157754,1,4,0:0:0:0:
