osu file format v14

[General]
AudioFilename: audio.mp3
AudioLeadIn: 0
PreviewTime: 46752
Countdown: 0
SampleSet: Soft
StackLeniency: 0.7
Mode: 0
LetterboxInBreaks: 0
WidescreenStoryboard: 0

[Editor]
DistanceSpacing: 0.8
BeatDivisor: 4
GridSize: 4
TimelineZoom: 0.9

[Metadata]
Title:The End OF Eternity
TitleUnicode:The End OF Eternity
Artist:Univz
ArtistUnicode:Univz
Creator:vnhero
Version:Last Dance
Source:
Tags:
BeatmapID:1351256
BeatmapSetID:635385

[Difficulty]
HPDrainRate:7
CircleSize:4
OverallDifficulty:8.5
ApproachRate:9.3
SliderMultiplier:2.99999990463257
SliderTickRate:1

[Events]
//Background and Video events
0,0,"end_of_the_line_by_nanomortis-dafp8o7.png",0,0
//Break Periods
//Storyboard Layer 0 (Background)
//Storyboard Layer 1 (Fail)
//Storyboard Layer 2 (Pass)
//Storyboard Layer 3 (Foreground)
//Storyboard Sound Samples

[TimingPoints]
86.276621333636,555.555555555556,4,2,0,40,1,0
48990,-200,4,2,0,40,0,0
53182,-100,4,2,0,40,0,0

[HitObjects]
60,48,86,5,0,0:0:0:0:
216,348,1197,5,0,0:0:0:0:
452,44,2308,5,0,0:0:0:0:
64,328,3419,5,0,0:0:0:0:
248,40,4530,5,0,0:0:0:0:
456,356,5641,5,0,0:0:0:0:
44,124,6752,5,0,0:0:0:0:
384,44,7863,5,0,0:0:0:0:
312,304,8974,5,0,0:0:0:0:
36,292,10086,5,0,0:0:0:0:
244,4,11197,5,0,0:0:0:0:
408,332,12308,5,0,0:0:0:0:
352,56,13419,5,0,0:0:0:0:
0,128,14530,5,0,0:0:0:0:
192,376,15641,5,0,0:0:0:0:
452,96,16752,5,0,0:0:0:0:
76,204,17863,6,0,L|144:132,1,74.9999976158142
264,100,18141,1,0,0:0:0:0:
392,328,18419,1,0,0:0:0:0:
76,204,18697,1,0,0:0:0:0:
416,152,18974,1,0,0:0:0:0:
100,28,19252,1,0,0:0:0:0:
392,328,19530,1,0,0:0:0:0:
436,120,20085,6,0,L|440:208,1,74.9999976158143
232,276,20363,1,0,0:0:0:0:
32,32,20641,1,0,0:0:0:0:
232,276,20919,1,0,0:0:0:0:
352,80,21196,1,0,0:0:0:0:
40,344,21474,1,0,0:0:0:0:
440,132,21752,1,0,0:0:0:0:
60,160,22308,6,0,L|140:128,1,74.9999976158143
280,176,22585,2,0,L|360:144,1,74.9999976158143
88,360,22863,2,0,L|168:328,1,74.9999976158143
296,288,23141,1,0,0:0:0:0:
440,108,23419,6,0,L|408:28,1,74.9999976158143
200,224,23696,2,0,L|168:144,1,74.9999976158143
440,336,23974,2,0,L|408:256,1,74.9999976158143
296,328,24252,5,0,0:0:0:0:
64,64,24530,1,0,0:0:0:0:
272,148,25363,2,0,L|404:252,2,149.999995231629
136,176,26752,6,0,P|160:252|176:252,1,74.9999976158143
368,200,27030,2,0,P|344:124|328:124,1,74.9999976158143
272,72,27307,2,0,P|196:96|196:112,1,74.9999976158143
216,312,27585,2,0,P|292:288|292:272,1,74.9999976158143
480,240,27863,1,0,0:0:0:0:
48,160,28141,1,0,0:0:0:0:
340,16,28419,1,0,0:0:0:0:
124,328,28974,6,0,P|200:304|200:288,1,74.9999976158143
352,200,29252,2,0,P|328:124|312:124,1,74.9999976158143
199,86,29529,2,0,P|143:142|151:157,1,74.9999976158143
376,324,29807,2,0,P|302:292|304:276,1,74.9999976158143
80,272,30085,1,0,0:0:0:0:
432,32,30363,1,0,0:0:0:0:
456,352,30641,1,0,0:0:0:0:
188,344,31196,6,0,L|143:269,1,74.9999976158143
356,148,31474,2,0,L|311:73,1,74.9999976158143
100,328,31752,2,0,L|55:253,1,74.9999976158143
228,88,32030,1,0,0:0:0:0:
464,72,32307,6,0,L|389:116,1,74.9999976158143
296,242,32584,2,0,L|222:286,1,74.9999976158143
348,52,32862,2,0,L|273:96,1,74.9999976158143
240,120,33140,5,0,0:0:0:0:
0,348,33418,1,0,0:0:0:0:
404,208,34252,2,0,P|364:288|296:288,2,149.999995231629
112,96,35641,6,0,L|112:192,1,74.9999976158143
204,176,35918,2,0,L|204:268,1,74.9999976158143
376,228,36196,5,0,0:0:0:0:
112,96,36752,1,0,0:0:0:0:
376,56,37307,1,0,0:0:0:0:
52,256,37863,5,0,0:0:0:0:
88,268,37932,1,0,0:0:0:0:
128,268,38002,1,0,0:0:0:0:
164,256,38071,1,0,0:0:0:0:
192,236,38141,1,0,0:0:0:0:
284,56,38418,1,0,0:0:0:0:
440,328,38696,1,0,0:0:0:0:
52,256,38974,1,0,0:0:0:0:
432,176,39530,1,0,0:0:0:0:
96,112,40085,6,0,P|148:112|168:120,1,74.9999976158143
264,336,40363,2,0,P|264:284|256:264,1,74.9999976158143
148,276,40640,5,0,0:0:0:0:
460,204,41196,1,0,0:0:0:0:
120,40,41751,1,0,0:0:0:0:
400,336,42307,5,0,0:0:0:0:
388,300,42376,1,0,0:0:0:0:
388,260,42446,1,0,0:0:0:0:
400,224,42515,1,0,0:0:0:0:
420,196,42585,1,0,0:0:0:0:
264,60,42862,1,0,0:0:0:0:
400,336,43140,1,0,0:0:0:0:
68,188,43418,2,0,L|88:40,1,149.999995231629
420,196,43974,2,0,L|252:196,1,149.999995231629
112,240,44529,5,0,0:0:0:0:
360,348,44807,1,0,0:0:0:0:
136,224,45085,5,0,0:0:0:0:
372,184,45363,1,0,0:0:0:0:
140,192,45640,5,0,0:0:0:0:
424,76,45918,1,0,0:0:0:0:
92,184,46196,5,0,0:0:0:0:
264,0,46474,1,0,0:0:0:0:
124,348,46752,5,0,0:0:0:0:
460,340,47029,1,0,0:0:0:0:
96,132,47308,5,0,0:0:0:0:
358,341,47585,1,0,0:0:0:0:
288,8,47863,5,0,0:0:0:0:
87,277,48140,1,0,0:0:0:0:
196,44,48419,5,0,0:0:0:0:
370,330,48696,1,0,0:0:0:0:
96,172,48974,5,0,0:0:0:0:
200,296,49113,1,0,0:0:0:0:
272,148,49251,1,0,0:0:0:0:
376,272,49390,1,0,0:0:0:0:
396,232,49529,5,0,0:0:0:0:
416,184,49599,1,0,0:0:0:0:
392,140,49668,1,0,0:0:0:0:
348,120,49738,1,0,0:0:0:0:
296,120,49807,1,0,0:0:0:0:
248,152,49876,1,0,0:0:0:0:
204,184,49946,1,0,0:0:0:0:
140,168,50015,1,0,0:0:0:0:
104,136,50085,2,0,L|120:72,7,37.4999988079071
256,192,51196,12,0,53140,0:0:0:0:
84,344,53418,6,0,P|48:220|56:188,2,149.999995231629
212,300,54251,2,0,L|296:276,1,74.9999976158143
276,124,54529,2,0,L|192:148,1,74.9999976158143
96,176,55085,1,0,0:0:0:0:
408,196,55224,1,0,0:0:0:0:
224,112,55362,1,0,0:0:0:0:
332,268,55501,1,0,0:0:0:0:
224,112,55640,6,0,P|320:104|360:64,2,149.999995231629
88,104,56474,2,0,P|84:180|120:208,1,74.9999976158143
288,304,56751,2,0,P|292:228|256:200,1,74.9999976158143
412,100,57307,1,0,0:0:0:0:
156,184,57862,6,0,L|312:156,2,149.999995231629
396,336,58695,2,0,L|312:312,1,74.9999976158143
320,112,58973,2,0,L|404:136,1,74.9999976158143
96,176,59529,1,0,0:0:0:0:
268,332,59668,1,0,0:0:0:0:
318,190,59807,1,0,0:0:0:0:
124,316,59945,1,0,0:0:0:0:
268,332,60084,6,0,L|320:188,2,149.999995231629
272,56,60918,2,0,L|168:88,1,74.9999976158143
256,228,61195,2,0,L|152:260,1,74.9999976158143
424,316,61751,1,0,0:0:0:0:
380,228,62029,1,0,0:0:0:0:
324,208,62098,1,0,0:0:0:0:
272,212,62168,1,0,0:0:0:0:
232,240,62237,1,0,0:0:0:0:
200,236,62307,6,0,P|128:200|92:136,2,149.999995231629
296,200,63140,1,0,0:0:0:0:
120,24,63418,1,0,0:0:0:0:
160,248,63973,1,0,0:0:0:0:
344,148,64112,1,0,0:0:0:0:
356,348,64251,1,0,0:0:0:0:
160,248,64390,1,0,0:0:0:0:
144,188,64529,6,0,P|84:128|88:52,2,149.999995231629
260,148,65362,2,0,P|336:160|356:180,1,74.9999976158143
432,280,65640,2,0,P|356:292|336:312,1,74.9999976158143
76,272,66196,1,0,0:0:0:0:
112,120,66751,5,0,0:0:0:0:
144,108,66821,1,0,0:0:0:0:
188,104,66890,1,0,0:0:0:0:
224,116,66959,1,0,0:0:0:0:
252,136,67029,1,0,0:0:0:0:
264,288,67584,1,0,0:0:0:0:
112,120,67862,2,0,P|108:192|20:240,1,149.999995231629
48,324,68418,5,0,0:0:0:0:
168,232,68557,1,0,0:0:0:0:
324,232,68696,1,0,0:0:0:0:
428,136,68834,1,0,0:0:0:0:
100,160,68973,6,0,L|184:160,1,74.9999976158143
400,296,69390,2,0,L|308:300,1,74.9999976158143
272,56,69807,2,0,L|356:92,1,74.9999976158143
256,192,70084,12,0,71057,0:0:0:0:
144,196,71195,5,0,0:0:0:0:
440,312,71612,1,0,0:0:0:0:
320,56,72029,1,0,0:0:0:0:
144,196,72307,2,0,L|108:304,1,74.9999976158143
328,72,72862,1,0,0:0:0:0:
260,268,73001,1,0,0:0:0:0:
412,160,73140,1,0,0:0:0:0:
232,160,73279,1,0,0:0:0:0:
410,268,73418,6,0,L|258:268,1,149.999995231629
80,284,73973,1,0,0:0:0:0:
204,72,74251,2,0,L|364:120,1,149.999995231629
360,268,75084,1,0,0:0:0:0:
44,216,75640,6,0,P|60:280|84:296,1,74.9999976158143
192,44,76056,2,0,P|208:108|232:124,1,74.9999976158143
388,232,76473,2,0,P|404:296|428:312,1,74.9999976158143
244,300,76751,6,0,P|152:288|68:312,1,149.999995231629
88,232,77306,1,0,0:0:0:0:
232,88,77445,1,0,0:0:0:0:
224,228,77584,1,0,0:0:0:0:
84,88,77723,1,0,0:0:0:0:
224,228,77862,6,0,P|312:256|364:312,1,149.999995231629
416,152,78418,1,0,0:0:0:0:
72,88,78695,1,0,0:0:0:0:
208,244,78973,1,0,0:0:0:0:
444,304,79529,1,0,0:0:0:0:
292,252,79806,1,0,0:0:0:0:
252,304,79875,1,0,0:0:0:0:
192,324,79945,1,0,0:0:0:0:
132,312,80014,1,0,0:0:0:0:
88,296,80084,6,0,L|88:212,1,74.9999976158143
180,224,80501,2,0,L|180:144,1,74.9999976158143
272,148,80917,2,0,L|272:48,1,74.9999976158143
436,168,81195,6,0,L|300:272,1,149.999995231629
252,296,81751,1,0,0:0:0:0:
208,128,81890,1,0,0:0:0:0:
144,264,82029,1,0,0:0:0:0:
284,200,82167,1,0,0:0:0:0:
104,152,82306,1,0,0:0:0:0:
100,120,82862,2,0,P|160:92|200:108,1,74.9999976158143
308,192,83140,2,0,P|368:220|408:204,1,74.9999976158143
352,352,83417,1,0,0:0:0:0:
88,280,83973,1,0,0:0:0:0:
100,140,84529,5,0,0:0:0:0:
148,112,84598,1,0,0:0:0:0:
204,104,84667,1,0,0:0:0:0:
452,140,84945,1,0,0:0:0:0:
100,140,85362,1,0,0:0:0:0:
152,240,85640,6,0,P|244:292|256:336,1,149.999995231629
152,240,86195,1,0,0:0:0:0:
188,96,86334,1,0,0:0:0:0:
344,100,86473,1,0,0:0:0:0:
380,240,86612,1,0,0:0:0:0:
268,320,86751,1,0,0:0:0:0:
56,168,87306,2,0,L|152:48,2,149.999995231629
68,72,88973,5,0,0:0:0:0:
68,168,89112,1,0,0:0:0:0:
116,252,89251,1,0,0:0:0:0:
168,328,89390,1,0,0:0:0:0:
232,256,89530,5,0,0:0:0:0:
328,256,89669,1,0,0:0:0:0:
416,328,89808,1,0,0:0:0:0:
491,262,89947,1,0,0:0:0:0:
484,164,90086,5,0,0:0:0:0:
408,92,90225,1,0,0:0:0:0:
312,92,90364,1,0,0:0:0:0:
248,16,90503,1,0,0:0:0:0:
172,92,90641,5,0,0:0:0:0:
96,164,90780,1,0,0:0:0:0:
92,272,90919,1,0,0:0:0:0:
176,344,91058,1,0,0:0:0:0:
224,288,91195,6,0,P|264:192|304:184,1,149.999995231629
148,104,92028,1,0,0:0:0:0:
436,188,92306,1,0,0:0:0:0:
232,256,93419,5,0,0:0:0:0:
316,328,93558,1,0,0:0:0:0:
416,328,93697,1,0,0:0:0:0:
491,262,93836,1,0,0:0:0:0:
484,164,93974,5,0,0:0:0:0:
408,92,94113,1,0,0:0:0:0:
352,168,94252,1,0,0:0:0:0:
272,96,94391,1,0,0:0:0:0:
176,92,94530,5,0,0:0:0:0:
76,92,94669,1,0,0:0:0:0:
40,192,94808,1,0,0:0:0:0:
60,288,94947,1,0,0:0:0:0:
144,232,95087,5,0,0:0:0:0:
208,312,95226,1,0,0:0:0:0:
272,232,95365,1,0,0:0:0:0:
364,232,95504,1,0,0:0:0:0:
424,260,95639,6,0,L|292:336,1,149.999995231629
84,228,96473,1,0,0:0:0:0:
392,104,96750,1,0,0:0:0:0:
128,328,97306,1,0,0:0:0:0:
440,144,97584,1,0,0:0:0:0:
468,184,97653,1,0,0:0:0:0:
480,244,97723,1,0,0:0:0:0:
460,296,97792,1,0,0:0:0:0:
428,336,97864,5,0,0:0:0:0:
344,272,98003,1,0,0:0:0:0:
240,272,98141,1,0,0:0:0:0:
156,208,98280,1,0,0:0:0:0:
60,208,98421,5,0,0:0:0:0:
60,120,98560,1,0,0:0:0:0:
120,44,98699,1,0,0:0:0:0:
220,44,98838,1,0,0:0:0:0:
300,124,98977,5,0,0:0:0:0:
376,188,99116,1,0,0:0:0:0:
292,240,99252,1,0,0:0:0:0:
368,304,99391,1,0,0:0:0:0:
292,368,99530,5,0,0:0:0:0:
196,368,99669,1,0,0:0:0:0:
152,264,99808,1,0,0:0:0:0:
56,264,99947,1,0,0:0:0:0:
44,216,100084,6,0,P|79:131|143:93,1,149.999995231629
352,136,100917,1,0,0:0:0:0:
48,36,101195,1,0,0:0:0:0:
132,328,102306,5,0,0:0:0:0:
52,268,102445,1,0,0:0:0:0:
56,176,102584,1,0,0:0:0:0:
128,112,102723,1,0,0:0:0:0:
216,176,102861,5,0,0:0:0:0:
312,176,103000,1,0,0:0:0:0:
216,276,103141,1,0,0:0:0:0:
312,276,103280,1,0,0:0:0:0:
392,348,103417,5,0,0:0:0:0:
464,276,103556,1,0,0:0:0:0:
464,184,103695,1,0,0:0:0:0:
464,96,103834,1,0,0:0:0:0:
396,28,103973,5,0,0:0:0:0:
304,28,104111,1,0,0:0:0:0:
304,128,104250,1,0,0:0:0:0:
216,128,104389,1,0,0:0:0:0:
168,104,104528,6,0,L|-18:81,1,149.999995231629
184,292,105361,1,0,0:0:0:0:
416,104,105639,1,0,0:0:0:0:
64,64,106195,1,0,0:0:0:0:
256,192,106750,12,0,110361,0:0:0:0:
