osu file format v14

[General]
AudioFilename: audio.mp3
AudioLeadIn: 0
PreviewTime: 46752
Countdown: 0
SampleSet: Soft
StackLeniency: 0.7
Mode: 0
LetterboxInBreaks: 0
WidescreenStoryboard: 0

[Editor]
DistanceSpacing: 0.8
BeatDivisor: 4
GridSize: 4
TimelineZoom: 1

[Metadata]
Title:The End OF Eternity
TitleUnicode:The End OF Eternity
Artist:Univz
ArtistUnicode:Univz
Creator:vnhero
Version:Insane
Source:
Tags:
BeatmapID:1350180
BeatmapSetID:635385

[Difficulty]
HPDrainRate:7
CircleSize:4
OverallDifficulty:8
ApproachRate:9
SliderMultiplier:2
SliderTickRate:1

[Events]
//Background and Video events
0,0,"end_of_the_line_by_nanomortis-dafp8o7.png",0,0
//Break Periods
//Storyboard Layer 0 (Background)
//Storyboard Layer 1 (Fail)
//Storyboard Layer 2 (Pass)
//Storyboard Layer 3 (Foreground)
//Storyboard Sound Samples

[TimingPoints]
86.276621333636,555.555555555556,4,2,0,40,1,0
25686,-66.6666666666667,4,2,0,40,0,0
30858,-100,4,2,0,40,0,0
33708,-66.6666666666667,4,2,0,40,0,0
44256,-100,4,2,0,40,0,0
49922,-111.111111111111,4,2,0,40,0,0
69927,-66.6666666666667,4,2,0,40,0,0
71123,-100,4,2,0,40,0,0
89350,-66.6666666666667,4,2,0,40,0,0
90427,-100,4,2,0,40,0,0
91338,-66.6666666666667,4,2,0,40,0,0
92810,-100,4,2,0,40,0,0
94020,-66.6666666666667,4,2,0,40,0,0
97800,-100,4,2,0,40,0,0
98360,-66.6666666666667,4,2,0,40,0,0
101768,-100,4,2,0,40,0,0
102798,-66.6666666666667,4,2,0,40,0,0

[HitObjects]
76,120,86,5,0,0:0:0:0:
436,296,1197,1,0,0:0:0:0:
400,24,2308,1,0,0:0:0:0:
48,308,3419,1,0,0:0:0:0:
208,40,4530,5,0,0:0:0:0:
336,360,5641,1,0,0:0:0:0:
488,136,6752,1,0,0:0:0:0:
36,260,7863,1,0,0:0:0:0:
252,64,8974,5,0,0:0:0:0:
432,348,10086,1,0,0:0:0:0:
416,40,11197,1,0,0:0:0:0:
120,136,12308,1,0,0:0:0:0:
460,264,13419,5,0,0:0:0:0:
36,72,14530,1,0,0:0:0:0:
464,24,15641,1,0,0:0:0:0:
44,356,16752,1,0,0:0:0:0:
376,280,17654,5,0,0:0:0:0:
376,280,17724,1,0,0:0:0:0:
376,280,17793,1,0,0:0:0:0:
376,280,17863,1,0,0:0:0:0:
176,128,18141,1,0,0:0:0:0:
104,320,18419,1,0,0:0:0:0:
176,128,18697,1,0,0:0:0:0:
324,128,18974,1,0,0:0:0:0:
252,320,19252,1,0,0:0:0:0:
176,128,19530,1,0,0:0:0:0:
300,48,19877,5,0,0:0:0:0:
300,48,19947,1,0,0:0:0:0:
300,48,20017,1,0,0:0:0:0:
300,48,20085,1,0,0:0:0:0:
100,152,20363,1,0,0:0:0:0:
144,324,20641,1,0,0:0:0:0:
260,208,20919,1,0,0:0:0:0:
172,88,21196,1,0,0:0:0:0:
216,260,21474,1,0,0:0:0:0:
332,144,21752,1,0,0:0:0:0:
88,112,22308,5,0,0:0:0:0:
212,320,22585,1,0,0:0:0:0:
88,112,22863,1,0,0:0:0:0:
324,92,23419,5,0,0:0:0:0:
128,300,23696,1,0,0:0:0:0:
324,92,23974,1,0,0:0:0:0:
180,56,24252,5,0,0:0:0:0:
200,304,24530,1,0,0:0:0:0:
92,124,25363,5,0,0:0:0:0:
324,216,25849,2,0,P|388:252|308:256,1,187.500007152558
120,140,26752,6,0,P|160:124|200:120,1,75.0000028610231
312,220,27030,2,0,P|272:236|232:240,1,75.0000028610231
191,119,27307,2,0,P|231:103|271:99,1,75.0000028610231
383,199,27585,2,0,P|343:215|303:219,1,75.0000028610231
280,232,27863,1,0,0:0:0:0:
180,156,28141,1,0,0:0:0:0:
84,80,28419,1,0,0:0:0:0:
60,204,28974,6,0,L|140:184,1,75.0000028610231
312,220,29252,2,0,L|232:240,1,75.0000028610231
164,144,29530,2,0,L|244:124,1,75.0000028610231
416,160,29808,2,0,L|336:180,1,75.0000028610231
308,192,30085,1,0,0:0:0:0:
184,252,30363,1,0,0:0:0:0:
64,312,30641,1,0,0:0:0:0:
160,256,31196,5,0,0:0:0:0:
352,160,31474,1,0,0:0:0:0:
200,48,31752,1,0,0:0:0:0:
104,120,32307,5,0,0:0:0:0:
136,316,32585,1,0,0:0:0:0:
299,202,32863,1,0,0:0:0:0:
252,304,33141,5,0,0:0:0:0:
172,72,33418,1,0,0:0:0:0:
176,304,34252,6,0,P|112:268|192:264,1,187.500007152558
420,124,34877,1,0,0:0:0:0:
92,72,35641,5,0,0:0:0:0:
288,240,35918,1,0,0:0:0:0:
64,268,36196,2,0,P|72:176|96:120,1,150.000005722046
109,173,36752,2,0,P|174:108|229:80,1,150.000005722046
192,56,37307,2,0,P|283:47|343:61,1,150.000005722046
276,112,37863,5,0,0:0:0:0:
204,304,38141,1,0,0:0:0:0:
388,200,38418,1,0,0:0:0:0:
188,192,38696,1,0,0:0:0:0:
360,304,38974,1,0,0:0:0:0:
84,56,40085,5,0,0:0:0:0:
252,252,40362,1,0,0:0:0:0:
220,64,40640,2,0,P|312:72|368:96,1,150.000005722046
315,109,41196,2,0,P|380:174|408:229,1,150.000005722046
432,192,41751,2,0,P|441:283|427:343,1,150.000005722046
168,160,42307,5,0,0:0:0:0:
384,80,42585,1,0,0:0:0:0:
276,264,42863,1,0,0:0:0:0:
256,56,43140,1,0,0:0:0:0:
404,192,43418,2,0,P|448:264|452:336,2,150.000005722046
100,228,44529,6,0,L|96:112,1,100
272,108,45085,1,0,0:0:0:0:
320,292,45363,1,0,0:0:0:0:
156,216,45640,1,0,0:0:0:0:
348,196,45918,1,0,0:0:0:0:
172,124,46196,1,0,0:0:0:0:
264,356,46474,1,0,0:0:0:0:
428,308,46752,6,0,L|452:180,1,100
324,236,47307,1,0,0:0:0:0:
108,204,47585,1,0,0:0:0:0:
224,300,47863,1,0,0:0:0:0:
312,100,48140,1,0,0:0:0:0:
96,104,48418,1,0,0:0:0:0:
308,240,48696,1,0,0:0:0:0:
420,92,48974,5,0,0:0:0:0:
476,196,49113,1,0,0:0:0:0:
360,196,49251,1,0,0:0:0:0:
440,304,49390,1,0,0:0:0:0:
384,312,49529,5,0,0:0:0:0:
336,296,49599,1,0,0:0:0:0:
300,300,49668,1,0,0:0:0:0:
264,320,49738,1,0,0:0:0:0:
216,320,49807,1,0,0:0:0:0:
180,304,49876,1,0,0:0:0:0:
144,276,49946,1,0,0:0:0:0:
112,248,50015,1,0,0:0:0:0:
64,260,50085,1,0,0:0:0:0:
256,192,50224,12,0,53140,0:1:0:0:
104,192,53418,6,0,P|144:244|220:272,1,134.999995880127
328,256,54251,1,0,0:0:0:0:
392,108,54529,2,0,P|331:75|302:80,1,89.9999972534181
192,92,55085,1,0,0:0:0:0:
140,100,55224,1,0,0:0:0:0:
84,112,55362,1,0,0:0:0:0:
28,124,55501,1,0,0:0:0:0:
112,176,55640,6,0,P|196:196|256:232,1,134.999995880127
360,328,56474,1,0,0:0:0:0:
120,308,56751,2,0,P|88:248|88:220,1,89.9999972534181
272,216,57307,2,0,P|314:163|340:152,1,89.9999972534181
440,64,57862,6,0,L|440:204,1,134.999995880127
144,264,58696,1,0,0:0:0:0:
104,140,58973,2,0,L|160:64,1,89.9999972534181
268,64,59529,1,0,0:0:0:0:
252,120,59668,1,0,0:0:0:0:
268,176,59807,1,0,0:0:0:0:
308,212,59946,1,0,0:0:0:0:
304,260,60085,6,0,L|188:236,1,89.9999972534181
88,112,60918,1,0,0:0:0:0:
340,72,61196,2,0,P|316:120|272:168,1,89.9999972534181
196,288,61751,2,0,P|244:265|294:223,1,89.9999972534181
304,60,62307,6,0,L|444:56,1,134.999995880127
448,332,63140,1,0,0:0:0:0:
304,208,63418,2,0,P|337:269|332:298,1,89.9999972534181
272,284,63974,1,0,0:0:0:0:
212,268,64113,1,0,0:0:0:0:
232,316,64251,1,0,0:0:0:0:
172,300,64390,1,0,0:0:0:0:
84,176,64529,6,0,P|104:92|140:32,1,134.999995880127
404,80,65363,1,0,0:0:0:0:
200,144,65640,2,0,P|260:112|288:112,1,89.9999972534181
328,232,66196,2,0,P|381:274|392:300,1,89.9999972534181
120,272,66751,6,0,L|116:131,1,134.999995880127
264,268,67584,1,0,0:0:0:0:
300,152,67862,2,0,L|390:180,1,89.9999972534181
420,256,68418,1,0,0:0:0:0:
360,244,68557,1,0,0:0:0:0:
304,252,68695,1,0,0:0:0:0:
264,288,68834,1,0,0:0:0:0:
228,320,68973,5,0,0:0:0:0:
56,96,69390,1,0,0:0:0:0:
432,88,69807,1,0,0:0:0:0:
276,260,70084,2,0,P|108:244|288:212,1,525.000020027161
287,206,71195,6,0,L|147:262,1,150
120,328,72028,1,0,0:0:0:0:
188,224,72306,2,0,P|254:204|284:216,1,100
324,208,72862,1,0,0:0:0:0:
328,296,73001,1,0,0:0:0:0:
412,208,73140,1,0,0:0:0:0:
416,296,73278,1,0,0:0:0:0:
328,296,73418,2,0,P|240:300|184:240,1,150
132,200,73973,5,0,0:0:0:0:
340,68,74251,1,0,0:0:0:0:
248,264,75084,1,0,0:0:0:0:
172,304,75640,2,0,P|260:316|276:304,1,100
292,208,76056,2,0,P|380:220|396:208,1,100
432,120,76473,1,0,0:0:0:0:
356,180,76751,6,0,L|216:236,1,150
192,216,77306,1,0,0:0:0:0:
88,160,77445,1,0,0:0:0:0:
96,280,77584,1,0,0:0:0:0:
88,160,77723,1,0,0:0:0:0:
168,120,77862,6,0,L|308:88,1,100
464,96,78417,5,0,0:0:0:0:
408,312,78695,1,0,0:0:0:0:
80,224,79529,1,0,0:0:0:0:
212,156,80084,2,0,L|212:260,1,100
328,180,80500,2,0,L|328:76,1,100
468,128,80917,1,0,0:0:0:0:
388,256,81195,6,0,P|304:212|320:128,1,150
312,112,81751,1,0,0:0:0:0:
240,164,81890,1,0,0:0:0:0:
232,256,82029,1,0,0:0:0:0:
296,324,82167,1,0,0:0:0:0:
236,344,82306,6,0,L|80:320,1,150
68,232,82862,1,0,0:0:0:0:
144,96,83140,2,0,P|200:64|248:76,1,100
304,168,83973,1,0,0:0:0:0:
156,292,84529,6,0,P|100:240|104:184,1,100
232,200,84945,2,0,P|235:123|281:90,1,100
380,276,85362,1,0,0:0:0:0:
136,252,85640,6,0,L|136:96,1,150
176,116,86195,1,0,0:0:0:0:
248,208,86334,1,0,0:0:0:0:
276,120,86473,1,0,0:0:0:0:
348,212,86612,1,0,0:0:0:0:
388,248,86751,6,0,P|328:304|276:312,1,100
120,244,87306,1,0,0:0:0:0:
56,68,87584,1,0,0:0:0:0:
260,160,88834,5,0,0:0:0:0:
248,168,88903,1,0,0:0:0:0:
236,176,88973,2,0,L|144:240,1,100
72,104,89806,2,0,L|124:40,1,75.0000028610231
268,108,90084,2,0,L|216:172,1,75.0000028610231
216,248,90917,5,0,0:0:0:0:
424,344,91195,1,0,0:0:0:0:
172,76,92028,5,0,0:0:0:0:
380,172,92306,1,0,0:0:0:0:
299,326,93278,5,0,0:0:0:0:
284,324,93347,1,0,0:0:0:0:
268,322,93417,2,0,L|158:298,1,100
416,136,94250,2,0,L|364:200,1,75.0000028610231
220,132,94528,2,0,L|272:68,1,75.0000028610231
216,248,95361,5,0,0:0:0:0:
424,344,95639,1,0,0:0:0:0:
172,76,96472,5,0,0:0:0:0:
428,168,96750,2,0,L|292:252,2,150.000005722046
308,300,97723,5,0,0:0:0:0:
288,276,97792,1,0,0:0:0:0:
276,256,97862,2,0,L|340:348,1,100
172,170,98695,2,0,P|138:115|145:81,1,75.0000028610231
378,65,98973,2,0,P|412:120|405:154,1,75.0000028610231
296,296,99806,5,0,0:0:0:0:
68,156,100084,1,0,0:0:0:0:
304,80,100917,5,0,0:0:0:0:
200,284,101195,1,0,0:0:0:0:
192,256,102167,5,0,0:0:0:0:
156,240,102236,1,0,0:0:0:0:
126,225,102306,2,0,L|130:113,1,100
408,128,103139,2,0,P|416:192|395:220,1,75.0000028610231
176,140,103417,2,0,P|167:75|188:47,1,75.0000028610231
136,272,104250,5,0,0:0:0:0:
192,20,104528,1,0,0:0:0:0:
256,336,105361,5,0,0:0:0:0:
348,80,105639,2,0,L|432:216,2,150.000005722046
256,192,106750,12,0,110361,0:0:0:0:
