osu file format v14

[General]
AudioFilename: audio.mp3
AudioLeadIn: 0
PreviewTime: 46752
Countdown: 0
SampleSet: Soft
StackLeniency: 0.7
Mode: 0
LetterboxInBreaks: 0
WidescreenStoryboard: 0

[Editor]
DistanceSpacing: 0.8
BeatDivisor: 4
GridSize: 4
TimelineZoom: 1

[Metadata]
Title:The End OF Eternity
TitleUnicode:The End OF Eternity
Artist:Univz
ArtistUnicode:Univz
Creator:vnhero
Version:Hard
Source:
Tags:
BeatmapID:1349405
BeatmapSetID:635385

[Difficulty]
HPDrainRate:6
CircleSize:4
OverallDifficulty:6.5
ApproachRate:8
SliderMultiplier:1.4
SliderTickRate:1

[Events]
//Background and Video events
0,0,"end_of_the_line_by_nanomortis-dafp8o7.png",0,0
//Break Periods
//Storyboard Layer 0 (Background)
//Storyboard Layer 1 (Fail)
//Storyboard Layer 2 (Pass)
//Storyboard Layer 3 (Foreground)
//Storyboard Sound Samples

[TimingPoints]
86.276621333636,555.555555555556,4,2,0,40,1,0
48639,-50,4,2,0,40,0,0
53419,-100,4,2,0,40,0,1
57601,-50,4,2,0,40,0,1
58813,-100,4,2,0,40,0,1
75398,-50,4,2,0,40,0,1
76369,-100,4,2,0,40,0,1
88419,-100,4,2,0,40,0,0

[HitObjects]
112,96,86,5,0,0:0:0:0:
352,252,1197,1,0,0:0:0:0:
384,64,2308,1,0,0:0:0:0:
120,300,3419,1,0,0:0:0:0:
216,84,4530,5,0,0:0:0:0:
280,320,5641,1,0,0:0:0:0:
460,168,6752,1,0,0:0:0:0:
88,184,7863,1,0,0:0:0:0:
144,32,8974,5,0,0:0:0:0:
392,312,10086,1,0,0:0:0:0:
372,52,11197,1,0,0:0:0:0:
96,364,12308,1,0,0:0:0:0:
232,120,13419,5,0,0:0:0:0:
336,324,14530,1,0,0:0:0:0:
80,272,15641,1,0,0:0:0:0:
440,40,16752,1,0,0:0:0:0:
272,212,17863,6,0,L|308:284,1,70
364,312,18419,1,0,0:0:0:0:
436,244,18697,1,0,0:0:0:0:
340,216,18974,1,0,0:0:0:0:
232,180,19252,1,0,0:0:0:0:
256,276,19530,1,0,0:0:0:0:
132,132,20086,6,0,L|208:96,1,70
244,172,20641,1,0,0:0:0:0:
252,180,20919,1,0,0:0:0:0:
348,200,21197,1,0,0:0:0:0:
356,208,21475,1,0,0:0:0:0:
436,248,21752,2,0,L|436:332,1,70
96,204,22308,5,0,0:0:0:0:
180,332,22586,1,0,0:0:0:0:
96,204,22864,2,0,P|104:160|132:128,1,70
224,104,23419,5,0,0:0:0:0:
256,256,23696,1,0,0:0:0:0:
224,104,23974,2,0,P|258:75|300:68,1,70
348,124,24530,1,0,0:0:0:0:
88,108,25363,6,0,L|140:196,1,70
168,176,25919,2,0,L|220:248,1,70
72,192,26752,6,0,P|100:144|124:128,1,70
200,108,27308,1,0,0:0:0:0:
200,108,27586,1,0,0:0:0:0:
300,124,27863,1,0,0:0:0:0:
300,124,28141,1,0,0:0:0:0:
376,188,28419,2,0,P|360:224|316:228,1,70
132,304,28974,6,0,L|132:224,1,70
172,144,29530,1,0,0:0:0:0:
56,64,29807,1,0,0:0:0:0:
180,152,30085,1,0,0:0:0:0:
300,236,30363,1,0,0:0:0:0:
180,152,30641,1,0,0:0:0:0:
332,256,31196,5,0,0:0:0:0:
220,336,31475,1,0,0:0:0:0:
88,232,31752,2,0,L|88:144,1,70
196,72,32308,5,0,0:0:0:0:
304,136,32586,1,0,0:0:0:0:
412,244,32864,2,0,L|412:324,1,70
280,332,33419,1,0,0:0:0:0:
152,316,34252,6,0,L|152:224,1,70
120,316,34808,2,0,L|120:236,1,70
124,148,35641,5,0,0:0:0:0:
232,204,35919,1,0,0:0:0:0:
264,324,36197,2,0,L|340:324,1,70
384,248,36752,2,0,L|456:248,1,70
296,160,37308,2,0,L|224:160,1,70
153,263,37864,6,0,L|93:199,1,70
192,96,38419,1,0,0:0:0:0:
112,220,38697,1,0,0:0:0:0:
32,336,38975,1,0,0:0:0:0:
340,336,39530,1,0,0:0:0:0:
416,156,40086,5,0,0:0:0:0:
296,188,40364,1,0,0:0:0:0:
216,112,40641,2,0,P|184:100|132:100,1,70
88,232,41197,2,0,P|53:231|4:249,1,70
240,320,41752,2,0,P|207:331|167:364,1,70
352,308,42308,6,0,L|272:256,1,70
428,180,42864,1,0,0:0:0:0:
268,184,43141,1,0,0:0:0:0:
120,184,43419,2,0,P|76:228|44:312,1,140
360,128,44530,6,0,P|320:112|284:108,1,70
324,244,45086,2,0,P|295:204|256:196,1,70
200,220,45641,1,0,0:0:0:0:
88,108,45919,1,0,0:0:0:0:
200,108,46197,1,0,0:0:0:0:
88,224,46475,1,0,0:0:0:0:
140,308,46752,6,0,P|172:296|208:264,1,70
352,288,47308,2,0,P|320:274|272:273,1,70
248,184,47864,1,0,0:0:0:0:
248,40,48140,1,0,0:0:0:0:
168,112,48418,1,0,0:0:0:0:
320,112,48696,1,0,0:0:0:0:
392,216,48975,6,0,L|336:264,8,70
256,192,50225,12,0,53141,0:0:0:0:
96,208,53419,6,0,P|128:172|168:160,2,70
136,280,54252,2,0,L|172:280,1,35
264,268,54530,1,0,0:0:0:0:
268,164,55086,1,0,0:0:0:0:
288,136,55225,1,0,0:0:0:0:
308,104,55364,1,0,0:0:0:0:
328,80,55501,1,0,0:0:0:0:
376,80,55641,6,0,L|376:168,1,70
288,240,56475,1,0,0:0:0:0:
152,284,56752,1,0,0:0:0:0:
92,112,57307,1,0,0:0:0:0:
392,224,57724,6,0,P|456:216|368:204,1,350
320,316,58696,1,0,0:0:0:0:
148,288,58975,2,0,L|84:324,1,70
80,136,59530,1,0,0:0:0:0:
80,136,59668,1,0,0:0:0:0:
80,136,59807,1,0,0:0:0:0:
80,136,59946,1,0,0:0:0:0:
88,136,60086,6,0,L|168:136,1,70
116,292,60919,1,0,0:0:0:0:
292,252,61197,1,0,0:0:0:0:
100,184,61752,2,0,B|132:148|176:180|212:124,1,105
204,128,62308,5,0,0:0:0:0:
288,232,62725,2,0,L|336:244,1,35
444,216,63141,1,0,0:0:0:0:
344,92,63419,2,0,P|300:80|256:84,1,70
216,120,63975,1,0,0:0:0:0:
192,148,64114,1,0,0:0:0:0:
224,176,64251,1,0,0:0:0:0:
196,200,64390,1,0,0:0:0:0:
216,252,64530,6,0,L|280:280,2,70
104,304,65364,1,0,0:0:0:0:
64,176,65641,1,0,0:0:0:0:
364,56,66197,1,0,0:0:0:0:
368,192,66475,1,0,0:0:0:0:
276,288,66752,6,0,P|224:272|192:240,1,70
304,204,67308,1,0,0:0:0:0:
476,168,67586,1,0,0:0:0:0:
356,288,67864,2,0,L|268:328,1,70
216,208,68418,1,0,0:0:0:0:
216,176,68557,1,0,0:0:0:0:
216,132,68696,1,0,0:0:0:0:
216,100,68836,1,0,0:0:0:0:
216,60,68975,6,0,L|264:56,1,35
80,164,69391,2,0,L|100:224,1,35
276,328,69808,2,0,L|332:296,1,35
256,192,70086,12,0,71058,0:0:0:0:
272,268,71197,6,0,P|240:304|200:316,2,70
344,232,72030,2,0,L|400:228,1,35
428,200,72308,1,0,0:0:0:0:
272,116,72864,1,0,0:0:0:0:
248,140,73001,1,0,0:0:0:0:
217,169,73141,1,0,0:0:0:0:
190,194,73280,1,0,0:0:0:0:
160,224,73419,6,0,P|148:256|172:296,1,70
352,268,73975,1,0,0:0:0:0:
404,116,74252,1,0,0:0:0:0:
216,68,74530,2,0,L|128:68,2,70
112,200,75641,6,0,P|48:207|128:216,1,280
320,316,76475,1,0,0:0:0:0:
412,160,76752,2,0,L|348:196,1,70
224,152,77308,1,0,0:0:0:0:
172,144,77447,1,0,0:0:0:0:
124,136,77586,1,0,0:0:0:0:
84,128,77725,1,0,0:0:0:0:
56,120,77864,5,0,0:0:0:0:
136,192,78419,1,0,0:0:0:0:
272,204,78697,1,0,0:0:0:0:
160,308,79530,2,0,B|124:276|156:232|100:196,1,105
84,176,80086,5,0,0:0:0:0:
264,80,80364,2,0,L|312:92,1,35
444,216,80919,1,0,0:0:0:0:
292,304,81197,2,0,L|228:232,1,70
208,180,81752,1,0,0:0:0:0:
184,152,81891,1,0,0:0:0:0:
216,124,82030,1,0,0:0:0:0:
188,100,82169,1,0,0:0:0:0:
148,80,82308,6,0,L|84:52,1,70
64,192,82864,1,0,0:0:0:0:
160,296,83141,1,0,0:0:0:0:
272,332,83419,1,0,0:0:0:0:
464,220,83975,1,0,0:0:0:0:
272,280,84530,6,0,P|220:264|188:232,1,70
184,124,85086,1,0,0:0:0:0:
360,136,85364,1,0,0:0:0:0:
412,280,85641,2,0,L|324:320,1,70
240,288,86197,1,0,0:0:0:0:
208,288,86336,1,0,0:0:0:0:
168,288,86475,1,0,0:0:0:0:
136,288,86614,1,0,0:0:0:0:
88,292,86752,6,0,L|84:244,1,35
232,96,87169,2,0,L|252:156,1,35
428,280,87586,2,0,L|484:248,1,35
160,256,88975,6,0,B|144:196|172:164|128:112,1,140
288,120,89808,1,0,0:0:0:0:
332,288,90086,1,0,0:0:0:0:
468,136,90641,6,0,B|416:136|376:160|332:136,1,105
248,176,91475,1,0,0:0:0:0:
192,312,91752,1,0,0:0:0:0:
292,268,92030,1,0,0:0:0:0:
148,212,92308,1,0,0:0:0:0:
324,64,93419,6,0,P|384:108|376:168,1,140
320,232,94252,1,0,0:0:0:0:
176,212,94530,1,0,0:0:0:0:
100,116,95364,5,0,0:0:0:0:
100,116,95641,1,0,0:0:0:0:
200,224,96336,1,0,0:0:0:0:
240,236,96614,2,0,L|348:248,2,105
88,144,97864,5,0,0:0:0:0:
204,116,98697,1,0,0:0:0:0:
340,224,98975,1,0,0:0:0:0:
344,332,99808,5,0,0:0:0:0:
208,256,100086,1,0,0:0:0:0:
364,188,100641,2,0,P|324:144|288:136,1,70
208,144,101197,1,0,0:0:0:0:
408,108,102308,6,0,P|356:84|308:76,1,105
232,140,103141,1,0,0:0:0:0:
172,280,103419,2,0,P|136:248|136:208,2,70
312,284,104252,5,0,0:0:0:0:
352,256,104530,2,0,L|404:188,1,70
308,132,105364,1,0,0:0:0:0:
184,100,105641,1,0,0:0:0:0:
68,256,106197,1,0,0:0:0:0:
256,192,106752,12,0,110363,0:0:0:0:
