osu file format v14

[General]
AudioFilename: 02 Hinunter bis auf Eins.mp3
AudioLeadIn: 0
PreviewTime: 116904
Countdown: 0
SampleSet: Normal
StackLeniency: 0.7
Mode: 1
LetterboxInBreaks: 0
WidescreenStoryboard: 0

[Editor]
DistanceSpacing: 0.5
BeatDivisor: 2
GridSize: 32
TimelineZoom: 1.7

[Metadata]
Title:Hinunter bis auf Eins
TitleUnicode:Hinunter bis auf Eins
Artist:Unheilig
ArtistUnicode:Unheilig
Creator:DarkVortex
Version:Kantan
Source:
Tags:down to one der graf markus tombült henning verlage thorsten brötzmann gipfelstürmer rock alternative
BeatmapID:1535376
BeatmapSetID:727265

[Difficulty]
HPDrainRate:8
CircleSize:2
OverallDifficulty:3
ApproachRate:9
SliderMultiplier:1.2
SliderTickRate:1

[Events]
//Background and Video events
0,0,"fly-to-freedom-sky-4522-1680x1050.jpg",0,40
//Break Periods
2,135634,144245
//Storyboard Layer 0 (Background)
//Storyboard Layer 1 (Fail)
//Storyboard Layer 2 (Pass)
//Storyboard Layer 3 (Foreground)
//Storyboard Sound Samples

[TimingPoints]
185,294.117647058824,4,1,0,50,1,0
185,-133.333333333333,4,1,0,50,0,0
3714,-133.333333333333,4,1,0,100,0,0
4890,-100,4,1,0,100,0,0
50773,-100,4,1,0,100,0,1
69596,-100,4,1,0,100,0,0
97832,-100,4,1,0,100,0,1
135479,-100,4,1,0,100,0,0
154302,-100,4,1,0,100,0,1
191949,-100,4,1,0,100,0,0
201361,-100,4,1,0,30,0,0

[Colours]
Combo1 : 7,111,237
Combo2 : 249,37,6
Combo3 : 255,255,21
Combo4 : 0,234,234

[HitObjects]
256,192,140,5,8,0:0:0:0:
256,192,1316,1,8,0:0:0:0:
256,192,2492,1,8,0:0:0:0:
256,192,3669,1,4,0:0:0:0:
256,192,6022,1,4,0:0:0:0:
256,192,6316,1,4,0:0:0:0:
256,192,6904,1,4,0:0:0:0:
256,192,8375,1,4,0:0:0:0:
256,192,8669,1,4,0:0:0:0:
256,192,10728,1,4,0:0:0:0:
256,192,11022,1,4,0:0:0:0:
256,192,11904,1,8,0:0:0:0:
256,192,12492,1,8,0:0:0:0:
256,192,12787,1,8,0:0:0:0:
256,192,13081,1,8,0:0:0:0:
256,192,14257,1,8,0:0:0:0:
256,192,14845,1,0,0:0:0:0:
256,192,15140,1,0,0:0:0:0:
256,192,15434,1,8,0:0:0:0:
256,192,16610,1,8,0:0:0:0:
256,192,17198,1,8,0:0:0:0:
256,192,17492,1,8,0:0:0:0:
256,192,17787,1,8,0:0:0:0:
256,192,18963,1,8,0:0:0:0:
256,192,19551,1,0,0:0:0:0:
256,192,19845,1,0,0:0:0:0:
256,192,20140,1,8,0:0:0:0:
256,192,21316,1,8,0:0:0:0:
256,192,21610,1,8,0:0:0:0:
256,192,21904,1,8,0:0:0:0:
256,192,22198,1,8,0:0:0:0:
256,192,22492,1,0,0:0:0:0:
256,192,23669,1,0,0:0:0:0:
256,192,24845,1,0,0:0:0:0:
256,192,26022,1,0,0:0:0:0:
256,192,26904,1,8,0:0:0:0:
256,192,27198,1,0,0:0:0:0:
256,192,28375,1,0,0:0:0:0:
256,192,29551,1,0,0:0:0:0:
256,192,30728,1,0,0:0:0:0:
256,192,31316,1,8,0:0:0:0:
256,192,31610,1,8,0:0:0:0:
256,192,31904,1,0,0:0:0:0:
256,192,33081,1,0,0:0:0:0:
256,192,34257,1,0,0:0:0:0:
256,192,35434,1,0,0:0:0:0:
256,192,36022,1,8,0:0:0:0:
256,192,36316,1,8,0:0:0:0:
256,192,36610,1,0,0:0:0:0:
256,192,37787,1,0,0:0:0:0:
256,192,38963,1,0,0:0:0:0:
256,192,40140,1,0,0:0:0:0:
256,192,40728,1,8,0:0:0:0:
256,192,41022,1,8,0:0:0:0:
256,192,41316,1,0,0:0:0:0:
256,192,42492,1,0,0:0:0:0:
256,192,43669,1,0,0:0:0:0:
256,192,44845,1,0,0:0:0:0:
256,192,45434,1,8,0:0:0:0:
256,192,45728,1,8,0:0:0:0:
256,192,46022,1,0,0:0:0:0:
256,192,47198,1,0,0:0:0:0:
256,192,48375,1,0,0:0:0:0:
256,192,48963,1,0,0:0:0:0:
256,192,49551,1,8,0:0:0:0:
256,192,50140,1,0,0:0:0:0:
256,192,50434,1,0,0:0:0:0:
256,192,50728,1,0,0:0:0:0:
256,192,51610,1,8,0:0:0:0:
256,192,51904,1,0,0:0:0:0:
256,192,52492,1,0,0:0:0:0:
256,192,53081,1,8,0:0:0:0:
256,192,53669,1,8,0:0:0:0:
256,192,54257,1,0,0:0:0:0:
256,192,54845,1,0,0:0:0:0:
256,192,55140,1,0,0:0:0:0:
256,192,55434,1,0,0:0:0:0:
256,192,56610,1,8,0:0:0:0:
256,192,57198,1,0,0:0:0:0:
256,192,57787,1,0,0:0:0:0:
256,192,58081,1,8,0:0:0:0:
256,192,58669,1,8,0:0:0:0:
256,192,58963,1,0,0:0:0:0:
256,192,59551,1,8,0:0:0:0:
256,192,59845,1,8,0:0:0:0:
256,192,60140,1,0,0:0:0:0:
256,192,61022,1,8,0:0:0:0:
256,192,61316,1,0,0:0:0:0:
256,192,61904,1,0,0:0:0:0:
256,192,62492,1,8,0:0:0:0:
256,192,63669,1,0,0:0:0:0:
256,192,64257,1,0,0:0:0:0:
256,192,64551,1,0,0:0:0:0:
256,192,64845,1,8,0:0:0:0:
256,192,66022,1,8,0:0:0:0:
256,192,66610,1,0,0:0:0:0:
256,192,67198,1,8,0:0:0:0:
256,192,67492,1,8,0:0:0:0:
256,192,68081,1,8,0:0:0:0:
256,192,68375,1,0,0:0:0:0:
256,192,68963,1,0,0:0:0:0:
256,192,69551,1,12,0:0:0:0:
256,192,70728,1,0,0:0:0:0:
256,192,71904,1,0,0:0:0:0:
256,192,73081,1,0,0:0:0:0:
256,192,73963,1,8,0:0:0:0:
256,192,74257,1,8,0:0:0:0:
256,192,75434,1,8,0:0:0:0:
256,192,76610,1,8,0:0:0:0:
256,192,78375,1,8,0:0:0:0:
256,192,78669,1,8,0:0:0:0:
256,192,78963,1,0,0:0:0:0:
256,192,80140,1,0,0:0:0:0:
256,192,81316,1,0,0:0:0:0:
256,192,82492,1,0,0:0:0:0:
256,192,83081,1,8,0:0:0:0:
256,192,83375,1,8,0:0:0:0:
256,192,83669,1,0,0:0:0:0:
256,192,84845,1,0,0:0:0:0:
256,192,86022,1,0,0:0:0:0:
256,192,87198,1,0,0:0:0:0:
256,192,87787,1,8,0:0:0:0:
256,192,88081,1,8,0:0:0:0:
256,192,88375,1,0,0:0:0:0:
256,192,89551,1,0,0:0:0:0:
256,192,90728,1,0,0:0:0:0:
256,192,91904,1,0,0:0:0:0:
256,192,92492,1,8,0:0:0:0:
256,192,92787,1,8,0:0:0:0:
256,192,93081,1,0,0:0:0:0:
256,192,94257,1,0,0:0:0:0:
256,192,95434,1,0,0:0:0:0:
256,192,96022,1,0,0:0:0:0:
256,192,96610,1,8,0:0:0:0:
256,192,97198,1,8,0:0:0:0:
256,192,97787,1,0,0:0:0:0:
256,192,98669,1,8,0:0:0:0:
256,192,98963,1,0,0:0:0:0:
256,192,99551,1,0,0:0:0:0:
256,192,100140,1,8,0:0:0:0:
256,192,100728,1,8,0:0:0:0:
256,192,101316,1,0,0:0:0:0:
256,192,101904,1,0,0:0:0:0:
256,192,102198,1,0,0:0:0:0:
256,192,102492,1,0,0:0:0:0:
256,192,103669,1,8,0:0:0:0:
256,192,104257,1,0,0:0:0:0:
256,192,104845,1,0,0:0:0:0:
256,192,105140,1,8,0:0:0:0:
256,192,105728,1,8,0:0:0:0:
256,192,106022,1,0,0:0:0:0:
256,192,106610,1,8,0:0:0:0:
256,192,106904,1,8,0:0:0:0:
256,192,107198,1,0,0:0:0:0:
256,192,108081,1,8,0:0:0:0:
256,192,108375,1,0,0:0:0:0:
256,192,108963,1,0,0:0:0:0:
256,192,109551,1,8,0:0:0:0:
256,192,110140,1,8,0:0:0:0:
256,192,110728,1,0,0:0:0:0:
256,192,111316,1,0,0:0:0:0:
256,192,111610,1,0,0:0:0:0:
256,192,111904,1,0,0:0:0:0:
256,192,113081,1,8,0:0:0:0:
256,192,113669,1,0,0:0:0:0:
256,192,114257,1,8,0:0:0:0:
256,192,114551,1,8,0:0:0:0:
256,192,115140,1,8,0:0:0:0:
256,192,115434,1,0,0:0:0:0:
256,192,116022,1,8,0:0:0:0:
256,192,116316,1,8,0:0:0:0:
256,192,116610,1,4,0:0:0:0:
256,192,117198,1,0,0:0:0:0:
256,192,117492,1,0,0:0:0:0:
256,192,117787,1,8,0:0:0:0:
256,192,118963,1,0,0:0:0:0:
256,192,119404,1,0,0:0:0:0:
256,192,119845,1,0,0:0:0:0:
256,192,120140,1,8,0:0:0:0:
256,192,120728,1,0,0:0:0:0:
256,192,121022,1,8,0:0:0:0:
256,192,121316,1,0,0:0:0:0:
256,192,122492,1,8,0:0:0:0:
256,192,123081,1,0,0:0:0:0:
256,192,123669,1,8,0:0:0:0:
256,192,123963,1,8,0:0:0:0:
256,192,124257,1,8,0:0:0:0:
256,192,124845,1,8,0:0:0:0:
256,192,125140,1,0,0:0:0:0:
256,192,125434,1,8,0:0:0:0:
256,192,125728,1,8,0:0:0:0:
256,192,126022,1,0,0:0:0:0:
256,192,127198,1,8,0:0:0:0:
256,192,128081,1,0,0:0:0:0:
256,192,128375,1,8,0:0:0:0:
256,192,128963,1,8,0:0:0:0:
256,192,129551,1,0,0:0:0:0:
256,192,130140,1,0,0:0:0:0:
256,192,130434,1,8,0:0:0:0:
256,192,130728,1,8,0:0:0:0:
256,192,131904,1,0,0:0:0:0:
256,192,133081,1,8,0:0:0:0:
256,192,133522,1,8,0:0:0:0:
256,192,133963,1,8,0:0:0:0:
256,192,134404,1,8,0:0:0:0:
256,192,134845,1,8,0:0:0:0:
256,192,135434,1,0,0:0:0:0:
256,192,144845,5,0,0:0:0:0:
256,192,146022,1,0,0:0:0:0:
256,192,147198,1,0,0:0:0:0:
256,192,148375,1,0,0:0:0:0:
256,192,149551,1,0,0:0:0:0:
256,192,150728,1,0,0:0:0:0:
256,192,151904,1,0,0:0:0:0:
256,192,153081,1,8,0:0:0:0:
256,192,153669,1,8,0:0:0:0:
256,192,154257,1,0,0:0:0:0:
256,192,155140,1,8,0:0:0:0:
256,192,155434,1,0,0:0:0:0:
256,192,156022,1,0,0:0:0:0:
256,192,156610,1,8,0:0:0:0:
256,192,157198,1,8,0:0:0:0:
256,192,157787,1,0,0:0:0:0:
256,192,158375,1,0,0:0:0:0:
256,192,158669,1,0,0:0:0:0:
256,192,158963,1,0,0:0:0:0:
256,192,160140,1,8,0:0:0:0:
256,192,160728,1,0,0:0:0:0:
256,192,161316,1,0,0:0:0:0:
256,192,161610,1,8,0:0:0:0:
256,192,162198,1,8,0:0:0:0:
256,192,162492,1,0,0:0:0:0:
256,192,163081,1,8,0:0:0:0:
256,192,163669,1,0,0:0:0:0:
256,192,164551,1,8,0:0:0:0:
256,192,164845,1,0,0:0:0:0:
256,192,165434,1,0,0:0:0:0:
256,192,166022,1,8,0:0:0:0:
256,192,166610,1,8,0:0:0:0:
256,192,167198,1,0,0:0:0:0:
256,192,167787,1,0,0:0:0:0:
256,192,168081,1,0,0:0:0:0:
256,192,168375,1,8,0:0:0:0:
256,192,169551,1,8,0:0:0:0:
256,192,170140,1,8,0:0:0:0:
256,192,170728,1,0,0:0:0:0:
256,192,171022,1,8,0:0:0:0:
256,192,171610,1,8,0:0:0:0:
256,192,171904,1,0,0:0:0:0:
256,192,173081,1,4,0:0:0:0:
256,192,174257,1,8,0:0:0:0:
256,192,175434,1,8,0:0:0:0:
256,192,175875,1,8,0:0:0:0:
256,192,176316,1,8,0:0:0:0:
256,192,176610,1,0,0:0:0:0:
256,192,177198,1,0,0:0:0:0:
256,192,177492,1,0,0:0:0:0:
256,192,177787,1,8,0:0:0:0:
256,192,178963,1,8,0:0:0:0:
256,192,179551,1,0,0:0:0:0:
256,192,180140,1,8,0:0:0:0:
256,192,180728,1,8,0:0:0:0:
256,192,181316,1,8,0:0:0:0:
256,192,181610,1,0,0:0:0:0:
256,192,181904,1,0,0:0:0:0:
256,192,182198,1,0,0:0:0:0:
256,192,182492,1,8,0:0:0:0:
256,192,183669,1,0,0:0:0:0:
256,192,184551,1,0,0:0:0:0:
256,192,184845,1,8,0:0:0:0:
256,192,185434,1,8,0:0:0:0:
256,192,186022,1,0,0:0:0:0:
256,192,186610,1,0,0:0:0:0:
256,192,186904,1,0,0:0:0:0:
256,192,187198,1,8,0:0:0:0:
256,192,188375,1,0,0:0:0:0:
256,192,189551,1,8,0:0:0:0:
256,192,189992,1,8,0:0:0:0:
256,192,190434,1,8,0:0:0:0:
256,192,190728,1,0,0:0:0:0:
256,192,191316,1,0,0:0:0:0:
256,192,191610,1,0,0:0:0:0:
256,192,191904,1,0,0:0:0:0:
256,192,193081,1,0,0:0:0:0:
256,192,194257,1,0,0:0:0:0:
256,192,195434,1,0,0:0:0:0:
256,192,196316,1,8,0:0:0:0:
256,192,196610,1,0,0:0:0:0:
256,192,197787,1,8,0:0:0:0:
256,192,198963,1,8,0:0:0:0:
256,192,200140,1,8,0:0:0:0:
256,192,200728,1,8,0:0:0:0:
256,192,201022,1,8,0:0:0:0:
256,192,201316,1,0,0:0:0:0:
