osu file format v14

[General]
AudioFilename: audio.mp3
AudioLeadIn: 0
PreviewTime: -1
Countdown: 1
SampleSet: None
StackLeniency: 0.7
Mode: 1
LetterboxInBreaks: 0
WidescreenStoryboard: 0

[Editor]
Bookmarks: 15971,26942,32257,35171,37914
DistanceSpacing: 0.8
BeatDivisor: 4
GridSize: 8
TimelineZoom: 1.2

[Metadata]
Title:Luv the VANastic
TitleUnicode:Luv the VANastic
Artist:UngMan
ArtistUnicode:UngMan
Creator:Erodote
Version:Oni
Source:t+pazolite Luv the Lunastic
Tags:t+pazolite gachimuchi van luv the vanastic lunastic UngMan K.tama touhou
BeatmapID:1046104
BeatmapSetID:490831

[Difficulty]
HPDrainRate:6
CircleSize:5
OverallDifficulty:7
ApproachRate:5
SliderMultiplier:1.4
SliderTickRate:1

[Events]
//Background and Video events
//Break Periods
//Storyboard Layer 0 (Background)
//Storyboard Layer 1 (Fail)
//Storyboard Layer 2 (Pass)
//Storyboard Layer 3 (Foreground)
//Storyboard Sound Samples

[TimingPoints]
5000,342.857142857143,4,2,0,100,1,0

[HitObjects]
120,200,4999,5,0,0:0:0:0:
88,56,5342,1,0,0:0:0:0:
336,112,5685,1,2,0:0:0:0:
112,184,6200,1,0,0:0:0:0:
112,104,6285,1,0,0:0:0:0:
264,152,6371,1,2,0:0:0:0:
192,224,6714,1,0,0:0:0:0:
336,224,7057,1,2,0:0:0:0:
176,160,7742,1,0,0:0:0:0:
288,160,7914,1,0,0:0:0:0:
144,240,8085,1,2,0:0:0:0:
232,248,8257,1,2,0:0:0:0:
376,224,8428,1,0,0:0:0:0:
112,128,8600,1,0,0:0:0:0:
176,120,8685,1,0,0:0:0:0:
248,120,8771,1,2,0:0:0:0:
152,184,8942,1,2,0:0:0:0:
96,248,9114,1,2,0:0:0:0:
184,240,9285,1,2,0:0:0:0:
256,240,9457,1,0,0:0:0:0:
304,200,9628,1,0,0:0:0:0:
304,152,9800,1,2,0:0:0:0:
176,192,10485,1,0,0:0:0:0:
320,176,10828,1,2,0:0:0:0:
104,120,11171,1,0,0:0:0:0:
272,112,11514,1,2,0:0:0:0:
160,184,11857,1,0,0:0:0:0:
336,208,12200,1,2,0:0:0:0:
344,264,12371,1,2,0:0:0:0:
376,320,12542,1,0,0:0:0:0:
192,152,12885,1,2,0:0:0:0:
176,216,13228,1,0,0:0:0:0:
264,232,13400,1,0,0:0:0:0:
272,112,13571,1,2,0:0:0:0:
448,96,13742,1,2,0:0:0:0:
120,144,13914,1,2,0:0:0:0:
136,216,14085,1,0,0:0:0:0:
136,216,14257,1,0,0:0:0:0:
136,216,14428,1,2,0:0:0:0:
136,216,14600,1,0,0:0:0:0:
256,208,14771,1,2,0:0:0:0:
256,208,14942,1,2,0:0:0:0:
256,208,15114,1,2,0:0:0:0:
256,192,15285,1,0,0:0:0:0:
120,200,15971,5,0,0:0:0:0:
232,216,16142,1,2,0:0:0:0:
88,56,16314,1,0,0:0:0:0:
384,224,16485,1,2,0:0:0:0:
336,112,16657,1,0,0:0:0:0:
88,320,16828,1,0,0:0:0:0:
128,320,16914,1,0,0:0:0:0:
176,320,17000,1,2,0:0:0:0:
112,184,17172,1,2,0:0:0:0:
112,104,17257,1,2,0:0:0:0:
264,152,17343,1,0,0:0:0:0:
192,224,17686,1,0,0:0:0:0:
336,224,18029,1,2,0:0:0:0:
384,152,18371,1,2,0:0:0:0:
176,160,18714,1,0,0:0:0:0:
288,160,18886,1,0,0:0:0:0:
144,240,19057,1,2,0:0:0:0:
232,248,19229,1,2,0:0:0:0:
376,224,19400,1,0,0:0:0:0:
112,128,19572,1,0,0:0:0:0:
176,120,19657,1,0,0:0:0:0:
248,120,19743,1,2,0:0:0:0:
152,184,19914,1,2,0:0:0:0:
96,248,20086,1,2,0:0:0:0:
184,240,20257,1,2,0:0:0:0:
256,240,20429,1,0,0:0:0:0:
304,200,20600,1,0,0:0:0:0:
304,152,20772,1,2,0:0:0:0:
176,192,21457,1,0,0:0:0:0:
320,176,21800,1,2,0:0:0:0:
104,120,22143,1,0,0:0:0:0:
272,112,22486,1,2,0:0:0:0:
160,184,22829,1,0,0:0:0:0:
336,208,23172,1,2,0:0:0:0:
344,264,23343,1,2,0:0:0:0:
376,320,23514,1,0,0:0:0:0:
192,152,23857,1,2,0:0:0:0:
176,216,24200,1,0,0:0:0:0:
264,232,24372,1,0,0:0:0:0:
272,112,24543,1,2,0:0:0:0:
448,96,24714,1,2,0:0:0:0:
120,144,24886,1,2,0:0:0:0:
136,216,25057,1,0,0:0:0:0:
136,216,25229,1,0,0:0:0:0:
136,216,25400,1,2,0:0:0:0:
136,216,25572,1,0,0:0:0:0:
256,208,25743,1,2,0:0:0:0:
256,208,25914,1,2,0:0:0:0:
256,208,26086,1,2,0:0:0:0:
256,192,26257,1,0,0:0:0:0:
184,128,26942,1,4,0:0:0:0:
256,168,27114,1,0,0:0:0:0:
312,184,27285,1,2,0:0:0:0:
80,240,27457,1,2,0:0:0:0:
136,248,27542,1,2,0:0:0:0:
184,248,27628,1,0,0:0:0:0:
256,256,27800,1,0,0:0:0:0:
328,264,27971,1,2,0:0:0:0:
80,240,28142,1,2,0:0:0:0:
136,248,28227,1,2,0:0:0:0:
184,248,28313,1,0,0:0:0:0:
256,256,28485,1,0,0:0:0:0:
328,264,28656,1,2,0:0:0:0:
80,160,28828,1,0,0:0:0:0:
136,160,28914,1,0,0:0:0:0:
192,160,29000,1,2,0:0:0:0:
256,160,29171,1,0,0:0:0:0:
320,160,29342,1,2,0:0:0:0:
80,160,29514,1,0,0:0:0:0:
136,160,29600,1,0,0:0:0:0:
192,160,29686,1,2,0:0:0:0:
256,160,29857,1,0,0:0:0:0:
320,160,30028,1,2,0:0:0:0:
80,240,30200,1,2,0:0:0:0:
136,248,30285,1,2,0:0:0:0:
184,248,30371,1,0,0:0:0:0:
256,256,30543,1,0,0:0:0:0:
328,264,30714,1,2,0:0:0:0:
80,160,30885,1,0,0:0:0:0:
136,160,30971,1,0,0:0:0:0:
192,160,31057,1,2,0:0:0:0:
256,160,31228,1,0,0:0:0:0:
320,160,31399,1,2,0:0:0:0:
80,160,31571,1,0,0:0:0:0:
136,160,31657,1,0,0:0:0:0:
192,160,31743,1,2,0:0:0:0:
256,160,31914,1,0,0:0:0:0:
320,160,32085,1,2,0:0:0:0:
64,264,32257,1,0,0:0:0:0:
112,264,32342,1,0,0:0:0:0:
152,264,32428,1,0,0:0:0:0:
256,264,32600,1,2,0:0:0:0:
288,264,32685,1,2,0:0:0:0:
328,264,32771,1,2,0:0:0:0:
64,328,32942,1,0,0:0:0:0:
104,328,33028,1,0,0:0:0:0:
144,328,33114,1,0,0:0:0:0:
256,336,33285,1,2,0:0:0:0:
280,336,33371,1,2,0:0:0:0:
328,336,33457,1,2,0:0:0:0:
64,264,33628,1,0,0:0:0:0:
112,264,33713,1,0,0:0:0:0:
152,264,33799,1,0,0:0:0:0:
256,264,33971,1,2,0:0:0:0:
288,264,34056,1,2,0:0:0:0:
328,264,34142,1,2,0:0:0:0:
64,328,34313,1,0,0:0:0:0:
104,328,34399,1,0,0:0:0:0:
144,328,34485,1,0,0:0:0:0:
256,336,34656,1,2,0:0:0:0:
280,336,34742,1,2,0:0:0:0:
328,336,34828,1,2,0:0:0:0:
256,192,35000,12,0,37571,0:0:0:0:
