osu file format v14

[General]
AudioFilename: Spear of Justice (Undertale) -Dual Mix-.mp3
AudioLeadIn: 0
PreviewTime: -1
Countdown: 0
SampleSet: Normal
StackLeniency: 0.7
Mode: 0
LetterboxInBreaks: 0
WidescreenStoryboard: 0

[Editor]
DistanceSpacing: 1
BeatDivisor: 4
GridSize: 16
TimelineZoom: 1

[Metadata]
Title:Spear of Justice -Dual Mix-
TitleUnicode:Spear of Justice -Dual Mix-
Artist:Undertale
ArtistUnicode:Undertale
Creator:Nyzed
Version:Extra
Source:Undertale
Tags:Undertale
BeatmapID:848932
BeatmapSetID:389297

[Difficulty]
HPDrainRate:6
CircleSize:4
OverallDifficulty:6
ApproachRate:9
SliderMultiplier:1.4
SliderTickRate:1

[Events]
//Background and Video events
0,0,"tumblr_nwc8d5baN01rs86v5o1_r1_1280.png",0,0
//Break Periods
//Storyboard Layer 0 (Background)
//Storyboard Layer 1 (Fail)
//Storyboard Layer 2 (Pass)
//Storyboard Layer 3 (Foreground)
//Storyboard Sound Samples

[TimingPoints]
1813.44413188089,205.479452054795,4,1,0,100,1,0
1913.44413188089,-100,4,1,0,100,0,0

[HitObjects]
96,112,1607,6,0,L|160:64,1,70,8|0,0:0|0:0,0:0:0:0:
320,144,1916,1,0,0:0:0:0:
176,288,2121,1,0,0:0:0:0:
176,288,2224,1,0,0:0:0:0:
304,256,2532,1,0,0:0:0:0:
224,208,2738,1,0,0:0:0:0:
304,80,2943,1,8,0:0:0:0:
420,36,3251,1,0,0:0:0:0:
464,208,3457,1,0,0:0:0:0:
464,208,3611,1,0,0:0:0:0:
336,240,3868,2,0,L|160:176,1,140
204,192,4279,1,8,0:0:0:0:
144,80,4690,1,0,0:0:0:0:
320,32,4895,1,0,0:0:0:0:
320,32,5032,1,0,0:0:0:0:
151,155,5255,1,0,0:0:0:0:
192,272,5460,1,0,0:0:0:0:
17,100,5614,1,4,0:0:0:0:
51,66,5717,1,4,0:0:0:0:
96,44,5819,1,4,0:0:0:0:
133,39,5922,1,4,0:0:0:0:
184,37,6025,1,4,0:0:0:0:
225,44,6128,1,4,0:0:0:0:
260,57,6231,1,4,0:0:0:0:
291,74,6333,1,4,0:0:0:0:
321,101,6436,1,4,0:0:0:0:
341,131,6539,1,4,0:0:0:0:
349,167,6642,1,4,0:0:0:0:
349,198,6744,1,4,0:0:0:0:
256,193,7104,1,8,0:0:0:0:
85,113,7412,1,0,0:0:0:0:
372,52,7618,1,0,0:0:0:0:
372,52,7720,1,0,0:0:0:0:
218,346,7977,1,0,0:0:0:0:
221,222,8183,1,0,0:0:0:0:
221,222,8286,1,0,0:0:0:0:
221,222,8388,2,0,L|260:256,1,35,0|8,0:0|0:0,0:0:0:0:
260,74,8799,1,0,0:0:0:0:
370,284,9056,1,0,0:0:0:0:
370,284,9159,1,0,0:0:0:0:
194,125,9364,1,0,0:0:0:0:
291,163,9518,1,0,0:0:0:0:
291,163,9621,1,0,0:0:0:0:
291,163,9724,2,0,L|331:171,1,35,0|8,0:0|0:0,0:0:0:0:
128,96,10186,1,0,0:0:0:0:
288,32,10392,1,0,0:0:0:0:
288,32,10494,1,0,0:0:0:0:
270,146,10751,1,0,0:0:0:0:
96,256,10957,1,0,0:0:0:0:
163,302,11111,1,4,0:0:0:0:
213,286,11214,1,4,0:0:0:0:
242,253,11316,1,4,0:0:0:0:
257,212,11419,1,4,0:0:0:0:
261,168,11522,1,4,0:0:0:0:
265,128,11625,1,4,0:0:0:0:
291,94,11727,1,4,0:0:0:0:
324,70,11830,1,4,0:0:0:0:
361,94,11933,1,4,0:0:0:0:
388,132,12036,1,4,0:0:0:0:
391,175,12138,1,4,0:0:0:0:
372,216,12241,1,4,0:0:0:0:
344,245,12344,1,4,0:0:0:0:
303,261,12447,1,4,0:0:0:0:
266,260,12549,1,12,0:0:0:0:
86,161,12909,1,0,0:0:0:0:
318,81,13166,2,0,L|371:130,1,70
271,323,13474,1,0,0:0:0:0:
87,216,13679,1,0,0:0:0:0:
374,224,13936,2,0,L|328:73,1,140,8|0,0:0|0:0,0:0:0:0:
333,90,14296,1,0,0:0:0:0:
144,76,14501,2,0,L|98:134,1,70
224,298,14810,1,0,0:0:0:0:
224,298,15066,1,0,0:0:0:0:
284,235,15272,2,0,B|304:193|339:179|374:178|428:201,1,140,8|0,0:0|0:0,0:0:0:0:
402,191,15631,1,0,0:0:0:0:
415,141,15837,2,0,L|351:102,1,70
290,63,16197,1,0,0:0:0:0:
163,47,16402,1,4,0:0:0:0:
124,69,16505,1,4,0:0:0:0:
103,104,16607,1,4,0:0:0:0:
110,145,16710,1,4,0:0:0:0:
122,183,16813,1,4,0:0:0:0:
112,221,16916,1,4,0:0:0:0:
85,254,17018,1,4,0:0:0:0:
86,293,17121,1,4,0:0:0:0:
112,327,17224,1,4,0:0:0:0:
152,335,17327,1,4,0:0:0:0:
190,323,17429,1,4,0:0:0:0:
224,301,17532,1,4,0:0:0:0:
267,309,17635,1,4,0:0:0:0:
311,331,17738,1,4,0:0:0:0:
347,332,17840,1,4,0:0:0:0:
386,315,17943,1,12,0:0:0:0:
