osu file format v14

[General]
AudioFilename: audio.mp3
AudioLeadIn: 0
PreviewTime: 104015
Countdown: 0
SampleSet: None
StackLeniency: 0.7
Mode: 0
LetterboxInBreaks: 0
WidescreenStoryboard: 0

[Editor]
DistanceSpacing: 1.9
BeatDivisor: 4
GridSize: 32
TimelineZoom: 1

[Metadata]
Title:Wake Me
TitleUnicode:Wake Me
Artist:Underoath
ArtistUnicode:Underoath
Creator:Modorenai
Version:sumairu
Source:
Tags:
BeatmapID:2088913
BeatmapSetID:998735

[Difficulty]
HPDrainRate:5.5
CircleSize:4.2
OverallDifficulty:8.3
ApproachRate:9.6
SliderMultiplier:1.8
SliderTickRate:1

[Events]
//Background and Video events
0,0,"639617.jpg",0,0
//Break Periods
//Storyboard Layer 0 (Background)
//Storyboard Layer 1 (Fail)
//Storyboard Layer 2 (Pass)
//Storyboard Layer 3 (Foreground)
//Storyboard Sound Samples

[TimingPoints]
2587,357.142857142857,4,3,0,60,1,0
71158,-142.857142857143,4,3,0,60,0,0
76872,-100,4,3,0,60,0,0
105086,-250,4,3,0,60,0,0
105444,-83.3333333333333,4,3,0,90,0,0
116872,-66.6666666666667,4,3,0,90,0,0
117408,-83.3333333333333,4,3,0,90,0,0
119729,-66.6666666666667,4,3,0,90,0,0
120265,-83.3333333333333,4,3,0,90,0,0
122586,-66.6666666666667,4,3,0,90,0,0
123122,-83.3333333333333,4,3,0,90,0,0

[Colours]
Combo1 : 40,153,119
Combo2 : 196,44,17
Combo3 : 29,56,165
Combo4 : 153,45,176

[HitObjects]
243,84,71158,6,0,P|223:144|227:203,1,94.499997116089
230,226,71515,1,0,0:0:0:0:
312,150,71694,1,0,0:0:0:0:
127,190,71872,2,0,L|107:278,1,62.9999980773926
202,348,72229,2,0,L|229:225,1,125.999996154785
229,225,72765,1,0,0:0:0:0:
375,88,72944,2,0,L|391:167,1,62.9999980773926
432,277,73301,1,0,0:0:0:0:
432,277,73658,5,0,0:0:0:0:
159,251,73836,1,0,0:0:0:0:
290,26,74015,2,0,P|303:86|295:172,1,125.999996154785
249,301,74551,1,0,0:0:0:0:
174,106,74729,2,0,L|159:182,1,62.9999980773926
146,338,75086,2,0,L|234:343,1,62.9999980773926
387,318,75444,5,0,0:0:0:0:
387,318,75622,1,0,0:0:0:0:
441,104,75801,2,0,L|374:155,1,62.9999980773926
184,48,76158,2,0,L|176:178,1,125.999996154785
350,44,76872,5,0,0:0:0:0:
304,136,77051,1,0,0:0:0:0:
357,223,77229,1,0,0:0:0:0:
375,184,77408,1,0,0:0:0:0:
292,309,77586,2,0,L|174:324,1,90
88,327,77944,1,0,0:0:0:0:
97,327,78122,1,0,0:0:0:0:
181,33,78301,2,0,P|175:116|210:220,1,180
263,298,78836,1,0,0:0:0:0:
397,177,79015,1,0,0:0:0:0:
421,180,79372,5,0,0:0:0:0:
362,82,79551,1,0,0:0:0:0:
350,266,79729,2,0,P|272:271|128:255,1,180
48,240,80265,1,0,0:0:0:0:
103,38,80444,2,0,L|194:102,1,90
298,122,80801,1,0,0:0:0:0:
298,122,80979,1,0,0:0:0:0:
485,41,81158,2,0,L|459:157,1,90
434,235,81515,1,0,0:0:0:0:
396,262,81694,1,0,0:0:0:0:
378,163,81872,5,0,0:0:0:0:
239,323,82051,1,0,0:0:0:0:
241,182,82229,1,0,0:0:0:0:
243,38,82408,1,0,0:0:0:0:
239,322,82586,6,0,B|205:289|172:269|158:187,1,135
151,172,82944,1,0,0:0:0:0:
23,136,83122,1,0,0:0:0:0:
280,140,83301,1,0,0:0:0:0:
280,140,83479,1,0,0:0:0:0:
239,322,83658,1,0,0:0:0:0:
186,91,83836,1,0,0:0:0:0:
295,255,84015,6,0,L|421:252,1,90
154,185,84372,1,0,0:0:0:0:
112,182,84551,1,0,0:0:0:0:
266,11,84729,2,0,L|239:211,1,180
221,304,85265,1,0,0:0:0:0:
66,25,85444,6,0,P|113:52|141:153,1,135
146,179,85801,1,0,0:0:0:0:
20,140,85979,1,0,0:0:0:0:
246,34,86158,1,0,0:0:0:0:
201,22,86336,1,0,0:0:0:0:
70,215,86515,1,0,0:0:0:0:
0,63,86694,1,0,0:0:0:0:
440,21,86872,6,0,L|439:131,1,90
454,266,87229,1,0,0:0:0:0:
454,266,87408,1,0,0:0:0:0:
348,297,87586,2,0,L|242:286,1,90
410,328,87944,1,0,0:0:0:0:
148,298,88122,1,0,0:0:0:0:
453,25,88301,6,0,P|388:49|358:144,1,135
356,149,88658,1,0,0:0:0:0:
470,177,88836,1,0,0:0:0:0:
255,43,89015,1,0,0:0:0:0:
225,23,89194,1,0,0:0:0:0:
128,102,89372,1,0,0:0:0:0:
230,297,89551,1,0,0:0:0:0:
346,153,89729,6,0,L|240:177,1,90
138,199,90086,1,0,0:0:0:0:
138,199,90265,1,0,0:0:0:0:
163,323,90444,2,0,L|265:320,1,90
422,202,90801,2,0,L|223:178,1,180
90,173,91336,5,0,0:0:0:0:
180,67,91515,1,0,0:0:0:0:
171,244,91694,1,0,0:0:0:0:
283,67,91872,1,0,0:0:0:0:
318,31,92051,1,0,0:0:0:0:
401,137,92229,1,0,0:0:0:0:
221,175,92408,1,0,0:0:0:0:
397,334,92586,2,0,L|260:342,1,135
218,338,92944,1,0,0:0:0:0:
111,353,93122,1,0,0:0:0:0:
82,99,93301,1,0,0:0:0:0:
173,151,93479,1,0,0:0:0:0:
275,116,93658,1,0,0:0:0:0:
276,5,93836,1,0,0:0:0:0:
293,355,94015,6,0,L|278:146,1,180
274,47,94551,1,0,0:0:0:0:
154,348,94729,2,0,L|172:232,1,90
364,141,95086,2,0,L|368:237,1,90
374,340,95444,1,0,0:0:0:0:
329,342,95622,1,0,0:0:0:0:
130,35,95801,2,0,L|113:132,1,90
224,239,96158,2,0,P|306:244|366:269,1,135
385,280,96515,1,0,0:0:0:0:
397,165,96694,1,0,0:0:0:0:
99,312,96872,6,0,L|105:89,1,180
108,24,97408,1,0,0:0:0:0:
255,307,97586,2,0,L|267:207,1,90
430,64,97944,2,0,L|424:228,1,135
427,241,98301,1,0,0:0:0:0:
305,58,98479,1,0,0:0:0:0:
229,283,98658,2,0,L|344:292,1,90
479,157,99015,2,0,L|351:146,1,90
249,139,99372,1,0,0:0:0:0:
99,268,99551,1,0,0:0:0:0:
440,292,99729,6,0,P|454:248|388:102,1,180
343,37,100265,1,0,0:0:0:0:
332,244,100444,2,0,L|231:241,1,90
44,135,100801,2,0,L|172:133,1,90
392,101,101158,1,0,0:0:0:0:
399,109,101336,1,0,0:0:0:0:
472,273,101515,2,0,L|350:272,1,90
110,197,101872,2,0,L|239:202,1,90
477,111,102229,2,0,P|376:109|314:119,1,135
286,134,102586,5,0,0:0:0:0:
268,181,102944,5,0,0:0:0:0:
217,72,103122,1,0,0:0:0:0:
204,286,103301,1,0,0:0:0:0:
208,317,103658,5,0,0:0:0:0:
136,112,103836,1,0,0:0:0:0:
463,51,104015,5,0,0:0:0:0:
95,84,104194,1,0,0:0:0:0:
456,217,104372,1,0,0:0:0:0:
94,278,104551,1,0,0:0:0:0:
436,118,104729,2,0,P|352:65|295:87,1,135
293,107,105086,6,0,L|292:43,1,54
255,22,105444,6,0,P|249:111|210:246,1,215.999993408203
154,341,105979,1,0,0:0:0:0:
362,87,106158,2,0,P|351:163|398:343,1,215.999993408203
26,80,106872,2,0,P|110:80|168:93,1,107.999996704102
263,248,107229,1,0,0:0:0:0:
129,180,107408,1,0,0:0:0:0:
261,45,107586,2,0,L|260:179,1,107.999996704102
105,334,107944,2,0,P|255:329|293:355,1,161.999995056153
305,349,108301,2,0,P|294:292|317:109,1,215.999993408203
349,52,108836,1,0,0:0:0:0:
105,334,109015,6,0,P|156:272|164:216,1,107.999996704102
466,255,109372,2,0,P|377:162|378:155,1,107.999996704102
36,181,109729,2,0,P|161:171|188:121,1,161.999995056153
197,115,110086,1,0,0:0:0:0:
242,0,110265,1,0,0:0:0:0:
470,172,110444,2,0,L|344:188,1,107.999996704102
0,79,110801,2,0,L|120:85,1,107.999996704102
229,356,111158,6,0,P|203:256|232:119,1,215.999993408203
256,26,111694,1,0,0:0:0:0:
445,208,111872,2,0,L|309:204,1,107.999996704102
103,97,112229,2,0,P|110:202|130:226,1,107.999996704102
191,345,112586,2,0,L|325:339,1,107.999996704102
430,317,112944,1,0,0:0:0:0:
414,89,113122,1,0,0:0:0:0:
321,228,113301,2,0,L|454:238,1,107.999996704102
274,87,113658,2,0,L|145:84,1,107.999996704102
52,289,114015,2,0,L|219:298,1,161.999995056153
258,311,114372,1,0,0:0:0:0:
475,237,114551,1,0,0:0:0:0:
268,128,114729,1,0,0:0:0:0:
146,164,115086,6,0,L|263:185,1,107.999996704102
397,59,115444,2,0,L|399:169,1,107.999996704102
358,296,115801,1,0,0:0:0:0:
412,329,115979,1,0,0:0:0:0:
295,155,116158,5,0,0:0:0:0:
246,304,116336,1,0,0:0:0:0:
97,247,116515,1,0,0:0:0:0:
117,92,116694,1,0,0:0:0:0:
412,0,116872,6,0,B|378:74|378:74|386:287,1,270.000010299683
389,357,117408,1,0,0:0:0:0:
187,35,117586,2,0,L|194:169,1,107.999996704102
201,307,117944,1,0,0:0:0:0:
201,307,118122,1,0,0:0:0:0:
284,146,118301,5,0,0:0:0:0:
81,181,118479,1,0,0:0:0:0:
306,260,118658,1,0,0:0:0:0:
175,77,118836,1,0,0:0:0:0:
96,303,119015,1,0,0:0:0:0:
333,168,119194,1,0,0:0:0:0:
210,63,119372,2,0,P|225:164|195:243,1,161.999995056153
250,349,119729,6,0,B|240:272|240:272|310:78,1,270.000010299683
347,13,120265,1,0,0:0:0:0:
404,384,120444,2,0,L|410:236,1,107.999996704102
426,145,120801,1,0,0:0:0:0:
426,145,120979,1,0,0:0:0:0:
208,149,121158,5,0,0:0:0:0:
483,212,121336,1,0,0:0:0:0:
281,279,121515,1,0,0:0:0:0:
363,67,121694,1,0,0:0:0:0:
400,295,121872,1,0,0:0:0:0:
446,131,122051,1,0,0:0:0:0:
282,282,122229,2,0,P|256:160|273:82,1,161.999995056153
212,24,122586,6,0,B|245:96|245:96|170:295,1,270.000010299683
138,363,123122,1,0,0:0:0:0:
390,2,123301,2,0,L|343:234,1,215.999993408203
347,213,124015,6,0,L|222:204,1,107.999996704102
88,109,124372,1,0,0:0:0:0:
270,57,124551,1,0,0:0:0:0:
158,371,124729,2,0,L|180:235,1,107.999996704102
357,320,125086,2,0,P|332:213|400:153,1,161.999995056153
392,139,125444,2,0,L|243:134,1,107.999996704102
93,124,125801,1,0,0:0:0:0:
439,247,125979,1,0,0:0:0:0:
284,41,126158,1,0,0:0:0:0:
284,41,126515,6,0,L|245:197,1,107.999996704102
189,348,126872,2,0,L|150:214,1,107.999996704102
116,106,127229,1,0,0:0:0:0:
176,214,127408,1,0,0:0:0:0:
79,298,127586,5,0,0:0:0:0:
345,319,127765,1,0,0:0:0:0:
10,203,127944,1,0,0:0:0:0:
471,250,128122,1,0,0:0:0:0:
92,104,128301,1,0,0:0:0:0:
