osu file format v14

[General]
AudioFilename: coming.mp3
AudioLeadIn: 0
PreviewTime: 46523
Countdown: 0
SampleSet: Soft
StackLeniency: 0.5
Mode: 0
LetterboxInBreaks: 0
WidescreenStoryboard: 1

[Editor]
Bookmarks: 21497,31523,46681,78234,78339,98471,105497,106760,107076,158944,179313,195023
DistanceSpacing: 1
BeatDivisor: 4
GridSize: 32
TimelineZoom: 1.2

[Metadata]
Title:Coming Down Is Calming Down
TitleUnicode:Coming Down Is Calming Down
Artist:Underoath
ArtistUnicode:Underoath
Creator:pishifat
Version:Normal
Source:
Tags:metal punk emo lost in the sound of separation
BeatmapID:1099470
BeatmapSetID:487559

[Difficulty]
HPDrainRate:4
CircleSize:3.5
OverallDifficulty:4.5
ApproachRate:5.5
SliderMultiplier:0.999999999999999
SliderTickRate:1

[Events]
//Background and Video events
0,0,"1cheyenne-5-12-069w1.jpg",0,0
//Break Periods
2,139013,157898
//Storyboard Layer 0 (Background)
//Storyboard Layer 1 (Fail)
//Storyboard Layer 2 (Pass)
//Storyboard Layer 3 (Foreground)
//Storyboard Sound Samples

[TimingPoints]
-135,315.789473684211,4,2,1,60,1,0
575,-90.9090909090909,4,2,1,60,0,0
1129,315.789473684211,4,2,1,80,1,0
1129,-90.9090909090909,4,2,1,80,0,0
1602,-90.9090909090909,4,2,1,80,0,0
2076,-90.9090909090909,4,2,1,80,0,0
3181,-90.9090909090909,4,2,1,80,0,0
3655,-90.9090909090909,4,2,1,80,0,0
4760,-90.9090909090909,4,2,1,80,0,0
5234,-90.9090909090909,4,2,1,80,0,0
6655,-90.9090909090909,4,2,1,80,0,0
7129,-90.9090909090909,4,2,1,80,0,0
8234,-90.9090909090909,4,2,1,80,0,0
8550,-90.9090909090909,4,2,1,80,0,0
9813,-90.9090909090909,4,2,1,80,0,0
10129,-90.9090909090909,4,2,1,80,0,0
11629,-90.9090909090909,4,2,1,80,0,0
12023,-90.9090909090909,4,2,1,80,0,0
12181,-90.9090909090909,4,2,1,55,0,0
12497,-90.9090909090909,4,2,1,65,0,0
12813,-90.9090909090909,4,2,1,75,0,0
13129,-90.9090909090909,4,2,1,85,0,0
13286,-90.9090909090909,4,2,1,80,0,0
13760,-90.9090909090909,4,2,1,80,0,0
14865,-90.9090909090909,4,2,1,80,0,0
15339,-90.9090909090909,4,2,1,80,0,0
16760,-90.9090909090909,4,2,1,80,0,0
17234,-90.9090909090909,4,2,1,60,0,0
17550,-90.9090909090909,4,2,1,60,0,0
17865,-90.9090909090909,4,2,1,50,0,0
18181,-90.9090909090909,4,2,1,55,0,0
18813,-90.9090909090909,4,2,1,60,0,0
19444,-90.9090909090909,4,2,1,65,0,0
20076,-90.9090909090909,4,2,1,70,0,0
20707,-90.9090909090909,4,2,1,75,0,0
21813,-90.9090909090909,4,2,1,74,0,0
26392,-90.9090909090909,4,2,1,74,0,0
30339,-90.9090909090909,4,2,1,65,0,0
31129,-90.9090909090909,4,2,1,65,0,0
31444,-90.9090909090909,4,2,1,80,0,0
31918,-90.9090909090909,4,2,1,80,0,0
32392,-90.9090909090909,4,2,1,65,0,0
36497,-90.9090909090909,4,2,1,80,0,0
36971,-90.9090909090909,4,2,1,80,0,0
37444,-90.9090909090909,4,2,1,70,0,0
40918,-90.9090909090909,4,2,1,80,0,0
42023,-90.9090909090909,4,2,1,80,0,0
42339,-90.9090909090909,4,2,1,65,0,0
46286,-90.9090909090909,4,2,1,65,0,0
46602,-90.9090909090909,4,2,1,65,0,0
54181,-90.9090909090909,4,2,1,72,0,0
56076,-90.9090909090909,4,2,1,80,0,0
56392,-90.9090909090909,4,2,1,80,0,0
56707,-90.9090909090909,4,2,1,75,0,1
61760,-90.9090909090909,4,2,1,75,0,1
63181,-90.9090909090909,4,2,1,75,0,1
69339,-90.9090909090909,4,2,1,75,0,1
74392,-90.9090909090909,4,2,1,71,0,0
76129,-90.9090909090909,4,2,1,71,0,0
76760,-90.9090909090909,4,2,1,71,0,0
76813,-90.9090909090909,4,2,1,40,0,0
76918,-90.9090909090909,4,2,1,60,0,0
77023,-90.9090909090909,4,2,1,71,0,0
77865,-90.9090909090909,4,2,1,71,0,0
78181,-90.9090909090909,4,2,1,65,0,0
88286,-90.9090909090909,4,2,1,65,0,0
95865,-90.9090909090909,4,2,1,50,0,0
96497,-90.9090909090909,4,2,1,60,0,0
97129,-90.9090909090909,4,2,1,70,0,0
97760,-90.9090909090909,4,2,1,80,0,0
98392,-90.9090909090909,4,2,1,80,0,0
98865,-90.9090909090909,4,2,1,80,0,0
99339,-90.9090909090909,4,2,2,80,0,0
100444,-90.9090909090909,4,2,1,80,0,0
100918,-90.9090909090909,4,2,2,80,0,0
101707,-90.9090909090909,4,2,1,80,0,0
102497,-90.9090909090909,4,2,2,80,0,0
103444,-90.9090909090909,4,2,1,80,0,0
103760,-90.9090909090909,4,2,1,80,0,0
104392,-90.9090909090909,4,2,3,80,0,0
105497,-90.9090909090909,4,2,1,80,0,0
105971,-90.9090909090909,4,2,3,80,0,0
106760,-90.9090909090909,4,2,1,80,0,0
107865,-90.9090909090909,4,2,1,80,0,0
108971,-90.9090909090909,4,2,1,80,0,0
109286,-90.9090909090909,4,2,1,80,0,0
110550,-90.9090909090909,4,2,1,80,0,0
111023,-90.9090909090909,4,2,1,80,0,0
112129,-90.9090909090909,4,2,1,80,0,0
112918,-90.9090909090909,4,2,1,80,0,0
113944,-90.9090909090909,4,2,1,50,0,0
114023,-90.9090909090909,4,2,1,80,0,0
114339,-90.9090909090909,4,2,1,80,0,0
115602,-90.9090909090909,4,2,1,80,0,0
115918,-90.9090909090909,4,2,1,80,0,0
117181,-90.9090909090909,4,2,1,80,0,0
117655,-90.9090909090909,4,2,1,80,0,0
118602,-90.9090909090909,4,2,1,65,0,0
118918,-90.9090909090909,4,2,1,65,0,0
119550,-90.9090909090909,4,2,1,65,0,0
119865,-90.9090909090909,4,2,1,65,0,0
121129,-90.9090909090909,4,2,1,71,0,1
126181,-90.9090909090909,4,2,1,71,0,1
128392,-90.9090909090909,4,2,1,71,0,1
128707,-90.9090909090909,4,2,1,71,0,1
133760,-90.9090909090909,4,2,1,71,0,1
138813,-90.9090909090909,4,2,1,62,0,0
179234,329.67032967033,3,2,1,80,1,0
179234,-90.9090909090909,3,2,1,80,0,0
187146,337.078651685393,3,2,1,80,1,0
187146,-90.9090909090909,3,2,1,80,0,0

[Colours]
Combo1 : 255,200,145
Combo2 : 255,157,228
Combo3 : 135,225,233
Combo4 : 189,247,138

[HitObjects]
214,54,1129,6,0,B|267:63|267:63|333:38,1,110.000003356934,4|8,0:1|0:0,0:0:0:0:
370,22,1602,2,0,P|326:100|329:181,1,165.0000050354,4|8,0:1|0:0,0:0:0:0:
403,253,2392,2,0,L|518:244,2,110.000003356934,2|8|2,0:0|0:0|0:0,0:0:0:0:
361,289,3181,2,0,L|187:300,1,165.0000050354,12|2,0:1|0:0,0:0:0:0:
119,219,3971,6,0,B|108:163|108:163|147:101,1,110.000003356934,8|2,0:0|0:0,0:0:0:0:
174,79,4444,1,12,0:1:0:0:
208,183,4760,2,0,P|304:169|360:119,1,165.0000050354,12|8,0:1|0:0,0:0:0:0:
367,72,5392,1,2,0:0:0:0:
344,21,5550,1,8,0:0:0:0:
250,79,5865,1,8,0:0:0:0:
150,31,6181,2,0,B|95:24|95:24|38:58,1,110.000003356934,8|2,0:0|0:0,0:0:0:0:
24,102,6655,6,0,L|43:286,1,165.0000050354,4|8,0:1|0:0,0:0:0:0:
97,360,7444,2,0,B|153:366|153:366|218:328,1,110.000003356934,2|8,0:0|0:0,0:0:0:0:
257,245,8076,1,2,0:0:0:0:
257,245,8234,2,0,P|344:247|420:292,1,165.0000050354,12|2,0:1|0:0,0:0:0:0:
496,352,9023,6,0,L|505:227,1,110.000003356934,8|2,0:0|0:0,0:0:0:0:
512,187,9497,1,12,0:1:0:0:
465,87,9813,2,0,L|282:107,1,165.0000050354,12|8,0:1|0:0,0:0:0:0:
250,83,10444,1,2,0:0:0:0:
222,35,10602,1,8,0:0:0:0:
145,114,10918,1,8,0:0:0:0:
70,194,11234,2,0,L|2:190,2,55.0000016784668,8|2|2,0:0|0:0|0:0,0:0:0:0:
114,226,11707,6,0,L|227:234,1,110.000003356934,4|0,0:1|0:0,0:0:0:0:
272,260,12181,1,8,0:0:0:0:
371,212,12497,1,8,0:0:0:0:
437,292,12813,1,8,0:0:0:0:
342,348,13129,1,8,0:0:0:0:
342,348,13286,2,0,P|234:359|180:327,1,165.0000050354,4|2,0:1|0:0,0:0:0:0:
129,239,14076,6,0,L|139:110,1,110.000003356934,8|2,0:0|0:0,0:0:0:0:
144,74,14550,1,12,0:1:0:0:
238,129,14865,2,0,P|313:130|397:73,1,165.0000050354,12|8,0:1|0:0,0:0:0:0:
416,36,15497,1,2,0:0:0:0:
468,19,15655,1,8,0:0:0:0:
512,113,15971,1,8,0:0:0:0:
470,211,16286,2,0,L|477:276,2,55.0000016784668,8|2|2,0:0|0:0|0:0,0:0:0:0:
427,176,16760,6,0,P|347:179|273:241,1,165.0000050354,4|2,0:1|0:0,0:0:0:0:
203,306,17550,2,0,L|209:379,2,55.0000016784668,2|2|2,0:0|0:0|0:0,0:0:0:0:
114,240,18181,2,0,L|100:308,2,55.0000016784668,2|2|2,0:0|0:0|0:0,0:0:0:0:
53,147,18813,2,0,L|12:202,2,55.0000016784668,2|2|2,0:0|0:0|0:0,0:0:0:0:
49,36,19444,2,0,L|-14:66,2,55.0000016784668,2|2|2,0:0|0:0|0:0,0:0:0:0:
139,98,20076,5,2,0:0:0:0:
241,138,20392,1,2,0:0:0:0:
315,57,20707,1,2,0:0:0:0:
415,101,21023,1,8,0:0:0:0:
337,179,21339,6,0,L|326:306,1,110.000003356934,12|2,0:0|0:0,0:0:0:0:
330,343,21813,2,0,B|284:314|284:314|216:327,1,110.000003356934,12|2,0:0|0:0,0:0:0:0:
178,345,22286,2,0,L|56:334,1,110.000003356934,6|0,0:0|0:0,0:0:0:0:
13,324,22760,2,0,B|-13:277|-13:277|-3:213,1,110.000003356934,6|2,0:0|0:0,0:0:0:0:
6,167,23234,1,8,0:0:0:0:
114,187,23550,1,2,0:0:0:0:
222,202,23865,6,0,L|347:189,1,110.000003356934,12|2,0:0|0:0,0:0:0:0:
386,185,24339,2,0,B|412:136|412:136|404:74,1,110.000003356934,12|2,0:0|0:0,0:0:0:0:
400,26,24813,1,6,0:0:0:0:
296,63,25129,1,2,0:0:0:0:
242,53,25286,1,8,0:0:0:0:
187,43,25444,2,0,B|133:38|133:38|79:66,2,110.000003356934,8|8|8,0:0|0:0|0:0,0:0:0:0:
296,63,26392,6,0,L|306:195,1,110.000003356934,4|2,0:0|0:0,0:0:0:0:
279,221,26865,2,0,L|404:212,1,110.000003356934,12|2,0:0|0:0,0:0:0:0:
435,183,27339,2,0,L|444:310,1,110.000003356934,12|2,0:0|0:0,0:0:0:0:
471,339,27813,2,0,L|351:349,1,110.000003356934,12|2,0:0|0:0,0:0:0:0:
306,353,28286,1,12,0:0:0:0:
196,365,28602,1,8,0:0:0:0:
86,377,28918,6,0,B|59:332|59:332|64:268,1,110.000003356934,12|2,0:0|0:0,0:0:0:0:
100,233,29392,2,0,B|104:176|104:176|71:129,1,110.000003356934,12|2,0:0|0:0,0:0:0:0:
36,91,29865,2,0,L|151:81,1,110.000003356934,12|2,0:0|0:0,0:0:0:0:
194,55,30339,2,0,L|313:63,1,110.000003356934,12|2,0:0|0:0,0:0:0:0:
351,89,30813,1,8,0:0:0:0:
455,53,31129,1,8,0:0:0:0:
435,161,31444,6,0,L|427:285,1,110.000003356934,4|8,0:0|0:0,0:0:0:0:
453,319,31918,2,0,P|374:318|288:371,1,165.0000050354,4|8,0:0|0:0,0:0:0:0:
195,324,32707,6,0,L|186:208,3,110.000003356934,8|8|8|8,0:0|0:0|0:0|0:0,0:0:0:0:
284,160,33971,2,0,L|293:270,3,110.000003356934,8|8|8|8,0:0|0:0|0:0|0:0,0:0:0:0:
390,210,35234,2,0,L|381:94,3,110.000003356934,8|8|8|8,0:0|0:0|0:0|0:0,0:0:0:0:
315,12,36497,6,0,B|260:7|260:7|201:50,1,110.000003356934,4|8,0:0|0:0,0:0:0:0:
178,79,36971,2,0,P|99:72|24:25,1,165.0000050354,4|8,0:0|0:0,0:0:0:0:
38,137,37760,6,0,B|91:196|91:196|59:301,1,165.0000050354,8|8,0:0|0:0,0:0:0:0:
119,294,38392,2,0,B|143:218|143:218|250:193,1,165.0000050354,8|8,0:0|0:0,0:0:0:0:
282,200,39023,2,0,B|365:219|365:219|390:294,1,165.0000050354,8|8,0:0|0:0,0:0:0:0:
443,278,39655,2,0,B|418:196|418:196|471:137,1,165.0000050354,8|8,0:0|0:0,0:0:0:0:
507,96,40286,1,8,0:0:0:0:
423,50,40602,2,0,P|393:50|361:56,1,55.0000016784668,0|2,0:0|0:0,0:0:0:0:
322,84,40918,5,8,0:0:0:0:
219,44,41234,1,8,0:0:0:0:
143,124,41550,2,0,L|154:242,1,110.000003356934,8|2,0:0|0:0,0:0:0:0:
137,286,42023,2,0,P|203:242|294:246,1,165.0000050354,4|8,0:0|0:0,0:0:0:0:
370,314,42813,6,0,L|489:322,3,110.000003356934,8|8|8|8,0:0|0:0|0:0|0:0,0:0:0:0:
487,211,44076,2,0,L|377:203,3,110.000003356934,8|8|8|8,0:0|0:0|0:0|0:0,0:0:0:0:
382,93,45339,2,0,L|491:100,2,110.000003356934,8|8|8,0:0|0:0|0:0,0:0:0:0:
272,85,46286,2,0,L|200:81,1,55.0000016784668,8|0,0:0|0:0,0:0:0:0:
161,80,46602,6,0,P|222:145|200:271,1,220.000006713867,8|0,0:0|0:0,0:0:0:0:
95,290,47550,2,0,P|34:225|56:99,1,220.000006713867,8|4,0:0|0:3,0:0:0:0:
161,80,48497,2,0,L|288:90,1,110.000003356934,8|0,0:0|0:0,0:0:0:0:
365,145,49129,6,0,P|261:121|178:187,1,220.000006713867,8|0,0:0|0:0,0:0:0:0:
201,296,50077,2,0,P|304:319|387:253,1,220.000006713867,8|0,0:0|0:0,0:0:0:0:
365,145,51023,2,0,B|344:90|344:90|362:29,1,110.000003356934,8|4,0:0|0:3,0:0:0:0:
459,86,51655,6,0,L|237:97,1,220.000006713867,8|4,0:0|0:3,0:0:0:0:
246,206,52602,2,0,L|465:195,1,220.000006713867,8|0,0:0|0:0,0:0:0:0:
473,305,53550,2,0,L|361:312,1,110.000003356934,8|4,0:0|0:3,0:0:0:0:
260,352,54181,6,0,B|211:379|211:379|133:370,1,110.000003356934,12|8,0:0|0:0,0:0:0:0:
108,345,54655,2,0,L|100:223,1,110.000003356934,8|8,0:0|0:0,0:0:0:0:
96,179,55129,1,2,0:0:0:0:
92,124,55286,2,0,B|139:97|139:97|203:107,1,110.000003356934,8|8,0:0|0:0,0:0:0:0:
243,129,55760,1,8,0:0:0:0:
350,105,56076,1,2,0:3:0:0:
319,210,56392,1,8,0:0:0:0:
364,309,56707,6,0,P|461:292|484:269,1,110.000003356934,4|8,0:0|0:0,0:0:0:0:
494,239,57181,2,0,L|486:118,1,110.000003356934,2|8,0:0|0:0,0:0:0:0:
446,91,57655,2,0,B|324:66|368:148|232:123,1,220.000006713867,2|8,0:0|0:0,0:0:0:0:
210,16,58602,2,0,L|283:22,2,55.0000016784668,2|8|8,0:0|0:0|0:0,0:0:0:0:
100,26,59234,6,0,P|45:81|43:133,1,110.000003356934,4|8,0:0|0:0,0:0:0:0:
61,160,59707,2,0,L|72:271,1,110.000003356934,2|8,0:0|0:0,0:0:0:0:
54,322,60181,2,0,P|138:357|269:351,1,220.000006713867,2|8,0:0|0:0,0:0:0:0:
339,270,61129,2,0,L|347:200,1,55.0000016784668,2|8,0:0|0:0,0:0:0:0:
351,160,61444,1,8,0:0:0:0:
253,211,61760,5,4,0:0:0:0:
219,106,62076,1,8,0:0:0:0:
318,59,62392,2,0,P|375:58|436:92,1,110.000003356934,2|8,0:0|0:0,0:0:0:0:
445,129,62865,1,2,0:0:0:0:
483,232,63181,2,0,L|543:236,2,55.0000016784668,8|8|2,0:0|0:0|0:0,0:0:0:0:
430,249,63655,2,0,L|356:242,1,55.0000016784668,8|8,0:0|0:0,0:0:0:0:
321,256,63971,1,2,0:0:0:0:
257,166,64286,6,0,P|191:165|142:199,1,110.000003356934,4|8,0:0|0:0,0:0:0:0:
134,238,64760,2,0,P|133:288|98:345,1,110.000003356934,2|8,0:0|0:0,0:0:0:0:
61,374,65234,2,0,B|85:252|-3:287|26:161,1,220.000006713867,2|8,0:0|0:0,0:0:0:0:
106,91,66181,2,0,L|116:21,2,55.0000016784668,2|8|8,0:0|0:0|0:0,0:0:0:0:
132,139,66655,1,2,0:0:0:0:
160,185,66813,6,0,P|247:174|284:150,1,110.000003356934,4|8,0:0|0:0,0:0:0:0:
293,116,67286,2,0,P|343:95|407:99,1,110.000003356934,2|8,0:0|0:0,0:0:0:0:
447,120,67760,2,0,P|497:201|485:340,1,220.000006713867,2|8,0:0|0:0,0:0:0:0:
441,343,68550,1,2,0:0:0:0:
389,361,68707,2,0,L|329:354,2,55.0000016784668,2|0|8,0:0|0:0|0:0,0:0:0:0:
383,250,69339,5,4,0:0:0:0:
274,234,69655,2,0,P|249:181|253:116,1,110.000003356934,8|2,0:0|0:0,0:0:0:0:
275,82,70129,1,8,0:0:0:0:
167,57,70444,2,0,L|48:70,1,110.000003356934,2|0,0:0|0:0,0:0:0:0:
10,97,70918,1,8,0:0:0:0:
94,167,71234,2,0,L|158:159,2,55.0000016784668,2|0|8,0:0|0:0|0:0,0:0:0:0:
20,248,71865,5,4,0:0:0:0:
104,318,72181,2,0,P|181:302|215:270,1,110.000003356934,8|2,0:0|0:0,0:0:0:0:
228,233,72655,1,8,0:0:0:0:
233,178,72813,1,0,0:0:0:0:
334,134,73129,2,0,L|453:142,1,110.000003356934,2|8,0:0|0:0,0:0:0:0:
437,251,73760,2,0,L|327:243,1,110.000003356934,2|8,0:0|0:0,0:0:0:0:
233,178,74392,5,4,0:0:0:0:
182,275,74707,1,2,0:0:0:0:
130,372,75023,2,0,L|65:368,1,55.0000016784668,8|8,0:0|0:0,0:0:0:0:
20,362,75339,2,0,L|8:246,1,110.000003356934,8|8,0:0|0:0,0:0:0:0:
2,197,75813,2,0,L|-3:134,2,55.0000016784668,8|2|8,0:0|0:0|0:0,0:0:0:0:
109,221,76444,2,0,L|103:103,1,110.000003356934,8|4,0:0|0:3,0:0:0:0:
175,27,77076,1,4,0:3:0:0:
262,94,77392,2,0,L|268:160,2,55.0000016784668,8|0|0,0:3|0:0|0:0,0:0:0:0:
291,47,77865,1,12,0:0:0:0:
398,25,78181,6,8,P|434:40|449:54,2,55.0000016784668
373,188,78971,1,8,0:0:0:0:
312,279,79286,1,8,0:0:0:0:
208,317,79602,1,8,0:0:0:0:
98,308,79918,2,8,L|37:299,2,55.0000016784668
134,266,80392,1,8,0:0:0:0:
54,190,80707,6,8,P|45:152|48:131,2,55.0000016784668
152,57,81497,1,8,0:0:0:0:
261,43,81813,1,8,0:0:0:0:
361,88,82129,1,8,0:0:0:0:
405,188,82444,2,8,L|396:253,2,55.0000016784668
446,151,82918,1,8,0:0:0:0:
361,88,83234,6,8,P|335:96|313:112,2,55.0000016784668
217,5,84023,1,8,0:0:0:0:
164,101,84339,1,8,0:0:0:0:
200,204,84655,1,8,0:0:0:0:
130,289,84971,2,8,L|68:278,2,55.0000016784668
175,319,85444,1,8,0:0:0:0:
279,284,85760,6,8,P|333:281|384:301,1,110.000003356934
424,339,86234,1,8,0:0:0:0:
452,384,86392,1,2,0:0:0:0:
506,288,86707,1,8,0:0:0:0:
437,201,87023,2,0,P|440:146|466:98,1,110.000003356934,2|2,0:0|0:0,0:0:0:0:
504,57,87497,1,2,0:0:0:0:
482,6,87655,1,12,0:0:0:0:
376,38,87971,1,12,0:0:0:0:
268,61,88286,6,8,P|229:41|213:14,2,55.0000016784668
372,188,89076,1,8,0:0:0:0:
269,229,89392,1,8,0:0:0:0:
163,198,89707,1,8,0:0:0:0:
67,252,90023,2,8,L|74:320,2,55.0000016784668
41,202,90497,1,8,0:0:0:0:
92,104,90813,6,8,P|72:84|47:73,2,55.0000016784668
199,229,91602,1,8,0:0:0:0:
288,165,91918,1,8,0:0:0:0:
388,209,92234,1,8,0:0:0:0:
391,319,92550,2,8,L|379:392,2,55.0000016784668
442,300,93023,1,8,0:0:0:0:
503,208,93339,6,8,P|503:180|493:155,2,55.0000016784668
339,230,94129,1,8,0:0:0:0:
230,214,94444,1,8,0:0:0:0:
168,122,94760,1,8,0:0:0:0:
206,18,95076,2,8,L|261:24,2,55.0000016784668
150,13,95550,1,8,0:0:0:0:
168,122,95865,5,8,0:0:0:0:
271,156,96181,1,2,0:0:0:0:
238,259,96497,1,2,0:0:0:0:
133,229,96813,1,2,0:0:0:0:
172,121,97129,5,2,0:0:0:0:
274,160,97445,1,2,0:0:0:0:
233,262,97761,1,2,0:0:0:0:
130,223,98077,1,2,0:0:0:0:
151,330,98392,6,0,P|197:358|268:354,1,110.000003356934,4|8,0:1|0:0,0:0:0:0:
304,344,98865,1,4,0:1:0:0:
372,194,99339,2,0,B|286:254|170:197|216:167|123:84|18:140,1,385.000011749268,8|12,0:0|0:1,0:0:0:0:
80,291,100918,6,0,L|116:18,1,275.000008392334,8|12,0:0|0:1,0:0:0:0:
225,3,102023,1,12,0:1:0:0:
232,167,102497,2,0,P|291:220|318:90,1,275.000008392334,8|8,0:0|0:0,0:0:0:0:
268,82,103444,6,0,L|150:74,1,110.000003356934,4|8,0:0|0:0,0:0:0:0:
103,68,103918,1,4,0:1:0:0:
70,229,104392,2,0,B|155:289|271:232|225:202|318:119|423:175,1,385.000011749268,8|12,0:0|0:1,0:0:0:0:
329,311,105971,6,0,P|241:199|271:70,1,275.000008392334,8|12,0:0|0:1,0:0:0:0:
173,16,107076,2,0,L|49:27,1,110.000003356934,12|0,0:1|0:0,0:0:0:0:
8,32,107550,1,8,0:0:0:0:
83,111,107865,5,8,0:0:0:0:
22,203,108181,1,8,0:0:0:0:
112,274,108497,2,0,B|154:244|154:244|231:253,1,110.000003356934,8|2,0:0|0:0,0:0:0:0:
255,284,108971,6,0,L|368:274,1,110.000003356934,4|0,0:1|0:0,0:0:0:0:
414,251,109444,2,0,L|533:263,2,110.000003356934,8|2|8,0:0|0:0|0:0,0:0:0:0:
332,176,110392,1,2,0:0:0:0:
332,176,110550,2,0,P|381:107|363:12,1,165.0000050354,12|2,0:1|0:0,0:0:0:0:
274,79,111339,6,0,B|218:86|218:86|162:66,1,110.000003356934,8|2,0:0|0:0,0:0:0:0:
116,46,111813,1,12,0:1:0:0:
39,125,112129,2,0,L|50:257,1,110.000003356934,12|0,0:1|0:0,0:0:0:0:
57,288,112602,1,8,0:0:0:0:
152,232,112918,5,8,0:0:0:0:
230,309,113234,1,8,0:0:0:0:
322,250,113550,2,0,L|326:180,2,55.0000016784668,8|8|8,0:0|0:0|0:0,0:0:0:0:
365,282,114023,6,0,L|382:91,1,165.0000050354,4|8,0:1|0:0,0:0:0:0:
334,17,114813,1,2,0:0:0:0:
239,73,115129,1,8,0:0:0:0:
143,18,115444,1,2,0:0:0:0:
143,18,115602,2,0,L|121:194,1,165.0000050354,12|2,0:1|0:0,0:0:0:0:
207,252,116392,6,0,B|257:225|257:225|331:232,1,110.000003356934,8|2,0:0|0:0,0:0:0:0:
358,255,116865,1,12,0:1:0:0:
327,360,117181,2,0,L|150:344,1,165.0000050354,12|0,0:1|0:0,0:0:0:0:
73,279,117971,1,8,0:0:0:0:
125,182,118286,1,8,0:0:0:0:
217,241,118602,6,0,L|395:255,1,165.0000050354,8|4,0:0|0:3,0:0:0:0:
412,91,119550,2,0,L|234:77,1,165.0000050354,8|4,0:3|0:3,0:0:0:0:
115,176,120497,2,0,L|120:250,2,55.0000016784668,8|8|8,0:0|0:0|0:0,0:0:0:0:
148,75,121129,6,0,P|51:92|28:115,1,110.000003356934,4|8,0:0|0:0,0:0:0:0:
18,145,121603,2,0,L|26:266,1,110.000003356934,2|8,0:0|0:0,0:0:0:0:
66,293,122077,2,0,B|188:318|144:236|280:261,1,220.000006713867,2|8,0:0|0:0,0:0:0:0:
302,368,123024,2,0,L|229:362,2,55.0000016784668,2|8|8,0:0|0:0|0:0,0:0:0:0:
412,358,123656,6,0,P|467:303|469:251,1,110.000003356934,4|8,0:0|0:0,0:0:0:0:
451,224,124129,2,0,L|440:113,1,110.000003356934,2|8,0:0|0:0,0:0:0:0:
458,62,124603,2,0,P|374:27|243:33,1,220.000006713867,2|8,0:0|0:0,0:0:0:0:
173,114,125551,2,0,L|165:184,1,55.0000016784668,2|8,0:0|0:0,0:0:0:0:
161,224,125866,1,8,0:0:0:0:
259,173,126182,5,4,0:0:0:0:
293,278,126498,1,8,0:0:0:0:
194,325,126814,2,0,P|137:326|76:292,1,110.000003356934,2|8,0:0|0:0,0:0:0:0:
67,255,127287,1,2,0:0:0:0:
29,152,127603,2,0,L|-31:148,2,55.0000016784668,8|8|2,0:0|0:0|0:0,0:0:0:0:
82,135,128077,2,0,L|156:142,1,55.0000016784668,8|8,0:0|0:0,0:0:0:0:
191,128,128393,1,8,0:0:0:0:
255,218,128708,6,0,P|321:219|370:185,1,110.000003356934,4|8,0:0|0:0,0:0:0:0:
378,146,129182,2,0,P|379:96|414:39,1,110.000003356934,2|8,0:0|0:0,0:0:0:0:
451,10,129656,2,0,B|427:132|515:97|486:223,1,220.000006713867,2|8,0:0|0:0,0:0:0:0:
406,293,130603,2,0,L|396:363,2,55.0000016784668,2|8|8,0:0|0:0|0:0,0:0:0:0:
380,245,131077,1,2,0:0:0:0:
352,199,131235,6,0,P|265:210|228:234,1,110.000003356934,4|8,0:0|0:0,0:0:0:0:
219,268,131708,2,0,P|169:289|105:285,1,110.000003356934,2|8,0:0|0:0,0:0:0:0:
65,264,132182,2,0,P|15:183|27:44,1,220.000006713867,2|8,0:0|0:0,0:0:0:0:
126,38,133129,2,0,L|192:30,2,55.0000016784668,2|8|8,0:0|0:0|0:0,0:0:0:0:
101,87,133602,1,8,0:0:0:0:
129,134,133761,5,4,0:0:0:0:
238,150,134077,2,0,P|263:203|259:268,1,110.000003356934,8|2,0:0|0:0,0:0:0:0:
237,302,134551,1,8,0:0:0:0:
345,327,134866,2,0,L|464:314,1,110.000003356934,2|0,0:0|0:0,0:0:0:0:
502,287,135340,1,8,0:0:0:0:
418,217,135656,2,0,L|354:225,2,55.0000016784668,2|2|8,0:0|0:0|0:0,0:0:0:0:
492,136,136287,5,4,0:0:0:0:
408,66,136603,2,0,P|331:82|297:114,1,110.000003356934,8|2,0:0|0:0,0:0:0:0:
284,151,137077,1,8,0:0:0:0:
279,206,137235,1,0,0:0:0:0:
178,250,137551,2,0,L|59:242,1,110.000003356934,2|8,0:0|0:0,0:0:0:0:
75,133,138182,2,0,L|185:141,1,110.000003356934,2|8,0:0|0:0,0:0:0:0:
279,206,138813,5,8,0:0:0:0:
66,117,159023,5,8,0:0:0:0:
158,57,159339,2,0,L|328:40,1,165.0000050354,8|2,0:0|0:0,0:0:0:0:
333,150,160129,2,0,L|168:166,1,165.0000050354,8|8,0:0|0:0,0:0:0:0:
66,117,160918,2,0,L|4:123,2,55.0000016784668,2|0|2,0:0|0:0|0:0,0:0:0:0:
158,57,161550,5,2,0:0:0:0:
255,107,161865,2,0,L|270:281,1,165.0000050354,8|2,0:0|0:0,0:0:0:0:
379,264,162655,2,0,L|364:90,1,165.0000050354,8|8,0:0|0:0,0:0:0:0:
302,8,163444,2,0,L|230:11,2,55.0000016784668,2|0|2,0:0|0:0|0:0,0:0:0:0:
412,0,164076,5,2,0:0:0:0:
364,99,164392,2,0,P|252:141|194:141,1,165.0000050354,8|2,0:0|0:0,0:0:0:0:
147,234,165181,2,0,P|228:242|303:277,1,165.0000050354,8|8,0:0|0:0,0:0:0:0:
231,360,165971,2,0,L|176:355,2,55.0000016784668,2|0|2,0:0|0:0|0:0,0:0:0:0:
344,384,166602,6,0,P|449:351|512:313,1,165.0000050354,8|8,0:0|0:0,0:0:0:0:
429,172,167550,2,0,P|324:205|261:243,1,165.0000050354,8|8,0:0|0:0,0:0:0:0:
247,278,168181,1,8,0:0:0:0:
156,215,168497,1,8,0:0:0:0:
113,316,168813,1,8,0:0:0:0:
23,251,169129,5,2,0:0:0:0:
64,149,169444,2,0,L|246:166,1,165.0000050354,8|2,0:0|0:0,0:0:0:0:
206,56,170234,2,0,L|370:71,1,165.0000050354,8|8,0:0|0:0,0:0:0:0:
479,83,171023,2,0,L|544:89,2,55.0000016784668,2|0|2,0:0|0:0|0:0,0:0:0:0:
414,172,171655,5,2,0:0:0:0:
485,255,171971,1,0,0:0:0:0:
413,338,172286,2,0,L|226:352,1,165.0000050354,8|8,0:0|0:0,0:0:0:0:
278,243,173076,2,0,L|91:257,1,165.0000050354,8|8,0:0|0:0,0:0:0:0:
29,183,173865,1,2,0:0:0:0:
87,89,174181,5,2,0:0:0:0:
173,156,174497,2,0,P|272:141|349:102,1,165.0000050354,8|2,0:0|0:0,0:0:0:0:
423,172,175286,2,0,P|350:210|291:267,1,165.0000050354,8|8,0:0|0:0,0:0:0:0:
193,319,176076,2,0,L|123:311,2,55.0000016784668,2|0|8,0:0|0:0|0:0,0:0:0:0:
283,382,176707,6,0,P|423:363|459:345,1,165.0000050354,12|12,0:0|0:0,0:0:0:0:
418,190,177655,2,0,P|278:209|242:227,1,165.0000050354,12|12,0:0|0:0,0:0:0:0:
126,318,178602,2,0,P|73:319|21:287,1,110.000003356934,8|8,0:0|0:3,0:0:0:0:
3,189,179234,6,0,B|68:146|68:146|56:47,1,165.0000050354,4|8,0:0|0:0,0:0:0:0:
221,39,180223,2,0,B|230:125|230:125|303:152,1,165.0000050354,4|2,0:0|0:0,0:0:0:0:
355,170,180882,1,8,0:0:0:0:
269,239,181212,6,0,L|100:223,1,165.0000050354,4|8,0:0|0:0,0:0:0:0:
8,357,182201,2,0,L|172:372,1,165.0000050354,4|2,0:0|0:0,0:0:0:0:
226,380,182860,1,8,0:0:0:0:
311,310,183190,6,0,B|361:247|361:247|344:144,1,165.0000050354,4|8,0:0|0:0,0:0:0:0:
216,62,184179,2,0,B|131:57|131:57|74:113,1,165.0000050354,4|2,0:0|0:0,0:0:0:0:
40,156,184838,1,8,0:0:0:0:
133,214,185168,6,0,L|145:384,1,165.0000050354,4|8,0:0|0:0,0:0:0:0:
309,366,186157,2,0,L|297:201,1,165.0000050354,4|2,0:0|0:0,0:0:0:0:
293,146,186816,1,8,0:0:0:0:
298,38,187146,6,0,P|387:93|397:170,1,165.0000050354,4|2,0:0|0:0,0:0:0:0:
390,201,187820,1,12,0:0:0:0:
293,146,188157,2,0,P|204:200|194:277,1,165.0000050354,2|2,0:0|0:0,0:0:0:0:
201,308,188831,2,0,L|273:301,1,55.0000016784668,2|0,0:0|0:0,0:0:0:0:
294,341,189168,6,0,L|121:359,1,165.0000050354,4|2,0:0|0:0,0:0:0:0:
75,366,189842,1,12,0:0:0:0:
20,272,190179,2,0,L|8:154,1,110.000003356934,2|0,0:0|0:0,0:0:0:0:
5,107,190685,1,2,0:0:0:0:
0,52,190853,1,2,0:0:0:0:
103,84,191190,6,0,P|215:82|263:44,1,165.0000050354,4|2,0:0|0:0,0:0:0:0:
279,3,191865,1,12,0:0:0:0:
385,30,192202,2,0,P|432:95|434:177,1,165.0000050354,2|2,0:0|0:0,0:0:0:0:
391,211,192876,2,0,L|320:205,1,55.0000016784668,0|0,0:0|0:0,0:0:0:0:
293,242,193213,6,0,L|468:261,1,165.0000050354,4|2,0:0|0:0,0:0:0:0:
511,266,193887,1,12,0:0:0:0:
447,355,194224,2,0,L|313:343,1,110.000003356934,2|0,0:0|0:0,0:0:0:0:
282,338,194730,1,2,0:0:0:0:
227,332,194898,1,4,0:1:0:0:
