osu file format v14

[General]
AudioFilename: coming.mp3
AudioLeadIn: 0
PreviewTime: 46523
Countdown: 0
SampleSet: Soft
StackLeniency: 0.5
Mode: 0
LetterboxInBreaks: 0
WidescreenStoryboard: 1

[Editor]
Bookmarks: 21497,31523,46681,78234,78339,98471,105497,106760,107076,158944,179313,195023
DistanceSpacing: 1.3
BeatDivisor: 4
GridSize: 32
TimelineZoom: 1.2

[Metadata]
Title:Coming Down Is Calming Down
TitleUnicode:Coming Down Is Calming Down
Artist:Underoath
ArtistUnicode:Underoath
Creator:pishifat
Version:Hard
Source:
Tags:metal punk emo lost in the sound of separation
BeatmapID:1099468
BeatmapSetID:487559

[Difficulty]
HPDrainRate:5
CircleSize:4
OverallDifficulty:7
ApproachRate:7.5
SliderMultiplier:0.999999999999999
SliderTickRate:1

[Events]
//Background and Video events
0,0,"1cheyenne-5-12-069w1.jpg",0,0
//Break Periods
2,139013,157567
//Storyboard Layer 0 (Background)
//Storyboard Layer 1 (Fail)
//Storyboard Layer 2 (Pass)
//Storyboard Layer 3 (Foreground)
//Storyboard Sound Samples

[TimingPoints]
-135,315.789473684211,4,2,1,60,1,0
575,-66.6666666666667,4,2,1,60,0,0
1129,315.789473684211,4,2,1,80,1,0
1129,-66.6666666666667,4,2,1,80,0,0
1602,-66.6666666666667,4,2,1,80,0,0
2076,-66.6666666666667,4,2,1,80,0,0
3181,-66.6666666666667,4,2,1,80,0,0
3655,-66.6666666666667,4,2,1,80,0,0
4760,-66.6666666666667,4,2,1,80,0,0
5234,-66.6666666666667,4,2,1,80,0,0
6655,-66.6666666666667,4,2,1,80,0,0
7129,-66.6666666666667,4,2,1,80,0,0
8234,-66.6666666666667,4,2,1,80,0,0
8550,-66.6666666666667,4,2,1,80,0,0
9813,-66.6666666666667,4,2,1,80,0,0
10129,-66.6666666666667,4,2,1,80,0,0
11629,-66.6666666666667,4,2,1,80,0,0
12023,-66.6666666666667,4,2,1,80,0,0
12181,-66.6666666666667,4,2,1,55,0,0
12497,-66.6666666666667,4,2,1,65,0,0
12813,-66.6666666666667,4,2,1,75,0,0
13129,-66.6666666666667,4,2,1,85,0,0
13286,-66.6666666666667,4,2,1,80,0,0
13760,-66.6666666666667,4,2,1,80,0,0
14865,-66.6666666666667,4,2,1,80,0,0
15339,-66.6666666666667,4,2,1,80,0,0
16760,-66.6666666666667,4,2,1,80,0,0
17234,-76.9230769230769,4,2,1,60,0,0
17550,-76.9230769230769,4,2,1,60,0,0
17865,-76.9230769230769,4,2,1,50,0,0
18181,-71.4285714285714,4,2,1,55,0,0
18813,-66.6666666666667,4,2,1,60,0,0
19444,-66.6666666666667,4,2,1,65,0,0
20076,-66.6666666666667,4,2,1,70,0,0
20707,-66.6666666666667,4,2,1,75,0,0
21813,-66.6666666666667,4,2,1,74,0,0
26392,-66.6666666666667,4,2,1,74,0,0
30339,-66.6666666666667,4,2,1,65,0,0
31129,-66.6666666666667,4,2,1,65,0,0
31444,-66.6666666666667,4,2,1,80,0,0
31918,-66.6666666666667,4,2,1,80,0,0
32392,-66.6666666666667,4,2,1,65,0,0
36497,-66.6666666666667,4,2,1,80,0,0
36971,-66.6666666666667,4,2,1,80,0,0
37444,-66.6666666666667,4,2,1,70,0,0
40918,-66.6666666666667,4,2,1,80,0,0
42023,-66.6666666666667,4,2,1,80,0,0
42339,-66.6666666666667,4,2,1,65,0,0
46286,-66.6666666666667,4,2,1,65,0,0
46602,-66.6666666666667,4,2,1,65,0,0
54181,-66.6666666666667,4,2,1,72,0,0
56076,-66.6666666666667,4,2,1,80,0,0
56392,-66.6666666666667,4,2,1,80,0,0
56707,-66.6666666666667,4,2,1,75,0,1
61760,-66.6666666666667,4,2,1,75,0,1
63181,-66.6666666666667,4,2,1,75,0,1
69339,-66.6666666666667,4,2,1,75,0,1
74392,-66.6666666666667,4,2,1,71,0,0
76129,-66.6666666666667,4,2,1,71,0,0
76760,-66.6666666666667,4,2,1,71,0,0
76813,-66.6666666666667,4,2,1,40,0,0
76918,-66.6666666666667,4,2,1,60,0,0
77023,-66.6666666666667,4,2,1,71,0,0
77865,-66.6666666666667,4,2,1,71,0,0
78181,-66.6666666666667,4,2,1,65,0,0
88286,-66.6666666666667,4,2,1,65,0,0
95865,-66.6666666666667,4,2,1,50,0,0
96497,-66.6666666666667,4,2,1,60,0,0
97129,-66.6666666666667,4,2,1,70,0,0
97760,-66.6666666666667,4,2,1,80,0,0
98392,-66.6666666666667,4,2,1,80,0,0
98865,-66.6666666666667,4,2,1,80,0,0
99339,-66.6666666666667,4,2,2,80,0,0
100444,-66.6666666666667,4,2,1,80,0,0
100918,-66.6666666666667,4,2,2,80,0,0
101707,-66.6666666666667,4,2,1,80,0,0
102497,-66.6666666666667,4,2,2,80,0,0
103444,-66.6666666666667,4,2,1,80,0,0
103760,-66.6666666666667,4,2,1,80,0,0
104392,-66.6666666666667,4,2,3,80,0,0
105497,-66.6666666666667,4,2,1,80,0,0
105971,-66.6666666666667,4,2,3,80,0,0
106760,-66.6666666666667,4,2,1,80,0,0
107865,-66.6666666666667,4,2,1,80,0,0
108971,-66.6666666666667,4,2,1,80,0,0
109286,-66.6666666666667,4,2,1,80,0,0
110550,-66.6666666666667,4,2,1,80,0,0
111023,-66.6666666666667,4,2,1,80,0,0
112129,-66.6666666666667,4,2,1,80,0,0
112918,-66.6666666666667,4,2,1,80,0,0
113944,-66.6666666666667,4,2,1,50,0,0
114023,-66.6666666666667,4,2,1,80,0,0
114339,-66.6666666666667,4,2,1,80,0,0
115602,-66.6666666666667,4,2,1,80,0,0
115918,-66.6666666666667,4,2,1,80,0,0
117181,-66.6666666666667,4,2,1,80,0,0
117655,-66.6666666666667,4,2,1,80,0,0
118602,-76.9230769230769,4,2,1,65,0,0
118918,-76.9230769230769,4,2,1,65,0,0
119550,-76.9230769230769,4,2,1,65,0,0
119865,-76.9230769230769,4,2,1,65,0,0
121129,-66.6666666666667,4,2,1,71,0,1
126181,-66.6666666666667,4,2,1,71,0,1
128392,-66.6666666666667,4,2,1,71,0,1
128707,-66.6666666666667,4,2,1,71,0,1
133760,-66.6666666666667,4,2,1,71,0,1
138813,-76.9230769230769,4,2,1,62,0,0
179234,329.67032967033,3,2,1,80,1,0
179234,-66.6666666666667,3,2,1,80,0,0
187146,337.078651685393,3,2,1,80,1,0
187146,-66.6666666666667,3,2,1,80,0,0

[Colours]
Combo1 : 255,200,145
Combo2 : 255,157,228
Combo3 : 135,225,233
Combo4 : 189,247,138

[HitObjects]
18,147,575,6,0,L|23:202,3,37.5000014305115,2|2|2|8,0:0|0:0|0:0|0:0,0:0:0:0:
25,188,1129,6,0,P|111:177|182:159,1,150.000005722046,4|8,0:1|0:0,0:0:0:0:
213,242,1602,2,0,P|283:187|329:130,1,150.000005722046,4|0,0:1|0:0,0:0:0:0:
393,84,2076,6,0,L|473:91,1,75.000002861023,8|0,0:0|0:0,0:0:0:0:
408,170,2392,2,0,L|488:177,1,75.000002861023,2|0,0:0|0:0,0:0:0:0:
419,257,2707,2,0,L|499:264,1,75.000002861023,8|0,0:0|0:0,0:0:0:0:
434,343,3023,1,2,0:0:0:0:
348,316,3181,2,0,P|202:352|170:367,1,150.000005722046,12|0,0:1|0:0,0:0:0:0:
122,309,3655,1,2,0:0:0:0:
122,309,3813,1,2,0:0:0:0:
198,260,3971,6,0,P|207:225|205:179,1,75.000002861023,8|0,0:0|0:0,0:0:0:0:
138,127,4286,1,2,0:0:0:0:
138,127,4444,2,0,P|77:140|53:155,1,75.000002861023,12|0,0:1|0:0,0:0:0:0:
127,214,4760,2,0,P|255:229|302:227,1,150.000005722046,12|0,0:1|0:0,0:0:0:0:
362,203,5234,2,0,L|372:127,1,75.000002861023,8|2,0:0|0:0,0:0:0:0:
371,128,5471,1,2,0:0:0:0:
371,128,5550,5,8,0:0:0:0:
399,306,5865,1,8,0:0:0:0:
231,240,6181,2,0,P|180:252|143:273,2,75.000002861023,8|2|2,0:0|0:0|0:0,0:0:0:0:
317,214,6655,6,0,P|221:185|162:152,1,150.000005722046,4|0,0:1|0:0,0:0:0:0:
125,101,7129,2,0,L|115:14,1,75.000002861023,8|0,0:0|0:0,0:0:0:0:
116,27,7365,1,8,0:0:0:0:
116,27,7444,6,0,P|157:19|200:3,1,75.000002861023,2|2,0:0|0:0,0:0:0:0:
261,62,7760,2,0,P|331:76|356:87,1,75.000002861023,8|0,0:0|0:0,0:0:0:0:
423,63,8076,1,2,0:0:0:0:
395,148,8234,2,0,P|409:254|426:321,1,150.000005722046,12|0,0:1|0:0,0:0:0:0:
483,366,8707,1,2,0:0:0:0:
483,366,8865,1,0,0:0:0:0:
394,383,9023,6,0,L|313:374,1,75.000002861023,8|0,0:0|0:0,0:0:0:0:
319,374,9260,1,8,0:0:0:0:
319,374,9339,1,2,0:0:0:0:
248,319,9497,2,0,P|239:283|238:235,1,75.000002861023,12|0,0:1|0:0,0:0:0:0:
216,157,9813,2,0,P|184:246|145:317,1,150.000005722046,12|0,0:1|0:0,0:0:0:0:
88,352,10286,2,0,L|2:343,1,75.000002861023,8|2,0:0|0:0,0:0:0:0:
13,344,10523,1,2,0:0:0:0:
13,344,10602,5,8,0:0:0:0:
111,193,10918,1,8,0:0:0:0:
275,266,11234,2,0,L|367:274,2,75.000002861023,8|2|2,0:0|0:0|0:0,0:0:0:0:
196,221,11707,6,0,P|207:108|222:57,1,150.000005722046,4|0,0:1|0:0,0:0:0:0:
280,9,12181,2,0,L|343:13,3,37.5000014305115,8|8|8|8,0:0|0:0|0:0|0:0,0:0:0:0:
353,38,12497,2,0,L|416:42,3,37.5000014305115,8|8|8|8,0:0|0:0|0:0|0:0,0:0:0:0:
430,62,12813,2,0,L|493:66,3,37.5000014305115,8|8|8|8,0:0|0:0|0:0|0:0,0:0:0:0:
506,88,13129,1,8,0:0:0:0:
443,151,13286,6,0,P|385:163|260:163,1,150.000005722046,4|0,0:1|0:0,0:0:0:0:
210,133,13760,1,2,0:0:0:0:
210,133,13918,1,0,0:0:0:0:
163,210,14076,2,0,P|91:196|65:183,1,75.000002861023,8|0,0:0|0:0,0:0:0:0:
19,138,14392,1,2,0:0:0:0:
3,226,14550,6,0,L|-3:308,1,75.000002861023,12|0,0:1|0:0,0:0:0:0:
50,373,14865,2,0,P|158:344|218:339,1,150.000005722046,12|0,0:1|0:0,0:0:0:0:
283,364,15339,2,0,P|360:350|380:342,1,75.000002861023,8|2,0:0|0:0,0:0:0:0:
356,351,15576,1,2,0:0:0:0:
356,351,15655,5,8,0:0:0:0:
252,204,15971,1,8,0:0:0:0:
430,184,16286,2,0,L|514:193,2,75.000002861023,8|2|2,0:0|0:0|0:0,0:0:0:0:
345,151,16760,6,0,P|327:66|322:-2,1,150.000005722046,4|0,0:1|0:0,0:0:0:0:
285,86,17234,2,0,L|212:79,1,64.9999970245362,2|2,0:0|0:0,0:0:0:0:
196,180,17550,2,0,L|269:173,1,64.9999970245362,2|2,0:0|0:0,0:0:0:0:
221,264,17865,2,0,L|294:257,1,64.9999970245362,2|2,0:0|0:0,0:0:0:0:
365,284,18181,5,2,0:0:0:0:
430,337,18339,1,2,0:0:0:0:
491,279,18497,1,2,0:0:0:0:
426,225,18655,1,2,0:0:0:0:
431,139,18813,2,0,L|438:54,1,75.000002861023,2|2,0:0|0:0,0:0:0:0:
341,145,19129,2,0,L|348:60,1,75.000002861023,2|2,0:0|0:0,0:0:0:0:
250,103,19444,5,2,0:0:0:0:
169,63,19602,1,2,0:0:0:0:
109,130,19760,1,2,0:0:0:0:
27,90,19918,1,2,0:0:0:0:
2,176,20076,2,0,L|13:271,1,75.000002861023,2|2,0:0|0:0,0:0:0:0:
90,212,20392,2,0,L|101:307,1,75.000002861023,2|2,0:0|0:0,0:0:0:0:
180,334,20707,5,2,0:0:0:0:
243,270,20865,1,2,0:0:0:0:
269,359,21023,1,8,0:0:0:0:
269,359,21339,6,0,P|306:367|349:365,1,75.000002861023,12|2,0:0|0:0,0:0:0:0:
421,320,21655,1,2,0:0:0:0:
346,269,21813,2,0,P|318:160|313:111,1,150.000005722046,12|2,0:0|0:0,0:0:0:0:
349,40,22286,5,6,0:0:0:0:
349,40,22444,2,0,L|260:29,1,75.000002861023,2|0,0:0|0:0,0:0:0:0:
184,39,22760,2,0,P|151:145|149:212,1,150.000005722046,6|2,0:0|0:0,0:0:0:0:
187,264,23234,2,0,L|361:239,1,150.000005722046,8|2,0:0|0:0,0:0:0:0:
335,242,23865,6,0,P|321:205|317:161,1,75.000002861023,12|2,0:0|0:0,0:0:0:0:
386,111,24181,1,2,0:0:0:0:
443,180,24339,2,0,P|441:259|420:357,1,150.000005722046,12|2,0:0|0:0,0:0:0:0:
346,367,24813,2,0,L|244:356,1,75.000002861023,6|0,0:0|0:0,0:0:0:0:
202,299,25129,5,2,0:0:0:0:
119,314,25286,1,8,0:0:0:0:
119,314,25365,1,8,0:0:0:0:
119,314,25444,2,0,L|111:248,3,37.5000014305115,8|8|2|2,0:0|0:0|0:0|0:0,0:0:0:0:
86,240,25760,2,0,L|78:174,3,37.5000014305115,8|8|8|8,0:0|0:0|0:0|0:0,0:0:0:0:
54,165,26076,2,0,P|68:98|82:73,1,75.000002861023,8|2,0:0|0:0,0:0:0:0:
138,32,26392,6,0,L|214:22,1,75.000002861023,12|0,0:0|0:0,0:0:0:0:
302,14,26707,1,2,0:0:0:0:
323,101,26865,2,0,P|243:108|167:141,1,150.000005722046,12|2,0:0|0:0,0:0:0:0:
139,215,27339,2,0,P|174:233|219:243,1,75.000002861023,12|2,0:0|0:0,0:0:0:0:
276,182,27655,5,2,0:0:0:0:
363,203,27813,2,0,P|382:280|387:364,1,150.000005722046,12|2,0:0|0:0,0:0:0:0:
301,379,28286,2,0,L|207:366,1,75.000002861023,12|2,0:0|0:0,0:0:0:0:
159,308,28602,2,0,L|71:321,1,75.000002861023,8|2,0:0|0:0,0:0:0:0:
14,376,28918,6,0,P|50:271|56:210,1,150.000005722046,12|2,0:0|0:0,0:0:0:0:
46,142,29392,2,0,P|123:158|225:163,1,150.000005722046,12|2,0:0|0:0,0:0:0:0:
239,85,29865,2,0,P|308:46|397:27,1,150.000005722046,12|2,0:0|0:0,0:0:0:0:
461,58,30339,2,0,P|506:167|513:213,1,150.000005722046,12|2,0:0|0:0,0:0:0:0:
472,279,30813,1,8,0:0:0:0:
370,130,31129,1,8,0:0:0:0:
290,291,31444,6,0,P|218:301|182:296,1,75.000002861023,4|0,0:0|0:0,0:0:0:0:
129,272,31760,1,8,0:0:0:0:
195,211,31918,2,0,P|213:126|221:52,1,150.000005722046,4|0,0:0|0:0,0:0:0:0:
137,26,32392,1,8,0:0:0:0:
137,26,32707,5,8,0:0:0:0:
108,203,33023,1,8,0:0:0:0:
220,63,33339,1,8,0:0:0:0:
191,240,33655,1,8,0:0:0:0:
303,96,33971,1,8,0:0:0:0:
274,273,34287,1,8,0:0:0:0:
384,131,34602,1,8,0:0:0:0:
355,308,34918,1,8,0:0:0:0:
467,167,35234,5,8,0:0:0:0:
303,96,35550,1,8,0:0:0:0:
274,273,35865,1,8,0:0:0:0:
440,342,36181,1,8,0:0:0:0:
338,193,36497,6,0,P|287:178|237:179,1,75.000002861023,4|0,0:0|0:0,0:0:0:0:
177,195,36813,1,8,0:0:0:0:
123,267,36971,2,0,P|93:154|93:91,1,150.000005722046,4|0,0:0|0:0,0:0:0:0:
153,56,37444,1,8,0:0:0:0:
153,56,37760,6,0,B|104:29|104:29|28:41,2,112.500004291534,8|8|8,0:0|0:0|0:0,0:0:0:0:
91,121,38392,2,0,B|36:131|36:131|-14:189,2,112.500004291534,8|8|8,0:0|0:0|0:0,0:0:0:0:
89,211,39023,2,0,B|53:254|53:254|52:331,2,112.500004291534,8|8|8,0:0|0:0|0:0,0:0:0:0:
143,283,39655,2,0,B|144:338|144:338|192:398,2,112.500004291534,8|8|8,0:0|0:0|0:0,0:0:0:0:
230,305,40286,2,0,L|390:291,1,150.000005722046,8|0,0:0|0:0,0:0:0:0:
469,288,40760,1,2,0:0:0:0:
469,288,40839,1,2,0:0:0:0:
469,288,40918,5,8,0:0:0:0:
317,384,41234,1,8,0:0:0:0:
309,204,41550,1,8,0:0:0:0:
235,255,41707,2,0,P|173:235|141:216,1,75.000002861023,2|2,0:0|0:0,0:0:0:0:
100,165,42023,2,0,P|108:79|138:1,1,150.000005722046,4|0,0:0|0:0,0:0:0:0:
218,10,42497,1,8,0:0:0:0:
218,10,42813,5,8,0:0:0:0:
53,75,43129,1,8,0:0:0:0:
231,92,43444,1,8,0:0:0:0:
67,164,43760,1,8,0:0:0:0:
246,177,44076,1,8,0:0:0:0:
82,251,44392,1,8,0:0:0:0:
261,263,44707,1,8,0:0:0:0:
97,338,45023,1,8,0:0:0:0:
67,164,45339,5,8,0:0:0:0:
246,176,45655,1,8,0:0:0:0:
167,13,45971,1,8,0:0:0:0:
155,192,46286,2,0,L|149:292,1,75.000002861023,8|0,0:0|0:0,0:0:0:0:
175,353,46602,6,0,P|288:328|351:325,1,150.000005722046,8|8,0:0|0:3,0:0:0:0:
402,283,47076,2,0,P|346:278|225:234,1,150.000005722046,4|0,0:3|0:0,0:0:0:0:
239,161,47550,1,8,0:0:0:0:
354,39,47865,5,4,0:3:0:0:
354,39,48023,2,0,P|342:132|323:194,1,150.000005722046,8|0,0:3|0:0,0:0:0:0:
260,254,48497,1,8,0:0:0:0:
260,254,48813,2,0,L|174:265,1,75.000002861023,0|0,0:0|0:0,0:0:0:0:
108,216,49129,6,0,P|66:133|46:55,1,150.000005722046,8|8,0:0|0:3,0:0:0:0:
127,31,49602,2,0,P|194:85|278:119,1,150.000005722046,4|0,0:3|0:0,0:0:0:0:
341,102,50076,1,8,0:0:0:0:
198,211,50392,6,0,L|191:294,1,75.000002861023,4|0,0:3|0:0,0:0:0:0:
261,342,50707,2,0,P|307:339|344:327,1,75.000002861023,4|0,0:3|0:0,0:0:0:0:
392,261,51023,1,8,0:0:0:0:
392,261,51339,2,0,L|382:174,1,75.000002861023,4|0,0:3|0:0,0:0:0:0:
412,100,51655,5,8,0:0:0:0:
412,100,51813,2,0,P|299:93|231:73,1,150.000005722046,0|4,0:0|0:3,0:0:0:0:
184,41,52286,2,0,P|129:54|97:72,1,75.000002861023,4|0,0:3|0:0,0:0:0:0:
66,139,52602,1,8,0:0:0:0:
230,212,52918,5,4,0:3:0:0:
230,212,53076,2,0,P|141:245|90:282,1,150.000005722046,8|0,0:3|0:0,0:0:0:0:
136,357,53550,2,0,L|246:366,1,75.000002861023,8|0,0:0|0:0,0:0:0:0:
290,320,53865,1,4,0:3:0:0:
290,320,54181,6,0,L|383:306,1,75.000002861023,12|0,0:0|0:0,0:0:0:0:
452,328,54497,1,8,0:0:0:0:
428,240,54655,2,0,P|437:181|451:139,1,75.000002861023,8|0,0:0|0:0,0:0:0:0:
488,89,54971,1,8,0:0:0:0:
426,23,55129,1,2,0:0:0:0:
376,97,55286,6,0,L|300:105,1,75.000002861023,8|2,0:0|0:0,0:0:0:0:
213,84,55602,1,8,0:0:0:0:
160,156,55760,2,0,P|150:239|151:256,1,75.000002861023,8|0,0:0|0:0,0:0:0:0:
161,319,56076,1,2,0:3:0:0:
161,319,56392,2,0,P|122:313|83:298,1,75.000002861023,8|0,0:0|0:0,0:0:0:0:
33,230,56707,6,0,L|20:63,1,150.000005722046,4|8,0:0|0:0,0:0:0:0:
89,20,57181,2,0,P|156:39|182:55,1,75.000002861023,2|2,0:0|0:0,0:0:0:0:
202,125,57497,1,8,0:0:0:0:
153,200,57655,1,2,0:0:0:0:
216,263,57813,6,0,P|295:259|388:240,1,150.000005722046,4|0,0:1|0:0,0:0:0:0:
437,192,58286,2,0,P|444:153|445:111,1,75.000002861023,8|0,0:0|0:0,0:0:0:0:
399,39,58602,1,2,0:0:0:0:
323,87,58760,2,0,L|331:166,2,75.000002861023,8|8|2,0:0|0:0|0:0,0:0:0:0:
264,17,59234,6,0,P|181:35|116:68,1,150.000005722046,4|8,0:0|0:0,0:0:0:0:
95,149,59707,2,0,P|171:161|198:173,1,75.000002861023,2|2,0:0|0:0,0:0:0:0:
244,209,60023,1,8,0:0:0:0:
163,248,60181,1,2,0:0:0:0:
142,335,60339,6,0,P|213:355|299:357,1,150.000005722046,4|0,0:1|0:0,0:0:0:0:
374,327,60813,2,0,L|382:240,1,75.000002861023,8|0,0:0|0:0,0:0:0:0:
387,161,61129,1,2,0:0:0:0:
463,208,61286,2,0,L|473:294,2,75.000002861023,8|8|2,0:0|0:0|0:0,0:0:0:0:
468,117,61760,6,0,L|459:21,1,75.000002861023,4|0,0:0|0:0,0:0:0:0:
379,1,62076,2,0,P|321:23|293:43,1,75.000002861023,8|0,0:0|0:0,0:0:0:0:
282,116,62392,2,0,P|199:99|138:68,1,150.000005722046,2|8,0:0|0:0,0:0:0:0:
57,37,62865,6,0,L|73:196,1,150.000005722046,2|8,0:0|0:0,0:0:0:0:
80,276,63339,2,0,L|143:281,3,37.5000014305115,8|8|2|2,0:0|0:0|0:0|0:0,0:0:0:0:
157,299,63655,2,0,L|220:304,3,37.5000014305115,8|8|8|8,0:0|0:0|0:0|0:0,0:0:0:0:
237,318,63971,2,0,P|285:308|319:294,1,75.000002861023,2|2,0:0|0:0,0:0:0:0:
364,228,64286,6,0,P|336:129|295:76,1,150.000005722046,4|8,0:0|0:0,0:0:0:0:
315,0,64760,1,2,0:0:0:0:
315,0,64918,2,0,L|216:17,1,75.000002861023,2|8,0:0|0:0,0:0:0:0:
171,70,65234,1,2,0:0:0:0:
229,138,65392,6,0,P|303:139|378:149,1,150.000005722046,4|0,0:1|0:0,0:0:0:0:
448,205,65865,2,0,P|462:284|457:306,1,75.000002861023,8|0,0:0|0:0,0:0:0:0:
407,349,66181,1,2,0:0:0:0:
326,309,66339,2,0,P|338:233|349:210,2,75.000002861023,8|8|2,0:0|0:0|0:0,0:0:0:0:
252,362,66813,6,0,P|221:293|205:200,1,150.000005722046,4|8,0:0|0:0,0:0:0:0:
143,156,67286,2,0,P|119:258|119:261,1,75.000002861023,2|2,0:0|0:0,0:0:0:0:
139,316,67602,1,8,0:0:0:0:
54,284,67760,1,2,0:0:0:0:
21,199,67918,6,0,P|65:108|111:58,1,150.000005722046,4|0,0:1|0:0,0:0:0:0:
186,80,68392,2,0,L|275:69,1,75.000002861023,8|2,0:0|0:0,0:0:0:0:
343,36,68707,1,2,0:0:0:0:
416,87,68865,1,0,0:0:0:0:
334,126,69023,2,0,P|324:165|323:202,1,75.000002861023,8|2,0:0|0:0,0:0:0:0:
351,285,69339,6,0,L|256:273,1,75.000002861023,4|0,0:0|0:0,0:0:0:0:
268,365,69655,2,0,L|342:374,1,75.000002861023,8|0,0:0|0:0,0:0:0:0:
425,338,69971,1,2,0:0:0:0:
496,283,70129,2,0,P|487:238|466:199,1,75.000002861023,8|0,0:0|0:0,0:0:0:0:
386,193,70444,6,0,L|211:171,1,150.000005722046,2|0,0:0|0:0,0:0:0:0:
161,124,70918,2,0,L|154:28,1,75.000002861023,8|0,0:0|0:0,0:0:0:0:
236,7,71234,1,2,0:0:0:0:
297,72,71392,2,0,P|352:85|389:87,1,75.000002861023,0|8,0:0|0:0,0:0:0:0:
457,65,71707,1,0,0:0:0:0:
438,153,71865,6,0,L|425:311,1,150.000005722046,4|8,0:0|0:0,0:0:0:0:
355,359,72339,1,2,0:0:0:0:
290,295,72497,1,2,0:0:0:0:
202,315,72655,1,8,0:0:0:0:
142,247,72813,2,0,P|125:183|128:148,1,75.000002861023,0|0,0:0|0:0,0:0:0:0:
178,101,73129,6,0,P|258:89|345:59,2,150.000005722046,2|8|2,0:0|0:0|0:0,0:0:0:0:
93,70,73918,1,2,0:0:0:0:
38,142,74076,2,0,L|28:234,1,75.000002861023,8|0,0:0|0:0,0:0:0:0:
68,298,74392,5,4,0:0:0:0:
68,298,74707,1,2,0:0:0:0:
200,176,75023,2,0,L|203:115,4,37.5000014305115,8|8|8|8|8,0:0|0:0|0:0|0:0|0:0,0:0:0:0:
242,351,75655,5,8,0:0:0:0:
302,284,75813,2,0,L|388:272,1,75.000002861023,8|2,0:0|0:0,0:0:0:0:
466,260,76129,1,8,0:0:0:0:
466,260,76444,1,8,0:0:0:0:
320,154,76760,5,4,0:3:0:0:
308,64,76918,1,4,0:3:0:0:
237,119,77076,1,4,0:3:0:0:
237,119,77234,1,0,0:0:0:0:
152,88,77392,2,0,L|144:10,2,75.000002861023,8|0|0,0:3|0:0|0:0,0:0:0:0:
102,163,77865,2,0,P|55:171|4:190,1,75.000002861023,12|0,0:0|0:0,0:0:0:0:
2,266,78181,5,8,0:0:0:0:
90,280,78339,1,8,0:0:0:0:
178,293,78497,2,0,P|251:285|333:266,1,150.000005722046,8|2,0:0|0:0,0:0:0:0:
399,196,78971,1,8,0:0:0:0:
308,40,79286,1,8,0:0:0:0:
399,196,79602,1,8,0:0:0:0:
308,40,79918,2,0,L|224:33,2,75.000002861023,8|8|8,0:0|0:0|0:0,0:0:0:0:
398,46,80392,1,8,0:0:0:0:
290,189,80707,5,8,0:0:0:0:
226,124,80865,2,0,L|145:119,1,75.000002861023,8|8,0:0|0:0,0:0:0:0:
60,111,81181,1,2,0:0:0:0:
186,239,81497,1,8,0:0:0:0:
60,111,81813,1,8,0:0:0:0:
186,239,82129,1,8,0:0:0:0:
14,290,82444,2,0,L|7:373,2,75.000002861023,8|8|8,0:0|0:0|0:0,0:0:0:0:
20,200,82918,1,8,0:0:0:0:
156,317,83234,6,0,L|245:326,1,75.000002861023,8|8,0:0|0:0,0:0:0:0:
320,333,83550,2,0,P|343:213|345:172,1,150.000005722046,8|2,0:0|0:0,0:0:0:0:
300,107,84023,1,8,0:0:0:0:
430,230,84339,1,8,0:0:0:0:
300,107,84655,1,8,0:0:0:0:
430,230,84971,2,0,L|518:235,2,75.000002861023,8|8|8,0:0|0:0|0:0,0:0:0:0:
362,170,85444,1,8,0:0:0:0:
233,296,85760,5,8,0:0:0:0:
155,250,85918,2,0,L|148:168,1,75.000002861023,8|8,0:0|0:0,0:0:0:0:
128,86,86234,1,8,0:0:0:0:
62,147,86392,2,0,P|138:140|227:118,1,150.000005722046,4|8,0:3|0:0,0:0:0:0:
278,65,86865,1,8,0:3:0:0:
278,65,86944,1,8,0:3:0:0:
278,65,87023,6,0,L|356:71,1,75.000002861023,4|4,0:3|0:3,0:0:0:0:
294,151,87339,2,0,L|368:156,1,75.000002861023,4|4,0:3|0:3,0:0:0:0:
437,97,87655,1,12,0:0:0:0:
209,123,87971,1,12,0:0:0:0:
349,263,88286,6,0,P|358:308|356:341,1,75.000002861023,8|8,0:0|0:0,0:0:0:0:
275,376,88602,2,0,P|185:352|118:347,1,150.000005722046,8|2,0:0|0:0,0:0:0:0:
40,366,89076,1,8,0:0:0:0:
156,228,89392,1,8,0:0:0:0:
40,366,89707,1,8,0:0:0:0:
156,228,90023,2,0,L|236:221,2,75.000002861023,8|8|8,0:0|0:0|0:0,0:0:0:0:
68,204,90497,1,8,0:0:0:0:
214,98,90813,6,0,P|261:100|303:108,1,75.000002861023,8|8,0:0|0:0,0:0:0:0:
336,181,91129,2,0,P|436:160|505:132,1,150.000005722046,8|2,0:0|0:0,0:0:0:0:
508,57,91602,1,8,0:0:0:0:
423,215,91918,1,8,0:0:0:0:
508,57,92234,1,8,0:0:0:0:
423,215,92550,1,8,0:0:0:0:
336,181,92707,2,0,L|328:90,2,75.000002861023,8|8|8,0:0|0:0|0:0,0:0:0:0:
260,345,93339,5,8,0:0:0:0:
177,308,93497,1,8,0:0:0:0:
89,327,93655,2,0,P|67:206|63:152,1,150.000005722046,8|2,0:0|0:0,0:0:0:0:
89,92,94129,1,8,0:0:0:0:
260,146,94444,1,8,0:0:0:0:
89,92,94760,1,8,0:0:0:0:
260,146,95076,1,8,0:0:0:0:
176,180,95234,2,0,P|164:244|165:283,1,75.000002861023,8|8,0:0|0:0,0:0:0:0:
191,339,95550,1,8,0:0:0:0:
260,146,95865,6,0,P|252:75|229:-5,1,150.000005722046,2|2,0:0|0:0,0:0:0:0:
53,35,96497,2,0,P|61:106|84:186,1,150.000005722046,2|2,0:0|0:0,0:0:0:0:
214,304,97129,2,0,L|297:294,1,75.000002861023,2|2,0:0|0:0,0:0:0:0:
337,214,97444,2,0,L|254:204,1,75.000002861023,2|2,0:0|0:0,0:0:0:0:
193,130,97760,2,0,L|276:120,1,75.000002861023,2|2,0:0|0:0,0:0:0:0:
321,48,98076,1,8,0:0:0:0:
321,48,98392,6,0,P|241:34|175:-1,1,150.000005722046,4|8,0:1|0:0,0:0:0:0:
96,34,98865,2,0,L|105:207,1,150.000005722046,4|0,0:1|0:0,0:0:0:0:
115,273,99339,2,0,L|72:279,12,37.5000014305115,8|8|8|8|8|8|8|8|8|8|8|8|8,0:0|0:0|0:0|0:0|0:0|0:0|0:0|0:0|0:0|0:0|0:0|0:0|0:0,0:0:0:0:
201,296,100444,6,0,L|215:130,1,150.000005722046,12|0,0:1|0:0,0:0:0:0:
172,65,100918,2,0,L|111:72,8,37.5000014305115,8|8|8|8|8|8|8|8|8,0:0|0:0|0:0|0:0|0:0|0:0|0:0|0:0|0:0,0:0:0:0:
252,24,101707,6,0,P|320:28|373:45,1,112.500004291534,12|0,0:1|0:0,0:0:0:0:
362,40,102023,2,0,P|307:98|269:174,1,150.000005722046,12|0,0:1|0:0,0:0:0:0:
209,223,102497,2,0,L|152:219,10,37.5000014305115,8|8|8|8|8|8|8|8|8|8|8,0:0|0:0|0:0|0:0|0:0|0:0|0:0|0:0|0:0|0:0|0:0,0:0:0:0:
266,292,103444,6,0,P|353:285|429:267,1,150.000005722046,4|8,0:0|0:0,0:0:0:0:
479,209,103918,2,0,L|495:34,1,150.000005722046,4|0,0:1|0:0,0:0:0:0:
413,15,104392,2,0,L|361:21,12,37.5000014305115,8|8|8|8|8|8|8|8|8|8|8|8|8,0:0|0:0|0:0|0:0|0:0|0:0|0:0|0:0|0:0|0:0|0:0|0:0|0:0,0:0:0:0:
323,95,105497,6,0,L|335:281,1,150.000005722046,12|0,0:1|0:0,0:0:0:0:
422,277,105971,2,0,L|427:223,8,37.5000014305115,8|8|8|8|8|8|8|8|8,0:0|0:0|0:0|0:0|0:0|0:0|0:0|0:0|0:0,0:0:0:0:
349,329,106760,6,0,P|283:328|224:312,1,112.500004291534,12|0,0:1|0:0,0:0:0:0:
238,317,107076,2,0,P|302:260|338:186,1,150.000005722046,12|0,0:1|0:0,0:0:0:0:
351,116,107550,1,8,0:0:0:0:
266,145,107707,1,2,0:0:0:0:
266,145,107786,1,2,0:0:0:0:
266,145,107865,5,8,0:0:0:0:
106,60,108181,1,8,0:0:0:0:
15,215,108497,2,0,P|9:296|14:369,1,150.000005722046,8|2,0:0|0:0,0:0:0:0:
101,341,108971,6,0,L|255:330,1,150.000005722046,4|0,0:1|0:0,0:0:0:0:
342,356,109444,2,0,P|350:313|356:227,1,112.500004291534,8|8,0:0|0:0,0:0:0:0:
355,244,109760,2,0,P|343:181|344:139,1,75.000002861023,2|2,0:0|0:0,0:0:0:0:
397,98,110076,1,8,0:0:0:0:
337,30,110234,1,0,0:0:0:0:
282,101,110392,1,2,0:0:0:0:
202,57,110550,6,0,P|93:36|45:34,1,150.000005722046,12|0,0:1|0:0,0:0:0:0:
19,117,111023,2,0,L|33:216,1,75.000002861023,2|0,0:0|0:0,0:0:0:0:
66,273,111339,2,0,P|144:252|190:227,1,112.500004291534,8|8,0:0|0:0,0:0:0:0:
172,237,111655,1,2,0:0:0:0:
243,293,111813,2,0,L|329:301,1,75.000002861023,12|0,0:1|0:0,0:0:0:0:
362,221,112129,2,0,P|287:196|221:161,1,150.000005722046,12|0,0:1|0:0,0:0:0:0:
186,81,112602,2,0,L|271:65,1,75.000002861023,8|2,0:0|0:0,0:0:0:0:
343,33,112918,5,8,0:0:0:0:
224,163,113234,1,8,0:0:0:0:
400,201,113550,2,0,L|449:194,4,37.5000014305115,8|8|8|8|8,0:0|0:0|0:0|0:0|0:0,0:0:0:0:
318,239,114023,6,0,P|304:344|304:398,1,150.000005722046,4|0,0:1|0:0,0:0:0:0:
213,352,114497,2,0,P|200:269|186:230,1,112.500004291534,8|8,0:0|0:0,0:0:0:0:
190,242,114813,2,0,L|106:250,1,75.000002861023,2|2,0:0|0:0,0:0:0:0:
92,161,115129,2,0,L|166:154,1,75.000002861023,8|0,0:0|0:0,0:0:0:0:
241,103,115444,1,2,0:0:0:0:
300,170,115602,6,0,P|396:187|456:187,1,150.000005722046,12|0,0:1|0:0,0:0:0:0:
510,121,116076,2,0,L|501:29,1,75.000002861023,2|0,0:0|0:0,0:0:0:0:
418,12,116392,1,8,0:0:0:0:
357,79,116550,1,0,0:0:0:0:
284,26,116707,1,2,0:0:0:0:
235,102,116865,2,0,P|158:94|127:85,1,75.000002861023,12|0,0:1|0:0,0:0:0:0:
70,85,117181,2,0,P|138:140|211:279,1,225.000008583069,12|0,0:1|0:0,0:0:0:0:
214,348,117813,1,2,0:0:0:0:
288,296,117971,5,8,0:0:0:0:
109,310,118286,1,8,0:0:0:0:
254,147,118602,6,0,L|267:-2,1,129.999994049072,8|8,0:0|0:3,0:0:0:0:
179,10,119076,2,0,L|165:159,1,129.999994049072,4|0,0:3|0:0,0:0:0:0:
268,147,119550,6,0,L|281:-2,1,129.999994049072,8|8,0:3|0:3,0:0:0:0:
169,8,120024,2,0,L|155:157,1,129.999994049072,4|4,0:3|0:3,0:0:0:0:
207,219,120497,2,0,L|213:265,4,32.4999985122681,8|8|8|8|8,0:0|0:0|0:0|0:0|0:0,0:0:0:0:
211,251,121129,6,0,P|283:239|391:237,1,150.000005722046,4|8,0:0|0:0,0:0:0:0:
443,281,121603,2,0,L|449:199,1,75.000002861023,2|2,0:0|0:0,0:0:0:0:
432,116,121919,1,8,0:0:0:0:
347,146,122077,1,2,0:0:0:0:
269,100,122235,6,0,P|190:104|97:123,1,150.000005722046,4|0,0:1|0:0,0:0:0:0:
69,191,122708,2,0,P|62:230|61:272,1,75.000002861023,8|0,0:0|0:0,0:0:0:0:
108,342,123024,1,2,0:0:0:0:
189,297,123182,2,0,L|181:218,2,75.000002861023,8|8|2,0:0|0:0|0:0,0:0:0:0:
248,367,123656,6,0,P|331:349|396:316,1,150.000005722046,4|8,0:0|0:0,0:0:0:0:
433,242,124129,2,0,P|357:230|330:218,1,75.000002861023,2|2,0:0|0:0,0:0:0:0:
327,145,124445,1,8,0:0:0:0:
416,154,124603,1,2,0:0:0:0:
377,70,124761,6,0,P|306:50|220:48,1,150.000005722046,4|0,0:1|0:0,0:0:0:0:
146,75,125235,2,0,L|138:162,1,75.000002861023,8|0,0:0|0:0,0:0:0:0:
131,240,125551,1,2,0:0:0:0:
58,187,125708,2,0,L|47:101,2,75.000002861023,8|8|2,0:0|0:0|0:0,0:0:0:0:
46,276,126182,6,0,L|55:372,1,75.000002861023,4|0,0:0|0:0,0:0:0:0:
137,382,126498,2,0,P|195:360|223:340,1,75.000002861023,8|0,0:0|0:0,0:0:0:0:
230,268,126814,2,0,P|313:285|374:316,1,150.000005722046,2|8,0:0|0:0,0:0:0:0:
455,347,127287,6,0,L|439:188,1,150.000005722046,2|8,0:0|0:0,0:0:0:0:
432,108,127761,2,0,L|369:103,3,37.5000014305115,8|8|2|2,0:0|0:0|0:0|0:0,0:0:0:0:
355,85,128077,2,0,L|292:80,3,37.5000014305115,8|8|8|8,0:0|0:0|0:0|0:0,0:0:0:0:
275,66,128393,2,0,P|227:76|193:90,1,75.000002861023,8|0,0:0|0:0,0:0:0:0:
148,156,128708,6,0,P|176:255|217:308,1,150.000005722046,4|8,0:0|0:0,0:0:0:0:
197,384,129182,1,2,0:0:0:0:
197,384,129340,2,0,L|296:367,1,75.000002861023,2|8,0:0|0:0,0:0:0:0:
341,314,129656,1,2,0:0:0:0:
283,246,129814,6,0,P|209:245|134:235,1,150.000005722046,4|0,0:1|0:0,0:0:0:0:
64,179,130287,2,0,P|50:100|55:78,1,75.000002861023,8|0,0:0|0:0,0:0:0:0:
105,35,130603,1,2,0:0:0:0:
186,75,130761,2,0,P|174:151|163:174,2,75.000002861023,8|8|2,0:0|0:0|0:0,0:0:0:0:
260,22,131235,6,0,P|291:91|307:184,1,150.000005722046,4|8,0:0|0:0,0:0:0:0:
369,228,131708,2,0,P|393:126|393:123,1,75.000002861023,2|2,0:0|0:0,0:0:0:0:
373,68,132024,1,8,0:0:0:0:
458,100,132182,1,2,0:0:0:0:
491,185,132340,6,0,P|447:276|401:326,1,150.000005722046,4|0,0:1|0:0,0:0:0:0:
326,304,132814,2,0,L|237:315,1,75.000002861023,8|2,0:0|0:0,0:0:0:0:
169,348,133129,1,2,0:0:0:0:
96,297,133287,1,8,0:0:0:0:
178,258,133445,2,0,P|188:219|189:182,1,75.000002861023,8|8,0:0|0:0,0:0:0:0:
161,99,133761,6,0,L|256:111,1,75.000002861023,4|0,0:0|0:0,0:0:0:0:
244,19,134077,2,0,L|170:10,1,75.000002861023,8|0,0:0|0:0,0:0:0:0:
87,46,134393,1,2,0:0:0:0:
16,101,134551,2,0,P|25:146|46:185,1,75.000002861023,8|0,0:0|0:0,0:0:0:0:
126,191,134866,6,0,L|301:213,1,150.000005722046,2|0,0:0|0:0,0:0:0:0:
351,260,135340,2,0,L|358:356,1,75.000002861023,8|0,0:0|0:0,0:0:0:0:
276,377,135656,1,2,0:0:0:0:
215,312,135814,2,0,P|160:299|123:297,1,75.000002861023,2|8,0:0|0:0,0:0:0:0:
55,319,136129,1,0,0:0:0:0:
74,231,136287,6,0,L|87:73,1,150.000005722046,4|8,0:0|0:0,0:0:0:0:
157,25,136761,1,2,0:0:0:0:
222,89,136919,1,2,0:0:0:0:
310,69,137077,1,8,0:0:0:0:
370,137,137235,2,0,P|387:201|384:236,1,75.000002861023,0|0,0:0|0:0,0:0:0:0:
334,283,137551,6,0,P|254:295|167:325,2,150.000005722046,2|8|2,0:0|0:0|0:0,0:0:0:0:
419,314,138340,1,2,0:0:0:0:
474,242,138498,2,0,L|484:150,1,75.000002861023,8|0,0:0|0:0,0:0:0:0:
492,78,138813,5,8,0:0:0:0:
266,107,158392,6,0,P|196:103|123:92,1,129.999994049072,8|2,0:0|0:0,0:0:0:0:
136,94,159023,6,0,P|147:137|151:186,1,64.9999970245362,8|0,0:0|0:0,0:0:0:0:
101,230,159339,2,0,P|205:208|253:209,1,129.999994049072,8|2,0:0|0:0,0:0:0:0:
312,244,159813,2,0,L|317:319,1,64.9999970245362,0|2,0:0|0:0,0:0:0:0:
399,360,160129,2,0,P|419:236|427:209,1,129.999994049072,8|0,0:0|0:0,0:0:0:0:
476,160,160602,2,0,P|455:106|327:43,1,194.999991073609,8|0,0:0|0:0,0:0:0:0:
264,93,161234,2,0,L|184:84,1,64.9999970245362,2|0,0:0|0:0,0:0:0:0:
199,85,161471,1,0,0:0:0:0:
199,85,161550,6,0,P|122:107|112:115,1,64.9999970245362,2|2,0:0|0:0,0:0:0:0:
69,160,161865,2,0,P|93:236|101:308,1,129.999994049072,8|0,0:0|0:0,0:0:0:0:
161,353,162339,2,0,P|231:362|253:361,1,64.9999970245362,2|0,0:0|0:0,0:0:0:0:
311,330,162655,2,0,P|342:224|346:179,1,129.999994049072,8|0,0:0|0:0,0:0:0:0:
379,120,163129,2,0,P|329:173|199:170,1,194.999991073609,8|0,0:0|0:0,0:0:0:0:
135,141,163760,1,2,0:0:0:0:
151,63,163918,1,0,0:0:0:0:
151,63,163997,1,0,0:0:0:0:
151,63,164076,6,0,P|212:49|237:38,1,64.9999970245362,2|0,0:0|0:0,0:0:0:0:
295,6,164392,2,0,P|395:24|431:41,1,129.999994049072,8|2,0:0|0:0,0:0:0:0:
477,106,164865,2,0,L|470:190,1,64.9999970245362,0|2,0:0|0:0,0:0:0:0:
422,247,165181,2,0,P|342:266|273:262,1,129.999994049072,8|0,0:0|0:0,0:0:0:0:
214,221,165655,2,0,P|153:206|35:268,1,194.999991073609,8|0,0:0|0:0,0:0:0:0:
79,355,166286,2,0,L|166:362,1,64.9999970245362,2|0,0:0|0:0,0:0:0:0:
143,360,166523,1,0,0:0:0:0:
143,360,166602,6,0,P|218:347|283:345,1,129.999994049072,8|2,0:0|0:0,0:0:0:0:
360,365,167076,2,0,P|439:357|510:334,1,129.999994049072,8|2,0:0|0:0,0:0:0:0:
489,248,167550,2,0,P|390:225|340:223,1,129.999994049072,8|2,0:0|0:0,0:0:0:0:
272,236,168023,1,8,0:0:0:0:
272,236,168102,1,8,0:0:0:0:
272,236,168181,2,0,L|219:245,3,32.4999985122681,8|8|2|2,0:0|0:0|0:0|0:0,0:0:0:0:
195,251,168497,2,0,L|142:260,3,32.4999985122681,8|8|8|8,0:0|0:0|0:0|0:0,0:0:0:0:
117,266,168813,1,8,0:0:0:0:
29,106,169129,6,0,P|22:74|21:31,1,64.9999970245362,2|0,0:0|0:0,0:0:0:0:
108,18,169444,2,0,P|210:34|266:35,1,129.999994049072,8|2,0:0|0:0,0:0:0:0:
325,13,169918,2,0,P|375:27|396:38,1,64.9999970245362,0|2,0:0|0:0,0:0:0:0:
468,74,170234,2,0,P|385:92|324:120,1,129.999994049072,8|0,0:0|0:0,0:0:0:0:
267,159,170707,2,0,P|371:168|445:236,1,194.999991073609,8|0,0:0|0:0,0:0:0:0:
465,311,171339,2,0,L|387:322,1,64.9999970245362,2|0,0:0|0:0,0:0:0:0:
400,320,171576,1,0,0:0:0:0:
400,320,171655,6,0,P|344:308|307:308,1,64.9999970245362,2|0,0:0|0:0,0:0:0:0:
258,354,171971,2,0,P|224:363|168:363,1,64.9999970245362,0|2,0:0|0:0,0:0:0:0:
120,311,172286,2,0,P|128:199|141:152,1,129.999994049072,8|2,0:0|0:0,0:0:0:0:
174,101,172760,2,0,L|254:111,1,64.9999970245362,8|0,0:0|0:0,0:0:0:0:
322,72,173076,1,8,0:0:0:0:
248,18,173234,2,0,L|171:11,1,64.9999970245362,2|0,0:0|0:0,0:0:0:0:
97,45,173550,2,0,P|54:120|39:177,1,129.999994049072,8|2,0:0|0:0,0:0:0:0:
58,257,174023,1,0,0:0:0:0:
58,257,174102,1,0,0:0:0:0:
58,257,174181,6,0,P|90:251|145:247,1,64.9999970245362,2|0,0:0|0:0,0:0:0:0:
189,310,174497,2,0,P|289:322|343:323,1,129.999994049072,8|2,0:0|0:0,0:0:0:0:
408,305,174971,1,0,0:0:0:0:
348,236,175129,1,2,0:0:0:0:
436,218,175286,2,0,P|457:127|460:61,1,129.999994049072,8|0,0:0|0:0,0:0:0:0:
406,16,175760,2,0,P|299:21|230:92,1,194.999991073609,8|0,0:0|0:0,0:0:0:0:
202,167,176392,2,0,P|172:176|129:179,1,64.9999970245362,8|2,0:0|0:0,0:0:0:0:
138,179,176629,1,0,0:0:0:0:
138,179,176707,6,0,L|125:331,1,129.999994049072,12|2,0:0|0:0,0:0:0:0:
223,368,177181,2,0,L|234:238,1,129.999994049072,12|0,0:0|0:0,0:0:0:0:
339,195,177655,2,0,L|326:347,1,129.999994049072,12|0,0:0|0:0,0:0:0:0:
424,384,178129,2,0,L|435:254,1,129.999994049072,12|0,0:0|0:0,0:0:0:0:
438,139,178602,2,0,P|459:131|499:126,3,43.3333313496908,8|8|8|8,0:0|0:0|0:0|0:3,0:0:0:0:
302,28,179234,6,0,P|207:48|144:92,1,150.000005722046,4|0,0:0|0:0,0:0:0:0:
77,104,179728,2,0,P|172:121|238:165,1,150.000005722046,8|0,0:0|0:0,0:0:0:0:
261,226,180223,2,0,P|224:327|111:311,1,225.000008583069,4|2,0:0|0:0,0:0:0:0:
176,252,180882,1,8,0:0:0:0:
330,345,181212,6,0,P|438:326|496:302,1,150.000005722046,4|2,0:0|0:0,0:0:0:0:
505,226,181706,2,0,P|402:179|347:170,1,150.000005722046,8|0,0:0|0:0,0:0:0:0:
275,170,182201,2,0,P|371:217|343:328,1,225.000008583069,4|2,0:0|0:0,0:0:0:0:
292,258,182860,1,8,0:0:0:0:
171,124,183190,6,0,P|67:83|18:78,1,150.000005722046,4|2,0:0|0:0,0:0:0:0:
2,164,183684,2,0,P|29:239|35:312,1,150.000005722046,8|0,0:0|0:0,0:0:0:0:
97,374,184179,2,0,P|73:269|176:221,1,225.000008583069,4|2,0:0|0:0,0:0:0:0:
154,306,184838,1,8,0:0:0:0:
323,245,185168,6,0,P|358:134|358:86,1,150.000005722046,4|2,0:0|0:0,0:0:0:0:
300,32,185662,2,0,P|224:15|137:17,1,150.000005722046,8|0,0:0|0:0,0:0:0:0:
84,75,186157,2,0,P|121:176|234:160,1,225.000008583069,4|2,0:0|0:0,0:0:0:0:
169,101,186816,1,8,0:0:0:0:
132,273,187146,6,0,P|200:277|303:305,1,150.000005722046,4|0,0:0|0:0,0:0:0:0:
355,343,187651,1,2,0:0:0:0:
430,293,187820,1,12,0:0:0:0:
430,293,188157,2,0,P|406:168|407:118,1,150.000005722046,2|0,0:0|0:0,0:0:0:0:
440,62,188662,2,0,L|516:54,2,75.000002861023,2|2|0,0:0|0:0|0:0,0:0:0:0:
351,42,189168,6,0,P|236:18|185:21,1,150.000005722046,4|0,0:0|0:0,0:0:0:0:
119,49,189674,1,2,0:0:0:0:
186,107,189842,1,12,0:0:0:0:
186,107,190179,2,0,P|159:228|159:288,1,150.000005722046,2|0,0:0|0:0,0:0:0:0:
177,341,190685,2,0,L|85:348,1,75.000002861023,2|2,0:0|0:0,0:0:0:0:
102,346,191190,6,0,P|39:319|-30:262,1,150.000005722046,4|0,0:0|0:0,0:0:0:0:
1,181,191696,1,2,0:0:0:0:
77,238,191865,1,12,0:0:0:0:
77,238,192202,2,0,P|157:225|258:196,1,150.000005722046,2|0,0:0|0:0,0:0:0:0:
287,144,192707,2,0,L|294:62,2,75.000002861023,2|2|0,0:0|0:0|0:0,0:0:0:0:
359,197,193213,6,0,P|390:299|398:353,1,150.000005722046,4|0,0:0|0:0,0:0:0:0:
316,382,193719,1,2,0:0:0:0:
252,318,193887,1,12,0:0:0:0:
252,318,194224,2,0,P|185:318|96:301,1,150.000005722046,2|0,0:0|0:0,0:0:0:0:
118,209,194730,2,0,P|81:219|44:224,1,75.000002861023,2|4,0:0|0:1,0:0:0:0:
